Ошибка

(Symphonic Power Metal) Luca Turilli (Luca Turilli's Dreamquest, Luca Turilli's Rhapsody) - Дискография (1999-2016 г.), FLAC (tracks), lossless

Ответить на тему
 
Автор Сообщение

Hobbit38

Пол: Пол:Муж

Стаж: 3 года 6 месяцев

Сообщений: 195

Россия
Рейтинг

post 03-Сен-2017 18:53 0[+]

[Цитировать] 


Luca Turilli - Дискография
Жанр: Symphonic Power Metal | Страна: Italy | Год выпуска: 1999-2016

Аудиокодек: FLAC (.flac) | Тип рипа: tracks | Битрейт аудио: lossless

Продолжительность: 08:56:53

Лука Турилли (итал. Luca Turilli) — итальянский рок-музыкант, гитарист, клавишник и композитор. Сооснователь пауэр-метал-группы Rhapsody of Fire и соавтор большей части её песен. Выпустил три сольных альбома и один альбом в рамках проекта Luca Turilli’s Dreamquest. После ухода из Rhapsody of Fire, в 2012 году, создал группу Luca Turilli’s Rhapsody.

Биография:

Родился 5 марта 1972 года в итальянском городе Триесте, в семье академического виолончелиста Луиджи Турилли и его жены Нелли. Учился играть на гитаре и клавишных с детства. Начинал с произведений Баха и Вивальди. Его любимая гитара — Ibanez Roadstar 550.

В 1993 году вместе с Алексом Старополи основал группу Rhapsody, в которой был основным композитором и автором текстов. Лука придумал сюжетную концепцию альбомов — фэнтезийную сагу «Хроники Алгалорда».

Лука живёт во Франции, в городе Лион, гражданским браком с Надей Беллир, детей нет. Увлекается компьютерными играми и говорит, что, не будь он музыкантом, стал бы разработчиком таких игр. В 1999 Турилли перенёс химиотерапию, вылечившись от рака.

Сольное творчество:

С 1999 года Лука Турилли выпустил три сольных альбома, которые, как и альбомы Rhapsody, являются сюжетным фэнтези-эпиками, выдержанными в жанре пауэр-метал. На этих альбомах Лука играет как на гитаре, так и на клавишных. В 2005 году он запустил параллельный сольный проект под названием Luca Turilli’s Dreamquest с женским сопрано. В рамках проекта вышел один альбом. Составы этих проектов совпадают, за исключением вокалиста.

Состав:

  • Лука Турилли — лидер-гитара, дополнительные клавишные
  • Olaf Hayer - вокал
  • Саша Паэт - бас, акустическая и дополнительная гитары
  • Michael Rodenberg (Миро) - клавишные, вокал, цимбалы, фортепиано
  • Robert Hunecke-Rizzo - ударные, вокал
  • Bridget Fogle (Myst) - женский вокал


Luca Turilli
Издатель (лейбл): Nothing To Say
Номер по каталогу: 3053042
Продолжительность: 00:13:44

Tracklist

01. Knight Of Immortal Fire
02. The Ancient Forest Of Elves
03. Warrior's Pride
 
Exact Audio Copy V1.0 beta 3 from 29. August 2011

EAC extraction logfile from 6. March 2014, 17:59

Luca Turilli / The Ancient Forest Of Elves

Used drive : _NEC DVD_RW ND-4571A Adapter: 0 ID: 0

Read mode : Secure
Utilize accurate stream : Yes
Defeat audio cache : Yes
Make use of C2 pointers : No

Read offset correction : 48
Overread into Lead-In and Lead-Out : No
Fill up missing offset samples with silence : Yes
Delete leading and trailing silent blocks : No
Null samples used in CRC calculations : Yes
Used interface : Native Win32 interface for Win NT & 2000

Used output format : Internal WAV Routines
Sample format : 44.100 Hz; 16 Bit; Stereo

TOC of the extracted CD

Track | Start | Length | Start sector | End sector
---------------------------------------------------------
1 | 0:00.00 | 4:44.07 | 0 | 21306
2 | 4:44.07 | 3:48.53 | 21307 | 38459
3 | 8:32.60 | 5:11.35 | 38460 | 61819

Range status and errors

Selected range

Filename D:\EAC\vknish\Luca Turilli - The Ancient Forest Of Elves.wav

Peak level 97.9 %
Extraction speed 3.6 X
Range quality 100.0 %
Test CRC FB2A9D42
Copy CRC FB2A9D42
Copy OK

No errors occurred

AccurateRip summary

Track 1 accurately ripped (confidence 2) [0E2492E2] (AR v1)
Track 2 accurately ripped (confidence 2) [F498D7D8] (AR v1)
Track 3 accurately ripped (confidence 2) [2935C08F] (AR v1)

All tracks accurately ripped

End of status report

---- CUETools DB Plugin V2.1.3

[CTDB TOCID: 8dlLEkN2RyTyHFQ2ifYkPTjl9SE-] disk not present in database, Submit result: 8dlLEkN2RyTyHFQ2ifYkPTjl9SE- has been uploaded

==== Log checksum 826A583F4EDA02114BABB3A9456475C4C2A778E1FD777FBD810A26F78D48022D ====
Страна-производитель диска: Germany
Издатель (лейбл): LMP
Номер по каталогу LMP 9909-013 CD
Продолжительность: 00:50:19

Tracklist

01. To Magic Horizons
02. Black Dragon
03. Legend Of Steel
04. Lord Of The Winter Snow
05. Princess Aurora
06. The Ancient Forest Of Elves
07. Throne Of Ice
08. Where Heroes Lie
09. Warrior's Pride
10. Kings Of The Nordic Twilight
11. Sofu Unga Astin Min
 
Exact Audio Copy V1.0 beta 3 from 29. August 2011

EAC extraction logfile from 18. March 2014, 21:10

Turilli, Luca / King Of The Nordic Twilight

Used drive : _NEC DVD_RW ND-4571A Adapter: 0 ID: 0

Read mode : Secure
Utilize accurate stream : Yes
Defeat audio cache : Yes
Make use of C2 pointers : No

Read offset correction : 48
Overread into Lead-In and Lead-Out : No
Fill up missing offset samples with silence : Yes
Delete leading and trailing silent blocks : No
Null samples used in CRC calculations : Yes
Used interface : Native Win32 interface for Win NT & 2000

Used output format : Internal WAV Routines
Sample format : 44.100 Hz; 16 Bit; Stereo

TOC of the extracted CD

Track | Start | Length | Start sector | End sector
---------------------------------------------------------
1 | 0:00.00 | 1:21.11 | 0 | 6085
2 | 1:21.11 | 5:05.52 | 6086 | 29012
3 | 6:26.63 | 5:21.08 | 29013 | 53095
4 | 11:47.71 | 6:05.50 | 53096 | 80520
5 | 17:53.46 | 3:47.13 | 80521 | 97558
6 | 21:40.59 | 4:43.66 | 97559 | 118849
7 | 26:24.50 | 1:51.35 | 118850 | 127209
8 | 28:16.10 | 4:24.60 | 127210 | 147069
9 | 32:40.70 | 3:47.21 | 147070 | 164115
10 | 36:28.16 | 11:37.04 | 164116 | 216394
11 | 48:05.20 | 2:13.33 | 216395 | 226402

Range status and errors

Selected range

Filename D:\EAC\vknish\Turilli, Luca - King Of The Nordic Twilight.wav

Peak level 98.8 %
Extraction speed 3.4 X
Range quality 100.0 %
Test CRC D5136B13
Copy CRC D5136B13
Copy OK

No errors occurred

AccurateRip summary

Track 1 accurately ripped (confidence 12) [8F0CAA12] (AR v2)
Track 2 accurately ripped (confidence 12) [472E1A86] (AR v2)
Track 3 accurately ripped (confidence 12) [CA0AD9C2] (AR v2)
Track 4 accurately ripped (confidence 12) [B778C4A8] (AR v2)
Track 5 accurately ripped (confidence 12) [26D6E670] (AR v2)
Track 6 accurately ripped (confidence 12) [2872B629] (AR v2)
Track 7 accurately ripped (confidence 12) [C2C851E7] (AR v2)
Track 8 accurately ripped (confidence 12) [D982E5D2] (AR v2)
Track 9 accurately ripped (confidence 12) [7E967AC8] (AR v2)
Track 10 accurately ripped (confidence 12) [42E75E97] (AR v2)
Track 11 accurately ripped (confidence 12) [C50210D6] (AR v2)

All tracks accurately ripped

End of status report

---- CUETools DB Plugin V2.1.3

[CTDB TOCID: epkzI0XZT9BIv8DXf20AXZ8QLYE-] found, Submit result: epkzI0XZT9BIv8DXf20AXZ8QLYE- has been confirmed
[b90a9146] (63/65) Accurately ripped
[4808d367] (01/65) No match
[7cdbb304] (01/65) No match

==== Log checksum 83AFB23259ED6A56EDA23220D7AB48EDFFABBD9831575A4CFC4AD45C945614D5 ====
Страна-производитель диска: Germany
Издатель (лейбл): LMP
Номер по каталогу: LMP 0209-044 CD
Продолжительность: 24:01

Tracklist

01. Demonheart
02. Prophet Of The Last Eclipse (Edit)
03. Rondeau In C Minor
04. Black Realms' Majesty
05. Kings Of The Nordic Twilight (Edit)
06. I'm Alive
 
Exact Audio Copy V1.0 beta 3 from 29. August 2011

EAC extraction logfile from 7. April 2014, 17:58

Luca Turilli / Demonheart

Used drive : _NEC DVD_RW ND-4571A Adapter: 0 ID: 0

Read mode : Secure
Utilize accurate stream : Yes
Defeat audio cache : Yes
Make use of C2 pointers : No

Read offset correction : 48
Overread into Lead-In and Lead-Out : No
Fill up missing offset samples with silence : Yes
Delete leading and trailing silent blocks : No
Null samples used in CRC calculations : Yes
Used interface : Native Win32 interface for Win NT & 2000

Used output format : Internal WAV Routines
Sample format : 44.100 Hz; 16 Bit; Stereo

TOC of the extracted CD

Track | Start | Length | Start sector | End sector
---------------------------------------------------------
1 | 0:00.00 | 5:02.54 | 0 | 22703
2 | 5:02.54 | 4:22.40 | 22704 | 42393
3 | 9:25.19 | 1:24.43 | 42394 | 48736
4 | 10:49.62 | 4:32.72 | 48737 | 69208
5 | 15:22.59 | 4:55.18 | 69209 | 91351
6 | 20:18.02 | 3:43.05 | 91352 | 108081

Range status and errors

Selected range

Filename D:\EAC\vknish\Luca Turilli - Demonheart.wav

Peak level 97.7 %
Extraction speed 3.9 X
Range quality 100.0 %
Test CRC C34C2AB2
Copy CRC C34C2AB2
Copy OK

No errors occurred

AccurateRip summary

Track 1 accurately ripped (confidence 10) [F4ED3293] (AR v2)
Track 2 accurately ripped (confidence 10) [BD99C1D0] (AR v2)
Track 3 accurately ripped (confidence 10) [F7B7F4D3] (AR v2)
Track 4 accurately ripped (confidence 10) [9AD05006] (AR v2)
Track 5 accurately ripped (confidence 10) [C41A7532] (AR v2)
Track 6 accurately ripped (confidence 10) [0AE6265E] (AR v2)

All tracks accurately ripped

End of status report

---- CUETools DB Plugin V2.1.3

[CTDB TOCID: nuhRG1dvqVwHU_JT_lL4CtXs1rc-] found, Submit result: nuhRG1dvqVwHU_JT_lL4CtXs1rc- has been confirmed
[570889fa] (26/26) Accurately ripped

==== Log checksum DB6BB0D7D2B08B6CEA96E1A5A11D8CE03739E9617FE85443AE8B4A2A5000CAD8 ====


Страна-производитель диска: Germany
Издатель (лейбл): LMP
Номер по каталогу: LMP 0210-045 LTD CD
Продолжительность: 01:01:14

Tracklist

01. Aenigma
02. War Of The Universe
03. Rider Of The Astral Fire
04. Zaephyr Skies' Theme
05. The Age Of Mystic Ice
06. Prince Of The Starlight
07. Timeless Oceans
08. Demonheart
09. New Century's Tarantella
10. Prophet Of The Last Eclipse
11. Dark Comet's Reign
12. Demonheart (Bonus Track) (Vocals Andre Matos)
 
Exact Audio Copy V1.0 beta 3 from 29. August 2011

EAC extraction logfile from 18. March 2014, 17:53

Luca Turilli / Prophet Of The Last Eclipse

Used drive : _NEC DVD_RW ND-4571A Adapter: 0 ID: 0

Read mode : Secure
Utilize accurate stream : Yes
Defeat audio cache : Yes
Make use of C2 pointers : No

Read offset correction : 48
Overread into Lead-In and Lead-Out : No
Fill up missing offset samples with silence : Yes
Delete leading and trailing silent blocks : No
Null samples used in CRC calculations : Yes
Used interface : Native Win32 interface for Win NT & 2000

Used output format : Internal WAV Routines
Sample format : 44.100 Hz; 16 Bit; Stereo

TOC of the extracted CD

Track | Start | Length | Start sector | End sector
---------------------------------------------------------
1 | 0:00.00 | 1:58.44 | 0 | 8893
2 | 1:58.44 | 4:18.54 | 8894 | 28297
3 | 6:17.23 | 5:12.32 | 28298 | 51729
4 | 11:29.55 | 3:19.11 | 51730 | 66665
5 | 14:48.66 | 4:53.68 | 66666 | 88708
6 | 19:42.59 | 5:13.33 | 88709 | 112216
7 | 24:56.17 | 4:18.24 | 112217 | 131590
8 | 29:14.41 | 5:08.49 | 131591 | 154739
9 | 34:23.15 | 5:15.48 | 154740 | 178412
10 | 39:38.63 | 11:48.59 | 178413 | 231571
11 | 51:27.47 | 4:43.48 | 231572 | 252844
12 | 56:11.20 | 5:02.51 | 252845 | 275545

Range status and errors

Selected range

Filename D:\EAC\vknish\Luca Turilli - Prophet Of The Last Eclipse.wav

Peak level 97.7 %
Extraction speed 3.6 X
Range quality 100.0 %
Test CRC 43FA7E5B
Copy CRC 43FA7E5B
Copy OK

No errors occurred

AccurateRip summary

Track 1 accurately ripped (confidence 8) [D0CFE88C] (AR v2)
Track 2 accurately ripped (confidence 8) [E7569B5D] (AR v2)
Track 3 accurately ripped (confidence 8) [B18BA7C1] (AR v2)
Track 4 accurately ripped (confidence 8) [DA3E2D93] (AR v2)
Track 5 accurately ripped (confidence 8) [37C5D82A] (AR v2)
Track 6 accurately ripped (confidence 8) [25E1BF33] (AR v2)
Track 7 accurately ripped (confidence 8) [95DE2238] (AR v2)
Track 8 accurately ripped (confidence 8) [A633BAE5] (AR v2)
Track 9 accurately ripped (confidence 8) [8CBAB48C] (AR v2)
Track 10 accurately ripped (confidence 8) [4EFC26CA] (AR v2)
Track 11 accurately ripped (confidence 8) [AA813827] (AR v2)
Track 12 accurately ripped (confidence 8) [0962D6C6] (AR v2)

All tracks accurately ripped

End of status report

---- CUETools DB Plugin V2.1.3

[CTDB TOCID: pxL5trPHWd1wo1SnePbSijwvgyw-] found, Submit result: pxL5trPHWd1wo1SnePbSijwvgyw- has been confirmed
[aa75646f] (38/38) Accurately ripped

==== Log checksum 322B95E7F15317B3B52E339A5261D07103CF09573D22ABB6770DBCCAF4FD377B ====
Страна-производитель диска: Germany
Издатель (лейбл): Magic Circle Music LTD
Номер по каталогу: MCA 08179-2
Продолжительность: 00:54:06

Tracklist

01. Secrets Of Forgotten Ages
02. Mother Nature
03. Angels Of The Winter Dawn
04. Altitudes
05. The Miracle Of Life
06. Silver Moon
07. Cosmic Revelation
08. Pyramids And Stargates
09. Mystic And Divine
10. The Infinite Wonders Of Creation
11. Altitudes (Piano Version) (Bonus Track)
 
Exact Audio Copy V1.0 beta 3 from 29. August 2011

EAC extraction logfile from 24. March 2014, 21:27

Luca Turilli / The Infinite Wonder Of Creation

Used drive : _NEC DVD_RW ND-4571A Adapter: 0 ID: 0

Read mode : Secure
Utilize accurate stream : Yes
Defeat audio cache : Yes
Make use of C2 pointers : No

Read offset correction : 48
Overread into Lead-In and Lead-Out : No
Fill up missing offset samples with silence : Yes
Delete leading and trailing silent blocks : No
Null samples used in CRC calculations : Yes
Used interface : Native Win32 interface for Win NT & 2000

Used output format : Internal WAV Routines
Sample format : 44.100 Hz; 16 Bit; Stereo

TOC of the extracted CD

Track | Start | Length | Start sector | End sector
---------------------------------------------------------
1 | 0:00.00 | 3:12.65 | 0 | 14464
2 | 3:12.65 | 4:39.28 | 14465 | 35417
3 | 7:52.18 | 4:16.11 | 35418 | 54628
4 | 12:08.29 | 4:37.23 | 54629 | 75426
5 | 16:45.52 | 4:24.19 | 75427 | 95245
6 | 21:09.71 | 5:37.65 | 95246 | 120585
7 | 26:47.61 | 4:48.50 | 120586 | 142235
8 | 31:36.36 | 6:07.57 | 142236 | 169817
9 | 37:44.18 | 4:21.22 | 169818 | 189414
10 | 42:05.40 | 8:40.36 | 189415 | 228450
11 | 50:46.01 | 3:20.03 | 228451 | 243453

Range status and errors

Selected range

Filename D:\EAC\vknish\Luca Turilli - The Infinite Wonder Of Creation.wav

Peak level 98.8 %
Extraction speed 4.7 X
Range quality 99.9 %
Test CRC D80D700C
Copy CRC D80D700C
Copy OK

No errors occurred

AccurateRip summary

Track 1 accurately ripped (confidence 15) [C3486CAD] (AR v2)
Track 2 accurately ripped (confidence 15) [AEA0DC95] (AR v2)
Track 3 accurately ripped (confidence 15) [B8D11FD2] (AR v2)
Track 4 accurately ripped (confidence 15) [561BB023] (AR v2)
Track 5 accurately ripped (confidence 15) [AE860204] (AR v2)
Track 6 accurately ripped (confidence 15) [ED1C40F3] (AR v2)
Track 7 accurately ripped (confidence 15) [DDDA18F9] (AR v2)
Track 8 accurately ripped (confidence 15) [329E7D76] (AR v2)
Track 9 accurately ripped (confidence 15) [F594ED22] (AR v2)
Track 10 accurately ripped (confidence 15) [E88293FE] (AR v2)
Track 11 accurately ripped (confidence 15) [461D372D] (AR v2)

All tracks accurately ripped

End of status report

---- CUETools DB Plugin V2.1.3

[CTDB TOCID: SSy.uvHlRwyqwMfuzWjwNFfaguI-] found, Submit result: SSy.uvHlRwyqwMfuzWjwNFfaguI- has been confirmed
[09b5d3e6] (41/42) Accurately ripped
[61862647] (01/42) No match

==== Log checksum 6E3F7F76D93C6AAC13B9CEC34FEF113963C899EEFFB969BF0816DC8756A8472B ====
Страна-производитель диска: Germany
Издатель (лейбл): Magic Circle Music LTD
Номер по каталогу: MCA21194-2
Продолжительность: 00:15:12

Tracklist

01. Virus (Single Edit)
02. Antivirus (Remix)
03. Too Late
04. Sospiro Divino
 
Exact Audio Copy V1.0 beta 3 from 29. August 2011

EAC extraction logfile from 24. March 2014, 20:58

Luca Turilli's Dreamquest / Virus

Used drive : _NEC DVD_RW ND-4571A Adapter: 0 ID: 0

Read mode : Secure
Utilize accurate stream : Yes
Defeat audio cache : Yes
Make use of C2 pointers : No

Read offset correction : 48
Overread into Lead-In and Lead-Out : No
Fill up missing offset samples with silence : Yes
Delete leading and trailing silent blocks : No
Null samples used in CRC calculations : Yes
Used interface : Native Win32 interface for Win NT & 2000

Used output format : Internal WAV Routines
Sample format : 44.100 Hz; 16 Bit; Stereo

TOC of the extracted CD

Track | Start | Length | Start sector | End sector
---------------------------------------------------------
1 | 0:00.00 | 3:37.03 | 0 | 16277
2 | 3:37.03 | 3:14.48 | 16278 | 30875
3 | 6:51.51 | 4:24.45 | 30876 | 50720
4 | 11:16.21 | 3:55.54 | 50721 | 68399

Range status and errors

Selected range

Filename D:\EAC\vknish\Luca Turilli's Dreamquest - Virus.wav

Peak level 100.0 %
Extraction speed 3.5 X
Range quality 99.9 %
Test CRC A7BF9286
Copy CRC A7BF9286
Copy OK

No errors occurred

AccurateRip summary

Track 1 accurately ripped (confidence 7) [33274BDB] (AR v2)
Track 2 accurately ripped (confidence 7) [8F9341B3] (AR v2)
Track 3 accurately ripped (confidence 7) [D2254838] (AR v2)
Track 4 accurately ripped (confidence 7) [0E2099B5] (AR v2)

All tracks accurately ripped

End of status report

---- CUETools DB Plugin V2.1.3

[CTDB TOCID: 689p6qVN.0mSC9_t4UTF8WJyYVA-] found, Submit result: 689p6qVN.0mSC9_t4UTF8WJyYVA- has been confirmed
[045dab4d] (18/18) Accurately ripped

==== Log checksum D33B4F20862D6CFC9CD8A739B40F057CEA2EF14665277AC88892057538A0E895 ====
Sascha Paeth - Bass
Robert Hunecke-Rizzo - Drums, Guitars (rhythm)
Luca Turilli - Guitars (lead)
Olaf Hayer - Vocals (lead)
Miro - Keyboards

Luca Turilli's Dreamquest


Страна-производитель диска: Germany
Издатель (лейбл): Magic Circle Music LTD
Номер по каталогу: MCA21149-2
Продолжительность: 00:53:57

Tracklist

01. Introspection
02. Virus
03. Dreamquest
04. Black Rose
05. Lost Horizons
06. Sospiro Divino
07. Shades of Eternity
08. Energy
09. Frozen Star
10. Kyoto's Romance
11. Too Late
12. Dolphin's Heart
13. Gothic Vision
 
Exact Audio Copy V1.0 beta 3 from 29. August 2011

EAC extraction logfile from 1. April 2014, 18:32

Luca Turilli's Dreamquest / Lost Horizons

Used drive : _NEC DVD_RW ND-4571A Adapter: 0 ID: 0

Read mode : Secure
Utilize accurate stream : Yes
Defeat audio cache : Yes
Make use of C2 pointers : No

Read offset correction : 48
Overread into Lead-In and Lead-Out : No
Fill up missing offset samples with silence : Yes
Delete leading and trailing silent blocks : No
Null samples used in CRC calculations : Yes
Used interface : Native Win32 interface for Win NT & 2000

Used output format : Internal WAV Routines
Sample format : 44.100 Hz; 16 Bit; Stereo

TOC of the extracted CD

Track | Start | Length | Start sector | End sector
---------------------------------------------------------
1 | 0:00.00 | 0:15.48 | 0 | 1172
2 | 0:15.48 | 4:17.12 | 1173 | 20459
3 | 4:32.60 | 4:19.69 | 20460 | 39953
4 | 8:52.54 | 3:46.30 | 39954 | 56933
5 | 12:39.09 | 4:20.12 | 56934 | 76445
6 | 16:59.21 | 3:57.22 | 76446 | 94242
7 | 20:56.43 | 3:48.50 | 94243 | 111392
8 | 24:45.18 | 4:00.05 | 111393 | 129397
9 | 28:45.23 | 4:59.27 | 129398 | 151849
10 | 33:44.50 | 5:39.07 | 151850 | 177281
11 | 39:23.57 | 4:28.02 | 177282 | 197383
12 | 43:51.59 | 4:01.09 | 197384 | 215467
13 | 47:52.68 | 6:03.50 | 215468 | 242742

Range status and errors

Selected range

Filename D:\EAC\vknish\Luca Turilli's Dreamquest - Lost Horizons.wav

Peak level 97.7 %
Extraction speed 4.5 X
Range quality 99.9 %
Test CRC 5E1C1EE7
Copy CRC 5E1C1EE7
Copy OK

No errors occurred

AccurateRip summary

Track 1 accurately ripped (confidence 10) [C4C5DFE9] (AR v2)
Track 2 accurately ripped (confidence 10) [B80F078C] (AR v2)
Track 3 accurately ripped (confidence 10) [B88FCBF1] (AR v2)
Track 4 accurately ripped (confidence 10) [52544F6F] (AR v2)
Track 5 accurately ripped (confidence 10) [19E5135C] (AR v2)
Track 6 accurately ripped (confidence 10) [80B72A63] (AR v2)
Track 7 accurately ripped (confidence 10) [0474AC20] (AR v2)
Track 8 accurately ripped (confidence 10) [9E952B61] (AR v2)
Track 9 accurately ripped (confidence 10) [A9248B99] (AR v2)
Track 10 accurately ripped (confidence 10) [ED0F003B] (AR v2)
Track 11 accurately ripped (confidence 10) [F39F52CA] (AR v2)
Track 12 accurately ripped (confidence 10) [7BAE5780] (AR v2)
Track 13 accurately ripped (confidence 10) [77B456B6] (AR v2)

All tracks accurately ripped

End of status report

---- CUETools DB Plugin V2.1.3

[CTDB TOCID: QtEGIdTptzzHQEFniESvmqhXfBo-] found, Submit result: already submitted
[877f3096] (61/61) Accurately ripped

==== Log checksum 0A93FFE26E7DA98945721693DC223E8458C361B1ABE1E546BAF8E16CB4C1211E ====
Dominique Leurquin - Guitars
Myst - Vocals
Luca Turilli - Keyboards

Luca Turilli's Rhapsody
Страна-производитель диска: Japan
Издатель (лейбл): King Record Co
Номер по каталогу: KICP1628
Продолжительность: 01:07:08

Tracklist

01. Quatrum X
02. Ascending To Infinity
03. Dante's Inferno
04. Excalibur
05. Tormento E Passione
06. Dark Fate Of Atlantis
07. Luna
08. Clash Of The Titans
09. Of Michael The Archangel And Lucifer's Fall
10. March Of Time
11. In The Mirror
 
Exact Audio Copy V1.0 beta 3 from 29. August 2011

EAC extraction logfile from 13. April 2014, 16:27

Luca Turilli's Rhapsody / Ascending To Infinity (Japanese Edition)

Used drive : HP DVD Writer 1170d Adapter: 0 ID: 0

Read mode : Secure
Utilize accurate stream : Yes
Defeat audio cache : Yes
Make use of C2 pointers : No

Read offset correction : 6
Overread into Lead-In and Lead-Out : No
Fill up missing offset samples with silence : Yes
Delete leading and trailing silent blocks : No
Null samples used in CRC calculations : Yes
Used interface : Native Win32 interface for Win NT & 2000

Used output format : User Defined Encoder
Selected bitrate : 768 kBit/s
Quality : High
Add ID3 tag : No
Command line compressor : C:\Program Files (x86)\Exact Audio Copy\FLAC\FLAC.EXE
Additional command line options : -V -8 -T "Date=%year%" -T "Genre=%genre%" -T"COMMENT=Ripped by Ungern666" -8 -V %source%

TOC of the extracted CD

Track | Start | Length | Start sector | End sector
---------------------------------------------------------
1 | 0:00.00 | 2:26.43 | 0 | 10992
2 | 2:26.43 | 6:15.04 | 10993 | 39121
3 | 8:41.47 | 4:56.54 | 39122 | 61375
4 | 13:38.26 | 8:06.26 | 61376 | 97851
5 | 21:44.52 | 4:51.72 | 97852 | 119748
6 | 26:36.49 | 6:29.58 | 119749 | 148981
7 | 33:06.32 | 4:15.42 | 148982 | 168148
8 | 37:21.74 | 4:14.70 | 168149 | 187268
9 | 41:36.69 | 16:02.08 | 187269 | 259426
10 | 57:39.02 | 5:51.57 | 259427 | 285808
11 | 63:30.59 | 3:37.44 | 285809 | 302127

Range status and errors

Selected range

Filename C:\EAC\Ungern666\Luca Turilli's Rhapsody - Ascending To Infinity (Japanese Edition).wav

Peak level 97.7 %
Extraction speed 6.7 X
Range quality 100.0 %
Test CRC 0A028E06
Copy CRC 0A028E06
Copy OK

No errors occurred

AccurateRip summary

Track 1 accurately ripped (confidence 3) [4528872F] (AR v2)
Track 2 accurately ripped (confidence 3) [80104863] (AR v2)
Track 3 accurately ripped (confidence 4) [1DE9524D] (AR v2)
Track 4 accurately ripped (confidence 4) [47F22CB7] (AR v2)
Track 5 accurately ripped (confidence 3) [FB97BE45] (AR v2)
Track 6 accurately ripped (confidence 4) [3F457A45] (AR v2)
Track 7 accurately ripped (confidence 3) [0706334B] (AR v2)
Track 8 accurately ripped (confidence 4) [A9E38973] (AR v2)
Track 9 accurately ripped (confidence 4) [4F0D1B0B] (AR v2)
Track 10 accurately ripped (confidence 4) [C50E5DB1] (AR v2)
Track 11 accurately ripped (confidence 4) [77E2B8A4] (AR v2)

All tracks accurately ripped

End of status report

==== Log checksum 6F529719F152167180EE687CF74EFD48B061CB149427B0DC5F85DC3E71080A39 ====
Страна-производитель диска: Germany
Издатель (лейбл): Nuclear Blast Records
Номер по каталогу: 27361 32320
Продолжительность: 01:14:15

Tracklist

01. Nova genesis (Ad splendorem angeli triumphantis)
02. Il cigno nero
03. Rosenkreuz (The Rose and the Cross)
04. Anahata
05. Il tempo degli dei
06. One Ring to Rule Them All
07. Notturno
08. Prometheus
09. King Solomon and the 72 Names of God
10. Yggdrasil
11. Of Michael the Archangel and Lucifer's Fall, Part II: Codex Nemesis
12. Thundersteel (Cinematic version)
 
Exact Audio Copy V1.1 from 23. June 2015

EAC extraction logfile from 30. July 2015, 22:45

Luca Turilli's Rhapsody / Prometheus - Symphonia ignis divinus

Used drive : HL-DT-STDVDRAM GE20NU11 Adapter: 1 ID: 2

Read mode : Secure
Utilize accurate stream : Yes
Defeat audio cache : Yes
Make use of C2 pointers : No

Read offset correction : 667
Overread into Lead-In and Lead-Out : No
Fill up missing offset samples with silence : Yes
Delete leading and trailing silent blocks : No
Null samples used in CRC calculations : Yes
Used interface : Native Win32 interface for Win NT & 2000

Used output format : Internal WAV Routines
Sample format : 44.100 Hz; 16 Bit; Stereo

TOC of the extracted CD

Track | Start | Length | Start sector | End sector
---------------------------------------------------------
1 | 0:00.00 | 3:08.15 | 0 | 14114
2 | 3:08.15 | 4:08.68 | 14115 | 32782
3 | 7:17.08 | 4:34.40 | 32783 | 53372
4 | 11:51.48 | 5:03.72 | 53373 | 76169
5 | 16:55.45 | 5:03.08 | 76170 | 98902
6 | 21:58.53 | 7:05.18 | 98903 | 130795
7 | 29:03.71 | 4:34.59 | 130796 | 151404
8 | 33:38.55 | 5:06.43 | 151405 | 174397
9 | 38:45.23 | 6:51.52 | 174398 | 205274
10 | 45:37.00 | 6:00.41 | 205275 | 232315
11 | 51:37.41 | 18:04.65 | 232316 | 313680
12 | 69:42.31 | 4:32.62 | 313681 | 334142

Range status and errors

Selected range

Filename D:\EAC\vknish\Luca Turilli's Rhapsody - Prometheus - Symphonia ignis divinus.wav

Peak level 97.7 %
Extraction speed 1.4 X
Range quality 100.0 %
Test CRC 573F0E54
Copy CRC 573F0E54
Copy OK

No errors occurred

AccurateRip summary

Track 1 accurately ripped (confidence 4) [2729E84D] (AR v2)
Track 2 accurately ripped (confidence 4) [790EE28D] (AR v2)
Track 3 accurately ripped (confidence 4) [7ECAB2C7] (AR v2)
Track 4 accurately ripped (confidence 4) [6518BF35] (AR v2)
Track 5 accurately ripped (confidence 4) [F3096B80] (AR v2)
Track 6 accurately ripped (confidence 4) [EE74DE1F] (AR v2)
Track 7 accurately ripped (confidence 4) [FF9089F1] (AR v2)
Track 8 accurately ripped (confidence 4) [86C896B0] (AR v2)
Track 9 accurately ripped (confidence 4) [D72667C3] (AR v2)
Track 10 accurately ripped (confidence 4) [3D8F6E64] (AR v2)
Track 11 accurately ripped (confidence 4) [1DD50061] (AR v2)
Track 12 accurately ripped (confidence 4) [75D4E2E0] (AR v2)

All tracks accurately ripped

End of status report

---- CUETools DB Plugin V2.1.6

[CTDB TOCID: KgIBTdQZUHWOdXCG6KM9B2zk7xI-] found
Submit result: KgIBTdQZUHWOdXCG6KM9B2zk7xI- has been confirmed
Track | CTDB Status
1 | (20/21) Accurately ripped
2 | (20/21) Accurately ripped
3 | (20/21) Accurately ripped
4 | (20/21) Accurately ripped
5 | (20/21) Accurately ripped
6 | (20/21) Accurately ripped
7 | (20/21) Accurately ripped
8 | (20/21) Accurately ripped
9 | (20/21) Accurately ripped
10 | (20/21) Accurately ripped
11 | (20/21) Accurately ripped
12 | (20/21) Accurately ripped

==== Log checksum DBE6CDB212A9AEB47A573EB41182C28E49974C4B77FB90DC58C4AE03C26B6E9D ====
Издатель (лейбл): Nuclear Blast Entertainment
Номер по каталогу: NB 3796-0
Продолжительность: 01:03:03 + 00:59:53
01. Nova Genesis 03:34
02. Il Cigno Nero (Reloaded) 04:12
03. Rosenkreuz (The Rose And The Cross) 04:55
04. Land Of Immortals 04:57
05. Aenigma 01:31
06. War Of The Universe 04:41
07. Of Michael The Archangel And Lucifer’s Fall (Extract) 03:55
08. Excalibur 07:22
09. The Ancient Forest Of Elves 04:54
10. Son Of Pain 04:51
11. Prometheus 05:11
12. Drum Solo 03:23
13. Knightrider Of Doom 05:20
14. Warrior’s Pride 04:18
 
Exact Audio Copy V1.1 from 23. June 2015

EAC extraction logfile from 14. December 2016, 20:01

Luca Turilli's Rhapsody / Cinematic And Live CD 1

Used drive : HP DVD Writer 1170d Adapter: 1 ID: 1

Read mode : Secure
Utilize accurate stream : Yes
Defeat audio cache : Yes
Make use of C2 pointers : No

Read offset correction : 6
Overread into Lead-In and Lead-Out : No
Fill up missing offset samples with silence : Yes
Delete leading and trailing silent blocks : No
Null samples used in CRC calculations : Yes
Used interface : Native Win32 interface for Win NT & 2000

Used output format : User Defined Encoder
Selected bitrate : 1024 kBit/s
Quality : High
Add ID3 tag : No
Command line compressor : C:\Program Files (x86)\Exact Audio Copy\Flac\flac.exe
Additional command line options : -V -8 -T "Date=%year%" -T "Genre=%genre%" %source%

TOC of the extracted CD

Track | Start | Length | Start sector | End sector
---------------------------------------------------------
1 | 0:00.00 | 3:34.07 | 0 | 16056
2 | 3:34.07 | 4:11.65 | 16057 | 34946
3 | 7:45.72 | 4:55.06 | 34947 | 57077
4 | 12:41.03 | 4:56.52 | 57078 | 79329
5 | 17:37.55 | 1:31.32 | 79330 | 86186
6 | 19:09.12 | 4:40.67 | 86187 | 107253
7 | 23:50.04 | 3:54.70 | 107254 | 124873
8 | 27:44.74 | 7:22.35 | 124874 | 158058
9 | 35:07.34 | 4:53.59 | 158059 | 180092
10 | 40:01.18 | 4:50.59 | 180093 | 201901
11 | 44:52.02 | 5:10.50 | 201902 | 225201
12 | 50:02.52 | 3:23.27 | 225202 | 240453
13 | 53:26.04 | 5:19.45 | 240454 | 264423
14 | 58:45.49 | 4:18.07 | 264424 | 283780

Range status and errors

Selected range

Filename C:\EAC\Ungern666\Luca Turilli's Rhapsody - Cinematic And Live CD 1.wav

Peak level 98.8 %
Extraction speed 7.3 X
Range quality 100.0 %
Test CRC 1402E59A
Copy CRC 1402E59A
Copy OK

No errors occurred

AccurateRip summary

Track 1 not present in database
Track 2 not present in database
Track 3 not present in database
Track 4 not present in database
Track 5 not present in database
Track 6 not present in database
Track 7 not present in database
Track 8 not present in database
Track 9 not present in database
Track 10 not present in database
Track 11 not present in database
Track 12 not present in database
Track 13 not present in database
Track 14 not present in database

None of the tracks are present in the AccurateRip database

End of status report

---- CUETools DB Plugin V2.1.6

[CTDB TOCID: EOWm2OUhAKHk4Ftisv.TjfIna40-] found
Submit result: EOWm2OUhAKHk4Ftisv.TjfIna40- has been confirmed
Track | CTDB Status
1 | (2/2) Accurately ripped
2 | (2/2) Accurately ripped
3 | (2/2) Accurately ripped
4 | (2/2) Accurately ripped
5 | (2/2) Accurately ripped
6 | (2/2) Accurately ripped
7 | (2/2) Accurately ripped
8 | (2/2) Accurately ripped
9 | (2/2) Accurately ripped
10 | (2/2) Accurately ripped
11 | (2/2) Accurately ripped
12 | (2/2) Accurately ripped
13 | (2/2) Accurately ripped
14 | (2/2) Accurately ripped

==== Log checksum EA1DF32F8CA1C5A698FF474240C97EC7ACA5C43AB76436A99C85DA4A6CE6578A ====
01. The Astral Convergence 02:15
02. The Pride Of The Tyrant 04:56
03. Tormento E Passione 04:43
04. Demonheart 05:24
05. Bass Solo 02:22
06. Warrior Of Ice 06:09
07. Of Michael The Archangel And Lucifer’s Fall Part II - Of Psyche And Archetypes 02:46
08. Dark Fate Of Atlantis 09:18
09. Dawn Of Victory 05:56
10. Quantum X 02:23
11. Ascending To Infinity 06:42
12. Emerald Sword 04:22
13. Finale 02:37
 
Exact Audio Copy V1.1 from 23. June 2015

EAC extraction logfile from 14. December 2016, 20:27

Luca Turilli's Rhapsody / Cinematic And Live CD 2

Used drive : HP DVD Writer 1170d Adapter: 1 ID: 1

Read mode : Secure
Utilize accurate stream : Yes
Defeat audio cache : Yes
Make use of C2 pointers : No

Read offset correction : 6
Overread into Lead-In and Lead-Out : No
Fill up missing offset samples with silence : Yes
Delete leading and trailing silent blocks : No
Null samples used in CRC calculations : Yes
Used interface : Native Win32 interface for Win NT & 2000

Used output format : User Defined Encoder
Selected bitrate : 1024 kBit/s
Quality : High
Add ID3 tag : No
Command line compressor : C:\Program Files (x86)\Exact Audio Copy\Flac\flac.exe
Additional command line options : -V -8 -T "Date=%year%" -T "Genre=%genre%" %source%

TOC of the extracted CD

Track | Start | Length | Start sector | End sector
---------------------------------------------------------
1 | 0:00.00 | 2:14.40 | 0 | 10089
2 | 2:14.40 | 4:55.39 | 10090 | 32253
3 | 7:10.04 | 4:42.38 | 32254 | 53441
4 | 11:52.42 | 5:24.18 | 53442 | 77759
5 | 17:16.60 | 2:22.14 | 77760 | 88423
6 | 19:38.74 | 6:09.34 | 88424 | 116132
7 | 25:48.33 | 2:45.72 | 116133 | 128579
8 | 28:34.30 | 9:18.35 | 128580 | 170464
9 | 37:52.65 | 5:55.74 | 170465 | 197163
10 | 43:48.64 | 2:22.39 | 197164 | 207852
11 | 46:11.28 | 6:42.28 | 207853 | 238030
12 | 52:53.56 | 4:21.71 | 238031 | 257676
13 | 57:15.52 | 2:37.34 | 257677 | 269485

Range status and errors

Selected range

Filename C:\EAC\Ungern666\Luca Turilli's Rhapsody - Cinematic And Live CD 2.wav

Peak level 98.8 %
Extraction speed 5.9 X
Range quality 100.0 %
Test CRC A997D750
Copy CRC A997D750
Copy OK

No errors occurred

AccurateRip summary

Track 1 not present in database
Track 2 not present in database
Track 3 not present in database
Track 4 not present in database
Track 5 not present in database
Track 6 not present in database
Track 7 not present in database
Track 8 not present in database
Track 9 not present in database
Track 10 not present in database
Track 11 not present in database
Track 12 not present in database
Track 13 not present in database

None of the tracks are present in the AccurateRip database

End of status report

---- CUETools DB Plugin V2.1.6

[CTDB TOCID: oHJEebvQS08DK1WLLojpMz.Fvk0-] found
Submit result: oHJEebvQS08DK1WLLojpMz.Fvk0- has been confirmed
Track | CTDB Status
1 | (1/1) Accurately ripped
2 | (1/1) Accurately ripped
3 | (1/1) Accurately ripped
4 | (1/1) Accurately ripped
5 | (1/1) Accurately ripped
6 | (1/1) Accurately ripped
7 | (1/1) Accurately ripped
8 | (1/1) Accurately ripped
9 | (1/1) Accurately ripped
10 | (1/1) Accurately ripped
11 | (1/1) Accurately ripped
12 | (1/1) Accurately ripped
13 | (1/1) Accurately ripped

==== Log checksum 35D4AB37813B46B9BB6424A7C72657205209FC02B840762556090BDDA5C05BB2 ====

Страна-производитель диска: Germany
Издатель (лейбл): Nuclear Blast Records
Разрядность: 24 bit / 48 kHz
Продолжительность: 01:09:35

Tracklist

01. Nova genesis (Ad splendorem angeli triumphantis)
02. Il cigno nero
03. Rosenkreuz (The Rose and the Cross)
04. Anahata
05. Il tempo degli dei
06. One Ring to Rule Them All
07. Notturno
08. Prometheus
09. King Solomon and the 72 Names of God
10. Yggdrasil
11. Of Michael the Archangel and Lucifer's Fall, Part II: Codex Nemesis
 
foobar2000 1.3.13 / Замер динамического диапазона (DR) 1.1.1
Дата отчёта: 2017-01-28 15:52:39
--------------------------------------------------------------------------------
Анализ: Luca Turilli's Rhapsody / Prometheus (The Dolby Atmos Experience)
--------------------------------------------------------------------------------
DR Пики RMS Продолжительность трека
--------------------------------------------------------------------------------
DR8 -0.05 дБ -11.69 дБ 3:16 01-Nova Genesis (Ad Splendorem Angeli Triumphantis)
DR7 0.00 дБ -8.62 дБ 4:12 02- Il Cigno Nero
DR7 0.00 дБ -8.52 дБ 4:37 03- Rosenkreuz (The Rose And The Cross)
DR7 0.00 дБ -8.58 дБ 5:10 04-Anahata
DR7 0.00 дБ -9.41 дБ 5:04 05-Il Tempo Degli Dei
DR7 0.00 дБ -10.22 дБ 7:07 06-One Ring To Rule Them All
DR7 0.00 дБ -11.34 дБ 4:34 07-Notturno
DR7 0.00 дБ -9.03 дБ 5:10 08- Prometheus
DR7 0.00 дБ -9.93 дБ 6:57 09- King Solomon And The 72 Names Of God
DR8 0.00 дБ -10.08 дБ 6:01 10-Yggdrasil
DR7 0.00 дБ -10.57 дБ 18:07 11-Of Michael The Archangel And Lucifer's Fall Part II: Codex Nemesis
--------------------------------------------------------------------------------
Количество треков: 11
Реальные значения DR: DR7
Частота: 48000 Гц
Каналов: 2
Разрядность: 24
Битрейт: 1788 кбит/с
Кодек: FLAC
================================================================================
Alessandro Conti - Vocals
Luca Turilli - Guitars (lead), Keyboards, Lyrics
Dominique Leurquin - Guitars (lead, rhythm)
Patrice Guers - Bass
Alex Landenburg - Drums

info [Профиль]  [ЛС] 

Hobbit38

Пол: Пол:Муж

Стаж: 3 года 6 месяцев

Сообщений: 195

Россия
Рейтинг

post 29-Окт-2017 12:44 (спустя 1 месяц 25 дней) [-]0[+]

[Цитировать] 

Обновление:
  • Добавлен VinilRip "Ascending to Infinity".
  • Добавлен "Prometheus: The Dolby Atmos Experience".
info [Профиль]  [ЛС] 

Hobbit38

Пол: Пол:Муж

Стаж: 3 года 6 месяцев

Сообщений: 195

Россия
Рейтинг

post 11-Ноя-2017 13:03 (спустя 13 дней) [-]0[+]

[Цитировать] 

Обновление:
  • Удален VinilRip "Ascending to Infinity".
info [Профиль]  [ЛС] 
Показать сообщения:    
Ответить на тему

Текущее время: 19-Ноя 03:35

Часовой пояс: GMT + 4



Вы не можете начинать темы
Вы не можете отвечать на сообщения
Вы не можете редактировать свои сообщения
Вы не можете удалять свои сообщения
Вы не можете голосовать в опросах
Вы не можете прикреплять файлы к сообщениям
Вы не можете скачивать файлы