Ошибка
Загрузка...

(Arrangement) The Game of Thrones Symphony (by Ramin Djawadi & The City of Prague Philharmonic Orchestra) - 2017 г., FLAC (tracks), lossless

Ответить на тему
 
Автор Сообщение

Hobbit38

Пол: Пол:Муж

Стаж: 3 года 4 месяца

Сообщений: 112

Россия
Рейтинг

post 31-Авг-2017 12:16 0[+]

[Цитировать] 



Жанр: Arrangement | Год выпуска диска: 2017

Композитор: Ramin Djawadi | Исполнитель: The City of Prague Philharmonic Orchestra

Страна-производитель диска: US | Издатель (лейбл): Silva Screen Music | Номер каталога: SILKD6056

Аудио кодек: FLAC (.flac) | Тип рипа: tracks | Битрейт аудио: lossless

Продолжительность: 01:09:11 | Полиграфия: Присутствует

01. Main Title (01:53)
02. Goodbye Brother (03:06)
03. Finale (From Season 1) (02:36)
04. Warrior of Light (02:58)
05. Winterfell (02:42)
06. Mother of Dragons (02:28)
07. A Lannister Always Pays His Debts (02:44)
08. Dracarys (03:01)
09. Mhysa (04:01)
10. Two Swords (01:47)
11. You Are No Son of Mine (04:30)
12. The Children (02:43)
13. Blood of the Dragon (01:29)
14. Dance of Dragons (03:05)
15. Atonement (02:56)
16. Son of the Harpy (05:12)
17. Light of the Seven (09:52)
18. Khaleesi (03:02)
19. Winter Has Come (03:11)
20. Hear Me Roar (02:29)
21. The Winds of Winter (03:26)
Exact Audio Copy V1.3 from 2. September 2016
EAC extraction logfile from 13. April 2017, 17:18
Ramin Djawadi / Unknown Title
Used drive : PLEXTOR CD-R PX-230A Adapter: 1 ID: 0
Read mode : Secure
Utilize accurate stream : Yes
Defeat audio cache : Yes
Make use of C2 pointers : No
Read offset correction : 738
Overread into Lead-In and Lead-Out : No
Fill up missing offset samples with silence : Yes
Delete leading and trailing silent blocks : No
Null samples used in CRC calculations : Yes
Used interface : Native Win32 interface for Win NT & 2000
Gap handling : Appended to previous track
Used output format : User Defined Encoder
Selected bitrate : 1024 kBit/s
Quality : High
Add ID3 tag : No
Command line compressor : C:\Program Files\Exact Audio Copy\Flac\flac.exe
Additional command line options : -6 -V -T "ARTIST=%artist%" -T "TITLE=%title%" -T "ALBUM=%albumtitle%" -T "DATE=%year%" -T "TRACKNUMBER=%tracknr%" -T "GENRE=%genre%" -T "COMMENT=%comment%" -T "ALBUMARTIST=%albuminterpret%" -T "COMPOSER=%composer%" -T "DISCNUMBER=%cdnumber%" -T "TOTALDISCS=%totalcds%" -T "TOTALTRACKS=%numtracks%" %source% -o %dest%
TOC of the extracted CD
Track | Start | Length | Start sector | End sector
---------------------------------------------------------
1 | 0:00.00 | 1:53.05 | 0 | 8479
2 | 1:53.05 | 3:06.28 | 8480 | 22457
3 | 4:59.33 | 2:36.03 | 22458 | 34160
4 | 7:35.36 | 2:58.37 | 34161 | 47547
5 | 10:33.73 | 2:42.23 | 47548 | 59720
6 | 13:16.21 | 2:27.62 | 59721 | 70807
7 | 15:44.08 | 2:44.37 | 70808 | 83144
8 | 18:28.45 | 3:00.74 | 83145 | 96718
9 | 21:29.44 | 4:00.47 | 96719 | 114765
10 | 25:30.16 | 1:47.26 | 114766 | 122816
11 | 27:17.42 | 4:29.72 | 122817 | 143063
12 | 31:47.39 | 2:42.47 | 143064 | 155260
13 | 34:30.11 | 1:29.17 | 155261 | 161952
14 | 35:59.28 | 3:05.10 | 161953 | 175837
15 | 39:04.38 | 2:56.23 | 175838 | 189060
16 | 42:00.61 | 5:12.06 | 189061 | 212466
17 | 47:12.67 | 9:52.30 | 212467 | 256896
18 | 57:05.22 | 3:01.57 | 256897 | 270528
19 | 60:07.04 | 3:10.69 | 270529 | 284847
20 | 63:17.73 | 2:28.59 | 284848 | 296006
21 | 65:46.57 | 3:26.06 | 296007 | 311462
Track 1
Filename C:\Ripped by Filex\01 - Main Title.wav
Pre-gap length 0:00:02.00
Peak level 90.1 %
Extraction speed 4.8 X
Track quality 100.0 %
Test CRC C2A4E45C
Copy CRC C2A4E45C
Track not present in AccurateRip database
Copy OK
Track 2
Filename C:\Ripped by Filex\02 - Goodbye Brother.wav
Peak level 90.1 %
Extraction speed 5.5 X
Track quality 100.0 %
Test CRC 94DEFC0D
Copy CRC 94DEFC0D
Track not present in AccurateRip database
Copy OK
Track 3
Filename C:\Ripped by Filex\03 - Finale (From Season 1).wav
Peak level 90.1 %
Extraction speed 5.0 X
Track quality 99.9 %
Test CRC 83BAF2D6
Copy CRC 83BAF2D6
Track not present in AccurateRip database
Copy OK
Track 4
Filename C:\Ripped by Filex\04 - Warrior of Light.wav
Peak level 90.1 %
Extraction speed 6.2 X
Track quality 100.0 %
Test CRC 7A8BF871
Copy CRC 7A8BF871
Track not present in AccurateRip database
Copy OK
Track 5
Filename C:\Ripped by Filex\05 - Winterfell.wav
Peak level 90.1 %
Extraction speed 5.5 X
Track quality 99.9 %
Test CRC 07C9069F
Copy CRC 07C9069F
Track not present in AccurateRip database
Copy OK
Track 6
Filename C:\Ripped by Filex\06 - Mother of Dragons.wav
Peak level 90.1 %
Extraction speed 6.4 X
Track quality 100.0 %
Test CRC 630D86C8
Copy CRC 630D86C8
Track not present in AccurateRip database
Copy OK
Track 7
Filename C:\Ripped by Filex\07 - A Lannister Always Pays His Debts.wav
Peak level 90.1 %
Extraction speed 6.8 X
Track quality 100.0 %
Test CRC ABF5CB2E
Copy CRC ABF5CB2E
Track not present in AccurateRip database
Copy OK
Track 8
Filename C:\Ripped by Filex\08 - Dracarys.wav
Peak level 90.1 %
Extraction speed 7.1 X
Track quality 100.0 %
Test CRC 14C465F7
Copy CRC 14C465F7
Track not present in AccurateRip database
Copy OK
Track 9
Filename C:\Ripped by Filex\09 - Mhysa.wav
Peak level 90.1 %
Extraction speed 7.5 X
Track quality 100.0 %
Test CRC A8697321
Copy CRC A8697321
Track not present in AccurateRip database
Copy OK
Track 10
Filename C:\Ripped by Filex\10 - Two Swords.wav
Peak level 90.1 %
Extraction speed 7.0 X
Track quality 100.0 %
Test CRC 90AD8E39
Copy CRC 90AD8E39
Track not present in AccurateRip database
Copy OK
Track 11
Filename C:\Ripped by Filex\11 - You Are No Son of Mine.wav
Peak level 90.1 %
Extraction speed 8.1 X
Track quality 100.0 %
Test CRC 6FE22E8F
Copy CRC 6FE22E8F
Track not present in AccurateRip database
Copy OK
Track 12
Filename C:\Ripped by Filex\12 - The Children.wav
Peak level 90.1 %
Extraction speed 8.0 X
Track quality 100.0 %
Test CRC E99B4291
Copy CRC E99B4291
Track not present in AccurateRip database
Copy OK
Track 13
Filename C:\Ripped by Filex\13 - Blood of the Dragon.wav
Peak level 90.1 %
Extraction speed 7.5 X
Track quality 100.0 %
Test CRC 5C599B89
Copy CRC 5C599B89
Track not present in AccurateRip database
Copy OK
Track 14
Filename C:\Ripped by Filex\14 - Dance of Dragons.wav
Peak level 90.1 %
Extraction speed 8.3 X
Track quality 100.0 %
Test CRC 42A15E2E
Copy CRC 42A15E2E
Track not present in AccurateRip database
Copy OK
Track 15
Filename C:\Ripped by Filex\15 - Atonement.wav
Peak level 90.1 %
Extraction speed 7.3 X
Track quality 99.9 %
Test CRC 44370E91
Copy CRC 44370E91
Track not present in AccurateRip database
Copy OK
Track 16
Filename C:\Ripped by Filex\16 - Son of the Harpy.wav
Peak level 90.1 %
Extraction speed 8.2 X
Track quality 99.9 %
Test CRC 1C60D4BE
Copy CRC 1C60D4BE
Track not present in AccurateRip database
Copy OK
Track 17
Filename C:\Ripped by Filex\17 - Light of the Seven.wav
Peak level 90.1 %
Extraction speed 9.9 X
Track quality 100.0 %
Test CRC 95EE03D8
Copy CRC 95EE03D8
Track not present in AccurateRip database
Copy OK
Track 18
Filename C:\Ripped by Filex\18 - Khaleesi.wav
Peak level 90.1 %
Extraction speed 9.3 X
Track quality 100.0 %
Test CRC AD2414A4
Copy CRC AD2414A4
Track not present in AccurateRip database
Copy OK
Track 19
Filename C:\Ripped by Filex\19 - Winter Has Come.wav
Peak level 90.1 %
Extraction speed 8.5 X
Track quality 99.9 %
Test CRC D48E2953
Copy CRC D48E2953
Track not present in AccurateRip database
Copy OK
Track 20
Filename C:\Ripped by Filex\20 - Hear Me Roar.wav
Peak level 90.1 %
Extraction speed 9.0 X
Track quality 100.0 %
Test CRC DC9E59CF
Copy CRC DC9E59CF
Track not present in AccurateRip database
Copy OK
Track 21
Filename C:\Ripped by Filex\21 - The Winds of Winter.wav
Peak level 90.1 %
Extraction speed 9.6 X
Track quality 100.0 %
Test CRC ACFFF789
Copy CRC ACFFF789
Track not present in AccurateRip database
Copy OK
None of the tracks are present in the AccurateRip database
No errors occurred
End of status report
---- CUETools DB Plugin V2.1.6
[CTDB TOCID: p8oT7wMhm6rkz7JTMl4Rm.HiuIY-] disk not present in database
Submit result: p8oT7wMhm6rkz7JTMl4Rm.HiuIY- has been uploaded
==== Log checksum D913CAA46AE47876AB4846EEAF161E2AE5A810FE91B4AE9C57997DE78F704D47 ====

info [Профиль]  [ЛС] 
Показать сообщения:    
Ответить на тему

Текущее время: 23-Сен 15:23

Часовой пояс: GMT + 4



Вы не можете начинать темы
Вы не можете отвечать на сообщения
Вы не можете редактировать свои сообщения
Вы не можете удалять свои сообщения
Вы не можете голосовать в опросах
Вы не можете прикреплять файлы к сообщениям
Вы не можете скачивать файлы