Ошибка

(Symphonic Power Metal) Rhapsody of Fire - Дискография (1997-2017), FLAC (tracks), lossless

Ответить на тему
 
Автор Сообщение

Hobbit38

Пол: Пол:Муж

Стаж: 3 года 2 месяца

Сообщений: 86

Россия
Рейтинг

post 22-Июн-2017 23:20 1[+]

[Цитировать] 


Rhapsody of Fire - Дискография
Жанр: Symphonic Power Metal | Страна: Italy | Год выпуска: 1997-2017

Аудиокодек: FLAC (.flac) | Тип рипа: tracks | Битрейт аудио: lossless

Продолжительность: 17:25:50

Первые годы

Гитарист Лука Турилли, происходящий из семьи классических музыкантов, познакомился с клавишником Алексом Старополи в 1990 году на курсах медитации. Написав вместе несколько песен, в 1993 году они основали группу Thundercross. Вокалистом коллектива стал Кристиано Адакер, ударником — их старый знакомый Даниэле Карбонера, а менеджером — известный продюсер Саша Паэт, сотрудничавший позднее с Kamelot и After Forever. В этом составе, уже под названием Rhapsody, группа записала демо-синглы Land of Immortals и Eternal Glory, изданные на лейбле Limb music.

Перед записью дебютного альбома Legendary Tales в 1997 году, Rhapsody покинул вокалист. Новым фронтменом стал Фабио Лионе, ранее певший в группе Labyrinth. Фабио не был прежде знаком с Лукой Турилли и Алексом Старополи, поэтому отношения между ними начались со скандала: вокалист отказывался исполнять не понравившуюся ему песню Land of Immortals. Однако вскоре отношения в группе наладились, и Лионе стал постоянным вокалистом Rhapsody на всех альбомах группы.

Дебютный альбом стал началом многосерийной фэнтези-саги «Хроники Алгалорда», написанной Турилли, который является основным автором текстов группы. Альбом был выдержан в стиле мелодичного пауэр-метала, с использованием некоторых элементов фолк-музыки и музыки барокко. На следующий год группа выпустила второй альбом Symphony of Enchanted Lands, сюжетно и стилистически продолжающий первый. В записи альбома принял участие хор донских казаков.

Изменения состава

С 1999 года Турилли начал выпускать сольные альбомы, не прекращая усиленно работать с Rhapsody. В 1999 году группу покинул ударник Карбонера, которого сменил сессионный барабанщик Алекс Хольцварт (брат сессионного басиста Blind Guardian Оливера Хольцварта), официально включенный в состав группы только в 2003 году. На альбомах Dawn of Victory и Rain of a Thousand Flames группа продолжала сюжетную сагу о стране Алгалорд, Воине Льда и Изумрудном Мече. Звучание песен группы при этом заметно «потяжелело», особенно это заметно в альбоме Power of the DragonFlame. Турилли даже упоминал о желании записать альбом в стиле симфо-блэк-метал, но из-за разногласий со студией этот проект не был осуществлен.

До 2000 года Rhapsody почти не выступали вживую. Музыканты не были уверены в возможности полноценного переноса на сцену всех элементов их музыки из-за большого количества инструментов и сложных аранжировок. Но в 2000 году группа впервые отправилась в полноценный европейский тур со Stratovarius и Sonata Arctica. Вскоре после тура группу оставил басист Алессандро Лотта, закончивший музыкальную карьеру ради семьи. На альбоме Power of the Dragonflame партии баса исполнены самим Турилли, для живых же выступлений был приглашён француз Патрис Гуирс. С его участием прошёл первый южноамериканский тур Rhapsody.

Известность группы распространилась далеко за пределы Италии и даже Европы, и группа вскоре ушла с маленького лейбла Limb music. Последним их релизом с этой компанией стал сборник хитов Tales from the Emerald Sword Saga. Новый альбом 2004 года Symphony of Enchanted Lands II: The Dark Secret вышел на SPV Steamhammer. На нём Rhapsody пригласили известного голливудского актёра Кристофера Ли (Саруман, граф Дуку) в качестве со-сценариста альбома и для чтения сопроводительного текста «от рассказчика». Кристофер Ли также спел дуэтом с Фабио балладу «The Magic of the Wizard’s Dream», снялся в двух клипах и участвовал в выступлениях группы.

Новое название

Музыканты Rhapsody близко знакомы с музыкантами американской хэви-метал-группы Manowar, и их музыка оказывала влияние друг на друга. Группы неоднократно проводили совместные туры под общим названием «Demons, Dragons and Warriors», где их третьим партнером была группа HolyHell. Запись концерта в Канаде в рамках этого тура вышла на DVD Live in Canada 2005: The Dark Secret. В 2006 году Rhapsody подписали контракт с лейблом Magic Circle Music, принадлежащим Джои Де Майо, лидеру Manowar, американскому итальянцу по происхождению, который лично стал продюсером группы.

Вскоре после этого, в середине 2006 года группа вынуждена была удлинить официальное название до Rhapsody of Fire в связи с некими претензиями по поводу прав на торговую марку. Участники не сообщили, кто именно предъявил это требование. Многие обозреватели связывали это с переходом на Magic Circle Music и возможными контрактными обязательствами перед Steamhammer records или Limb music. Однако Турилли заявил, что группа не испытывает никаких проблем с лейблом[6]. Другой распространенной версией является иск от компании Real Media, которой принадлежит сервис по поиску музыки под названием «Rhapsody». Изменение названия было спародировано итальянской комической группой Nanowar, которая стала добавлять к своему названию слова «Of Steel».

Под маркой Rhapsody of Fire группа выпустила альбом Triumph or Agony (2006), на котором продолжила сотрудничество с Кристофером Ли и новую сагу.

Сотрудничество с Magic Circle Music оказалось омрачено финансовым скандалом. В 2008 году между лейблом и группой произошло судебное разбирательство.

Череда скандалов и неприятностей привела к тому, что с 2008 года группа практически прекратила концертную и студийную деятельность. О распаде Rhapsody не было объявлено, но фактически группа на протяжении почти двух лет не существовала. Участники в это время занимались сольными проектами. Лука Турилли по-прежнему выпускал сольные альбомы и гастролирует со своим составом. Фабио Лионе выступал с группой Vision Divine. Сандро Старополи записал сольный альбом. Алекс Хольцварт поработал со своим братом Оливером в рамках их проекта.

Воссоединение

В ноябре 2009 года сайт Rhapsody of Fire.com объявил, что группа все же воссоединится и издаст восьмой номерной альбом на крупном лейбле Nuclear Blast. Рабочее название альбома — The Frozen Tears of Angels. Мировой релиз альбома состоялся 30 апреля 2010 года.

Раскол

16 августа 2011 года основатели группы Лука Турилли и Алекс Старополи объявили о «дружественном расходе». Алекс Старополи, Том Хесс, Алекс Хольцварт, Фабио Лионе и присоединившиеся к ним басист Оливер Хольцварт и гитарист Роберто Де Микели продолжат деятельность под именем Rhapsody of Fire; Лука Турилли, Доминик Леркин, Патрис Герс и Алекс Хольцварт создадут новую группу Rhapsody. Коллектив во главе с Лукой Турилли начнет активную творческую деятельность с июня 2012 года, о чём сказано в трейлере этого музыкального проекта.
«Хроники Алгалорда» — эпическая история в жанре фэнтези, составляющая концепцию альбомов Rhapsody. Тексты почти всех песен посвящены этой концепции, хотя основная часть сюжета известна из сопроводительного текста в буклетах к альбомам. Часть истории написана актёром Кристофером Ли.

История, по словам музыкантов, вдохновлена фольклором разных стран (в том числе русским) и посвящена бескомпромиссной борьбе добра и зла. По словам Луки Турилли, «зло скрывается повсюду. Но ему не победить, покуда есть достаточно добрых людей, чтобы противостоять ему».

Сага об Изумрудном Мече

История рассказывается от имени эльгардского летописца, волшебника Арезиуса.

В первой части истории земли Алгалорда подвергаются нашествию сил демонов под предводительством Акрона, сеющих смерть и разрушение. Чтобы одолеть врага, северный герой, названный в пророчестве именем Воин Льда, отправляется на поиски древнего оружия — Изумрудного Меча. В Эльгарде он встречается с волшебником Арезиусом, который знает пророчество. С Арезиусом они отправляются в город Анцелот, зрелище прекрасных земель вдохновляет их. С помощью ключей Икарена Воин Льда открывает эбонитовые врата и входит в запретные земли. Там к нему присоединяется дракон Тарос. С боями они достигают роковой башни и завладевают Мечом, но Тарос получает смертельные раны на обратном пути.

Воин Льда присоединяется к защитникам Анцелота и с помощью чудесного оружия освобождает город от осады демонов под командованием могучего Даргора. Но принцесса Айрин, невеста анцелотского короля Арвальда, была захвачена в плен вместе со многими другими, и владыка демонов Акрон требует в обмен на их жизни Изумрудный Меч. Воин Льда и Арвальд принесли ему требуемое, однако коварный демон на их глазах замучил Айрин, а затем Арвальда. Даже Даргор содрогнулся от жестокости своего повелителя. Воину Льда удалось бежать, оставив Меч в руках врага.

С помощью Меча демоны совершают кровавый ритуал воскрешения Королевы Проклятых, а на королевства обрушивается огненный дождь. В битве лицом к лицу сходятся Воин Льда и Даргор, Князь Теней. Герой пытается переубедить Даргора, но тот, будучи уверен, что Воин Льда виновен в гибели его семьи, тяжело ранит его. Акрон вошёл в Алгалорд, вырезая женщин и детей. В эти минуты Гея, Мать-Земля, прояснила разум Даргора, и он убил Королеву Проклятых, а умирающий Воин Льда утащил в болото Акрона. Ожившие статуи-горгульи пришли на помощь защитникам Алгалорда и повергли армию демонов в бегство. Совершив подвиг, искупающий его грехи, Даргор скрылся от людей.

Сага о Тёмной тайне

Начиная с альбома Symphony of Enchanted Lands II: The Dark Secret история получила продолжение, написанное Кристофером Ли, и теперь рассказывается от имени рыцаря Ираса Альгора из Хор-лад. Спустя многие годы после войны, мир царил на землях Алгалорда. Однако, согласно пророчеству ангела Эриана, седьмая чёрная книга рыцаря тьмы Некрона должна будет вернуть демонов в этот мир. Чтобы найти и уничтожить последнюю чёрную книгу, короли и герои создают Орден Белого Дракона, в который включают и Даргора Князя Теней. Они отправляются в древние подземелья Дар-Кунор, сквозь горы и болота. Во сне демон Ванкар, отец Даргора, укоряет его за предательство. В Дар-Куноре, разгадав загадку имени Некрона, они находят Чёрную Книгу на алтаре тёмной секты. Едва взяв её, герои вынуждены бежать, спасая свои жизни от оживших мертвецов.
Текущий состав на 2017 год:


  • Алессандро Старополи — клавишные (с 1993)
  • Роберто Де Микели — гитара (с 2011)
  • Алессандро Сала — бас-гитара (с 2015)
  • Джакомо Воли — вокал (с 2016)
  • Ману Лоттер — ударные (с 2016)


Бывшие участники:

  • Фабио Лионе — вокал (1997—2016)
  • Лука Турилли — гитара (1993-2011)
  • Патрис Гуирс — бас-гитара (2002-2011)
  • Доминик Леркин — ритм-гитара (2000-2011) (с 2000 - как сессионный музыкант, в 2010 включён в официальный состав, также участник Luca Turilli’s Dreamquest)
  • Алекс Хольцварт — ударные (2011–2012)
  • Даниэле Карбонера — ударные (1993—2000)
  • Алессандро Лотта — бас-гитара (1997—2001)
  • Кристиано Адакер — вокал (1993—1997)
  • Андреа Фюрлан — бас-гитара (1993—1997)
  • Том Хесс — гитара (2011—2013)
  • Оливер Хольцварт — бас-гитара (2011—2014)


Приглашённые музыканты

В записи своих альбомов Rhapsody часто используют оркестры, церковные хоры и отдельные симфонические инструменты. Некоторые из музыкантов сотрудничают с группой почти постоянно.

  • Мануэль Старополи (брат Алекса) — флейта
  • Кристофер Ли — голос
  • Чинция Риццо, Роберт Хунеке-Риццо, Оливер Хартман, Томас Реттке — хор
  • Дана Лурье — скрипка
  • Саша Паэт (менеджер группы) — мандолина

Rhapsody
Страна-производитель диска: Германия
Год издания диска: 1997
Издатель (лейбл): Limb Music Products
Номер по каталогу: LMP 9710-001 CD
Продолжительность: 00:45:34

Tracklist

01. Ira Tenax (1:13)
02. Warrior of Ice (5:58)
03. Rage of The Winter (6:13)
04. Forest of Unicorns (3:25)
05. Flames of Revenge (5:35)
06. Virgin Skies (1:20)
07. Land of Immortals (4:54)
08. Echoes of Tragedy (3:33)
09. Lord of The Thunder (5:34)
10. Legendary Tales (7:50)
 
Exact Audio Copy V1.0 beta 1 from 15. November 2010
EAC extraction logfile from 24. May 2011, 23:14
Rhapsody / Legendary Tales
Used drive : HL-DT-STDVDRAM GSA-T50N Adapter: 2 ID: 0
Read mode : Secure
Utilize accurate stream : Yes
Defeat audio cache : Yes
Make use of C2 pointers : No
Read offset correction : 667
Overread into Lead-In and Lead-Out : No
Fill up missing offset samples with silence : Yes
Delete leading and trailing silent blocks : No
Null samples used in CRC calculations : Yes
Used interface : Native Win32 interface for Win NT & 2000
Used output format : Internal WAV Routines
Sample format : 44.100 Hz; 16 Bit; Stereo
TOC of the extracted CD
Track | Start | Length | Start sector | End sector
---------------------------------------------------------
1 | 0:00.00 | 1:13.21 | 0 | 5495
2 | 1:13.21 | 5:58.01 | 5496 | 32346
3 | 7:11.22 | 6:12.64 | 32347 | 60310
4 | 13:24.11 | 3:24.46 | 60311 | 75656
5 | 16:48.57 | 5:34.45 | 75657 | 100751
6 | 22:23.27 | 1:20.28 | 100752 | 106779
7 | 23:43.55 | 4:53.74 | 106780 | 128828
8 | 28:37.54 | 3:32.59 | 128829 | 144787
9 | 32:10.38 | 5:34.19 | 144788 | 169856
10 | 37:44.57 | 7:49.38 | 169857 | 205069
Range status and errors
Selected range
Filename C:\Users\Igor\Desktop\Выкладка\Rhapsody - Legendary Tales\Rhapsody - Legendary Tales.wav
Peak level 99.0 %
Extraction speed 0.6 X
Range quality 100.0 %
Test CRC 3367920E
Copy CRC 3367920E
Copy OK
No errors occurred
AccurateRip summary
Track 1 accurately ripped (confidence 3) [841D1CB8]
Track 2 accurately ripped (confidence 3) [99704C80]
Track 3 accurately ripped (confidence 3) [FDDC0445]
Track 4 accurately ripped (confidence 3) [2A65EE52]
Track 5 accurately ripped (confidence 3) [3866FA66]
Track 6 accurately ripped (confidence 3) [F17A2A02]
Track 7 accurately ripped (confidence 3) [B5B03EE1]
Track 8 accurately ripped (confidence 3) [D36409D5]
Track 9 accurately ripped (confidence 3) [9C1C100F]
Track 10 accurately ripped (confidence 3) [4EA5E37B]
All tracks accurately ripped
End of status report
Страна-производитель диска: Германия
Год издания диска: 1998
Издатель (лейбл): Limb Music Products
Продолжительность: 00:13:47

Tracklist

01. Emerald Sword (4:22)
02. Where Dragons Fly (4:35)
03. Land of Immortals (Remake) (4:51)
 
Отчёт EAC об извлечении, выполненном 8. июня 2010, 16:26 для диска:
Rhapsody / Emerald Sword
Дисковод: _NEC DVD_RW ND-3520A Adapter: 3 ID: 0
Режим чтения: Достоверный (C2: нет, Точный поток: да, Отключение кэша: да)
Коррекция смещения при чтении: 48
Способность читать области Lead-in и Lead-out : Нет
Выходной формат: Внутренние WAV-операции
44.100 Гц; 16 бит; стерео
Другие параметры:
Заполнение пропущенных сэмплов тишиной : Да
Удаление блоков с тишиной в начале и конце : Нет
Встроенный Win32-интерфейс для Win NT/2000
Характеристики диапазона извлечения и сообщения об ошибках
Выбранный диапазон
Имя файла C:\Documents and Settings\Егор\Рабочий стол\Rhapsody - Emerald Sword.wav
Пиковый уровень 98.8 %
Качество диапазона 99.9 %
CRC 254B26EF
Копирование... OK
Ошибок не произошло
Конец отчёта
Страна-производитель диска: Германия
Год издания диска: 1998
Издатель (лейбл): Limb Music Products
Номер по каталогу: LMP 9810-007 CD
Продолжительность: 00:55:46

Tracklist

01. Epicus Furor (1:15)
02. Emerald Sword (4:21)
03. Wisdom of The Kings (4:29)
04. Heroes of The Lost Valley (2:04)
05. Eternal Glory (7:29)
06. Beyond The Gates of Infinity (7:23)
07. Wings of Destiny (4:28)
08. The Dark Tower of Abyss (6:47)
09. Riding The Winds of Eternity (4:13)
10. Symphony of Enchanted Lands (13:17)
 
Exact Audio Copy V1.0 beta 1 from 15. November 2010
EAC extraction logfile from 24. May 2011, 18:02
Rhapsody / Symphony Of Enchanted Lands
Used drive : HL-DT-STDVDRAM GSA-T50N Adapter: 2 ID: 0
Read mode : Secure
Utilize accurate stream : Yes
Defeat audio cache : Yes
Make use of C2 pointers : No
Read offset correction : 667
Overread into Lead-In and Lead-Out : No
Fill up missing offset samples with silence : Yes
Delete leading and trailing silent blocks : No
Null samples used in CRC calculations : Yes
Used interface : Native Win32 interface for Win NT & 2000
Used output format : Internal WAV Routines
Sample format : 44.100 Hz; 16 Bit; Stereo
TOC of the extracted CD
Track | Start | Length | Start sector | End sector
---------------------------------------------------------
1 | 0:00.00 | 1:14.38 | 0 | 5587
2 | 1:14.38 | 4:21.03 | 5588 | 25165
3 | 5:35.41 | 4:28.52 | 25166 | 45317
4 | 10:04.18 | 2:04.37 | 45318 | 54654
5 | 12:08.55 | 7:29.08 | 54655 | 88337
6 | 19:37.63 | 7:23.18 | 88338 | 121580
7 | 27:01.06 | 4:28.28 | 121581 | 141708
8 | 31:29.34 | 6:46.61 | 141709 | 172219
9 | 38:16.20 | 4:13.09 | 172220 | 191203
10 | 42:29.29 | 13:16.54 | 191204 | 250957
Range status and errors
Selected range
Filename C:\Users\Igor\Desktop\Выкладка\Rhapsody - Symphony Of Enchanted Lands\Rhapsody - Symphony Of Enchanted Lands.wav
Peak level 100.0 %
Extraction speed 0.9 X
Range quality 100.0 %
Test CRC F7364E80
Copy CRC F7364E80
Copy OK
No errors occurred
AccurateRip summary
Track 1 accurately ripped (confidence 2) [23FEB663]
Track 2 accurately ripped (confidence 2) [E2C300A9]
Track 3 accurately ripped (confidence 2) [59CA6211]
Track 4 accurately ripped (confidence 2) [2C530578]
Track 5 accurately ripped (confidence 2) [677398AA]
Track 6 accurately ripped (confidence 2) [63E72487]
Track 7 accurately ripped (confidence 2) [78A44451]
Track 8 accurately ripped (confidence 2) [651FCFA2]
Track 9 accurately ripped (confidence 22) [705941CB]
Track 10 accurately ripped (confidence 21) [C2778F74]
All tracks accurately ripped
End of status report
Страна-производитель диска: Германия
Год издания диска: 2000
Издатель (лейбл): Limb Music Products
Номер по каталогу: LMP 0010-023 DCD
Продолжительность: 00:49:32 + 00:19:18

Tracklist

CD 1
01. Lux Triumphans (2:00)
02. Dawn of Victory (4:47)
03. Triumph for My Magic Steel (5:47)
04. The Vilage of Dwarves (3:52)
05. Dargor, Shadowlord of The Black Mountain (4:48)
06. The Bloody Rage of The Titans (6:24)
07. Holy Thunderforce (4:22)
08. Trolls in The Dark (Instrumental) (2:32)
09. The Last Winged Unicorn (5:44)
10. The Mighty Ride of The Firelord (9:16)

CD 2
01. Guardians (Helloween cover) (4:23)
02. The Mighty Ride of The Firelord (Edit Version) (4:48)
03. Holy Thunderforce (Alternate Version) (4:21)
04. Triumph for My Magic Steel (Alternate Version) (5:46)
 
Exact Audio Copy V1.0 beta 1 from 15. November 2010
EAC extraction logfile from 8. April 2011, 20:40
Rhapsody / Dawn Of Victory
Used drive : HL-DT-STDVDRAM GSA-T50N Adapter: 2 ID: 0
Read mode : Secure
Utilize accurate stream : Yes
Defeat audio cache : Yes
Make use of C2 pointers : No
Read offset correction : 667
Overread into Lead-In and Lead-Out : No
Fill up missing offset samples with silence : Yes
Delete leading and trailing silent blocks : No
Null samples used in CRC calculations : Yes
Used interface : Native Win32 interface for Win NT & 2000
Used output format : User Defined Encoder
Selected bitrate : 768 kBit/s
Quality : High
Add ID3 tag : No
Command line compressor : C:\Program Files (x86)\Exact Audio Copy\FLAC\FLAC.EXE
Additional command line options : -6 -V -T "ARTIST=%a" -T "TITLE=%t" -T "ALBUM=%g" -T "DATE=%y" -T "TRACKNUMBER=%n" -T "GENRE=%m" -T "COMMENT=%e" %j--picture="%i"%j %s -o %d
TOC of the extracted CD
Track | Start | Length | Start sector | End sector
---------------------------------------------------------
1 | 0:00.00 | 2:00.23 | 0 | 9022
2 | 2:00.23 | 4:47.02 | 9023 | 30549
3 | 6:47.25 | 5:46.60 | 30550 | 56559
4 | 12:34.10 | 3:52.13 | 56560 | 73972
5 | 16:26.23 | 4:48.03 | 73973 | 95575
6 | 21:14.26 | 6:23.52 | 95576 | 124352
7 | 27:38.03 | 4:21.56 | 124353 | 143983
8 | 31:59.59 | 2:32.16 | 143984 | 155399
9 | 34:32.00 | 5:43.53 | 155400 | 181177
10 | 40:15.53 | 9:15.68 | 181178 | 222870
Range status and errors
Selected range
Filename C:\Users\Igor\Desktop\Rhapsody - Dawn Of Victory\Rhapsody - Dawn Of Victory.wav
Peak level 98.9 %
Extraction speed 0.7 X
Range quality 100.0 %
Test CRC 929D8ED7
Copy CRC 929D8ED7
Copy OK
No errors occurred
AccurateRip summary
Track 1 accurately ripped (confidence 61) [1F938502]
Track 2 accurately ripped (confidence 61) [5A600580]
Track 3 accurately ripped (confidence 61) [0E3A7A60]
Track 4 accurately ripped (confidence 60) [BD2F467F]
Track 5 accurately ripped (confidence 61) [89A42258]
Track 6 accurately ripped (confidence 60) [E3D02256]
Track 7 accurately ripped (confidence 61) [B1BABA8F]
Track 8 accurately ripped (confidence 61) [F1F96CB8]
Track 9 accurately ripped (confidence 60) [AF3B6A5C]
Track 10 accurately ripped (confidence 60) [2C57D9F7]
All tracks accurately ripped
End of status report
 
Exact Audio Copy V1.0 beta 1 from 15. November 2010
EAC extraction logfile from 8. April 2011, 20:55
Rhapsody / Dawn Of Victory (bonus cd)
Used drive : HL-DT-STDVDRAM GSA-T50N Adapter: 2 ID: 0
Read mode : Secure
Utilize accurate stream : Yes
Defeat audio cache : Yes
Make use of C2 pointers : No
Read offset correction : 667
Overread into Lead-In and Lead-Out : No
Fill up missing offset samples with silence : Yes
Delete leading and trailing silent blocks : No
Null samples used in CRC calculations : Yes
Used interface : Native Win32 interface for Win NT & 2000
Used output format : User Defined Encoder
Selected bitrate : 768 kBit/s
Quality : High
Add ID3 tag : No
Command line compressor : C:\Program Files (x86)\Exact Audio Copy\FLAC\FLAC.EXE
Additional command line options : -6 -V -T "ARTIST=%a" -T "TITLE=%t" -T "ALBUM=%g" -T "DATE=%y" -T "TRACKNUMBER=%n" -T "GENRE=%m" -T "COMMENT=%e" %j--picture="%i"%j %s -o %d
TOC of the extracted CD
Track | Start | Length | Start sector | End sector
---------------------------------------------------------
1 | 0:00.00 | 4:23.03 | 0 | 19727
2 | 4:23.03 | 4:48.21 | 19728 | 41348
3 | 9:11.24 | 4:20.60 | 41349 | 60908
4 | 13:32.09 | 5:45.51 | 60909 | 86834
5 | 21:49.60 | 33:49.01 | 98235 | 250410
Range status and errors
Selected range
Filename C:\Users\Igor\Desktop\Rhapsody - Dawn Of Victory\Rhapsody - Dawn Of Victory (bonus cd).wav
Peak level 98.9 %
Extraction speed 5.7 X
Range quality 100.0 %
Test CRC F0D87C47
Copy CRC F0D87C47
Copy OK
No errors occurred
AccurateRip summary
Track 1 accurately ripped (confidence 8) [46A01F1B]
Track 2 accurately ripped (confidence 6) [BB1F42BA]
Track 3 accurately ripped (confidence 7) [BB9391C8]
Track 4 accurately ripped (confidence 7) [4B0651D4]
All tracks accurately ripped
End of status report
Страна-производитель диска: Германия
Год издания диска: 2000
Издатель (лейбл): Limb Music Products
Номер по каталогу: LMP 0009-022 CDS
Продолжительность: 00:17:39

Tracklist

01. Holy Thunderforce (4:23)
02. Dargor, Shadowlord of The Black Mountain (8:28)
03. Rage of The Winter (4:48)
 
Exact Audio Copy V1.0 beta 1 from 15. November 2010
EAC extraction logfile from 15. May 2011, 11:31
Rhapsody / Holy Thunderforce
Used drive : HL-DT-STDVDRAM GSA-T50N Adapter: 2 ID: 0
Read mode : Secure
Utilize accurate stream : Yes
Defeat audio cache : Yes
Make use of C2 pointers : No
Read offset correction : 667
Overread into Lead-In and Lead-Out : No
Fill up missing offset samples with silence : Yes
Delete leading and trailing silent blocks : No
Null samples used in CRC calculations : Yes
Used interface : Native Win32 interface for Win NT & 2000
Used output format : User Defined Encoder
Selected bitrate : 768 kBit/s
Quality : High
Add ID3 tag : No
Command line compressor : C:\Program Files (x86)\Exact Audio Copy\FLAC\FLAC.EXE
Additional command line options : -6 -V -T "ARTIST=%a" -T "TITLE=%t" -T "ALBUM=%g" -T "DATE=%y" -T "TRACKNUMBER=%n" -T "GENRE=%m" -T "COMMENT=%e" %j--picture="%i"%j %s -o %d
TOC of the extracted CD
Track | Start | Length | Start sector | End sector
---------------------------------------------------------
1 | 0:00.00 | 4:22.59 | 0 | 19708
2 | 4:22.59 | 8:28.20 | 19709 | 57828
3 | 12:51.04 | 4:47.44 | 57829 | 79397
Range status and errors
Selected range
Filename C:\Users\Igor\Desktop\Выкладка\Rhapsody - Holy Thunderforce\Rhapsody - Holy Thunderforce.wav
Peak level 98.9 %
Extraction speed 0.8 X
Range quality 99.9 %
Test CRC B4296336
Copy CRC B4296336
Copy OK
No errors occurred
AccurateRip summary
Track 1 accurately ripped (confidence 20) [8EE9A6A6]
Track 2 accurately ripped (confidence 21) [6DB96BE9]
Track 3 accurately ripped (confidence 21) [F8D27266]
All tracks accurately ripped
End of status report
Страна-производитель диска: Германия
Год издания диска: 2001
Издатель (лейбл): Limb Music Products
Номер по каталогу: LMP 0110-036 DP
Продолжительность: 00:41:53

Tracklist

01. Rain of A Thousand Flames (3:44)
02. Deadly Omen (1:49)
03. Queen of The Dark Horizons (13:43)
04. Tears of A Dying Angel (6:22)
05. Elnor's Magic Valley (1:40)
06. The Poem's Evil Page (4:05)
07. The Wizard's Last Rhymes (10:38)
 
Exact Audio Copy V1.0 beta 2 from 29. April 2011
EAC extraction logfile from 15. July 2011, 22:51
Rhapsody / Rain Of A Thousand Flames
Used drive : HL-DT-STDVDRAM GSA-T50N Adapter: 2 ID: 0
Read mode : Secure
Utilize accurate stream : Yes
Defeat audio cache : Yes
Make use of C2 pointers : No
Read offset correction : 667
Overread into Lead-In and Lead-Out : No
Fill up missing offset samples with silence : Yes
Delete leading and trailing silent blocks : No
Null samples used in CRC calculations : Yes
Used interface : Native Win32 interface for Win NT & 2000
Used output format : User Defined Encoder
Selected bitrate : 768 kBit/s
Quality : High
Add ID3 tag : No
Command line compressor : C:\Program Files (x86)\Exact Audio Copy\FLAC\FLAC.EXE
Additional command line options : -6 -V -T "ARTIST=%artist%" -T "TITLE=%title%" -T "ALBUM=%albumtitle%" -T "DATE=%year%" -T "TRACKNUMBER=%tracknr%" -T "GENRE=%genre%" -T "COMMENT=%comment%" %hascover%--picture="%coverfile%"%hascover% %source% -o %dest%
TOC of the extracted CD
Track | Start | Length | Start sector | End sector
---------------------------------------------------------
1 | 0:00.00 | 3:44.44 | 0 | 16843
2 | 3:44.44 | 1:48.44 | 16844 | 24987
3 | 5:33.13 | 13:41.45 | 24988 | 86607
4 | 19:14.58 | 6:22.13 | 86608 | 115270
5 | 25:36.71 | 1:40.30 | 115271 | 122800
6 | 27:17.26 | 4:04.41 | 122801 | 141141
7 | 31:21.67 | 10:31.34 | 141142 | 188500
8 | 44:25.26 | 4:18.44 | 199901 | 219294
Range status and errors
Selected range
Filename C:\Users\Igor\Desktop\Выкладка\Rhapsody - Rain Of A Thousand Flames\Rhapsody - Rain Of A Thousand Flames.wav
Peak level 99.6 %
Extraction speed 3.8 X
Range quality 100.0 %
Test CRC D0DDA1E2
Copy CRC D0DDA1E2
Copy OK
No errors occurred
AccurateRip summary
Track 1 accurately ripped (confidence 2) [AEC3A60C] (AR v2)
Track 2 accurately ripped (confidence 2) [11100DAB] (AR v2)
Track 3 accurately ripped (confidence 2) [D5AAD8CC] (AR v2)
Track 4 accurately ripped (confidence 2) [E6400F71] (AR v2)
Track 5 accurately ripped (confidence 2) [5D02E50C] (AR v2)
Track 6 accurately ripped (confidence 2) [0350228F] (AR v2)
Track 7 accurately ripped (confidence 2) [6AD42191] (AR v2)
All tracks accurately ripped
End of status report
Страна-производитель диска: Германия
Год издания диска: 2002
Издатель (лейбл): Limb Music Products
Номер по каталогу: LMP 0203-040 CD/DVD
Продолжительность: 01:05:01

Tracklist

01. In Tenebris (1:29)
02. Knightrider of Doom (3:57)
03. Power of The Dragonflame (4:27)
04. The March of The Swordmaster (5:04)
05. When Demons Awake (6:47)
06. Agony is My Name (4:58)
07. Lamento Eroico (4:39)
08. Steelgods of The Last Apocalypse (5:48)
09. The Pride of The Tyrant (4:53)
10. Rise from The Sea of Flames (Bonus Track) (3:59)
11. Gargoyles, Angels of Darkness (19:03)
 
Exact Audio Copy V1.0 beta 1 from 15. November 2010
EAC extraction logfile from 15. May 2011, 9:47
Rhapsody / Power Of The Dragonflame
Used drive : HL-DT-STDVDRAM GSA-T50N Adapter: 2 ID: 0
Read mode : Secure
Utilize accurate stream : Yes
Defeat audio cache : Yes
Make use of C2 pointers : No
Read offset correction : 667
Overread into Lead-In and Lead-Out : No
Fill up missing offset samples with silence : Yes
Delete leading and trailing silent blocks : No
Null samples used in CRC calculations : Yes
Used interface : Native Win32 interface for Win NT & 2000
Used output format : User Defined Encoder
Selected bitrate : 768 kBit/s
Quality : High
Add ID3 tag : No
Command line compressor : C:\Program Files (x86)\Exact Audio Copy\FLAC\FLAC.EXE
Additional command line options : -6 -V -T "ARTIST=%a" -T "TITLE=%t" -T "ALBUM=%g" -T "DATE=%y" -T "TRACKNUMBER=%n" -T "GENRE=%m" -T "COMMENT=%e" %j--picture="%i"%j %s -o %d
TOC of the extracted CD
Track | Start | Length | Start sector | End sector
---------------------------------------------------------
1 | 0:00.00 | 1:28.40 | 0 | 6639
2 | 1:28.40 | 3:56.55 | 6640 | 24394
3 | 5:25.20 | 4:27.25 | 24395 | 44444
4 | 9:52.45 | 5:03.72 | 44445 | 67241
5 | 14:56.42 | 6:46.70 | 67242 | 97761
6 | 21:43.37 | 4:57.69 | 97762 | 120105
7 | 26:41.31 | 4:38.40 | 120106 | 140995
8 | 31:19.71 | 5:48.29 | 140996 | 167124
9 | 37:08.25 | 4:51.21 | 167125 | 188970
10 | 41:59.46 | 3:59.11 | 188971 | 206906
11 | 45:58.57 | 19:02.54 | 206907 | 292610
Range status and errors
Selected range
Filename C:\Users\Igor\Desktop\Выкладка\Rhapsody - Power Of The Dragonflame\Rhapsody - Power Of The Dragonflame.wav
Peak level 100.0 %
Extraction speed 0.6 X
Range quality 100.0 %
Test CRC DD1A827C
Copy CRC DD1A827C
Copy OK
No errors occurred
AccurateRip summary
Track 1 accurately ripped (confidence 20) [BA6E4E92]
Track 2 accurately ripped (confidence 19) [CFAB5237]
Track 3 accurately ripped (confidence 19) [13980B9D]
Track 4 accurately ripped (confidence 19) [64E31270]
Track 5 accurately ripped (confidence 19) [FB9AFBDA]
Track 6 accurately ripped (confidence 19) [FB8985B5]
Track 7 accurately ripped (confidence 19) [31B839E1]
Track 8 accurately ripped (confidence 19) [D5AC960F]
Track 9 accurately ripped (confidence 19) [581632EC]
Track 10 accurately ripped (confidence 21) [400E81B8]
Track 11 accurately ripped (confidence 20) [DFE94D3F]
All tracks accurately ripped
End of status report
Страна-производитель диска: Германия
Год издания диска: 2004
Издатель (лейбл): SPV
Номер по каталогу: 078-69732 CD
Продолжительность: 00:29:46

Tracklist

01. Unholy Warcry (Edit version) (4:27)
02. Thunder's Mighty Roar (5:35)
03. Guardians of Destiny (English Version) (5:27)
04. Sacred Power of Raging Winds (10:09)
05. Non Ho Sonno (Goblin, Remix) (4:08)
 
Exact Audio Copy V1.0 beta 2 from 29. April 2011
EAC extraction logfile from 23. July 2011, 15:45
Rhapsody / The Dark Secret
Used drive : HL-DT-STDVDRAM GSA-T50N Adapter: 2 ID: 0
Read mode : Secure
Utilize accurate stream : Yes
Defeat audio cache : Yes
Make use of C2 pointers : No
Read offset correction : 667
Overread into Lead-In and Lead-Out : No
Fill up missing offset samples with silence : Yes
Delete leading and trailing silent blocks : No
Null samples used in CRC calculations : Yes
Used interface : Native Win32 interface for Win NT & 2000
Used output format : User Defined Encoder
Selected bitrate : 768 kBit/s
Quality : High
Add ID3 tag : No
Command line compressor : C:\Program Files (x86)\Exact Audio Copy\FLAC\FLAC.EXE
Additional command line options : -6 -V -T "ARTIST=%artist%" -T "TITLE=%title%" -T "ALBUM=%albumtitle%" -T "DATE=%year%" -T "TRACKNUMBER=%tracknr%" -T "GENRE=%genre%" -T "COMMENT=%comment%" %hascover%--picture="%coverfile%"%hascover% %source% -o %dest%
TOC of the extracted CD
Track | Start | Length | Start sector | End sector
---------------------------------------------------------
1 | 0:00.00 | 4:26.61 | 0 | 20010
2 | 4:26.61 | 5:35.27 | 20011 | 45162
3 | 10:02.13 | 5:26.72 | 45163 | 69684
4 | 15:29.10 | 10:08.65 | 69685 | 115349
5 | 25:38.00 | 4:08.23 | 115350 | 133972
Range status and errors
Selected range
Filename C:\Users\Igor\Desktop\Выкладка\Rhapsody - The Dark Secret\Rhapsody - The Dark Secret.wav
Peak level 100.0 %
Extraction speed 3.5 X
Range quality 100.0 %
Test CRC C4C7C7D5
Copy CRC C4C7C7D5
Copy OK
No errors occurred
AccurateRip summary
Track 1 not present in database
Track 2 not present in database
Track 3 not present in database
Track 4 not present in database
Track 5 not present in database
None of the tracks are present in the AccurateRip database
End of status report
Страна-производитель диска: Германия
Год издания диска: 1997
Издатель (лейбл): Magic Circle / SPV
Номер по каталогу: SPV 088-69610 CD+DVD
Продолжительность: 01:12:53

Tracklist

01. The Dark Secret - Ira Divina (4:13)
02. Unholy Warcry (5:54)
03. Never Forgotten Heroes (5:32)
04. Elgard's Green Valleys (2:20)
05. The Magic of The Wizard's Dream (4:30)
06. Erian's Mystical Rhymes - The White Dragon's Order (10:32)
07. The Last Angels' Call (4:37)
08. Dragonland's Rivers (3:45)
09. Sacred Power of Raging Winds (10:06)
10. Guardiani Del Destino (5:51)
11. Shadows of Death (8:13)
12. Nightfall on The Grey Mountains (7:20)
 
Exact Audio Copy V1.0 beta 1 from 15. November 2010
EAC extraction logfile from 14. May 2011, 2:05
Rhapsody / Symphony Of Enchanted Lands II - The Dark Secret
Used drive : HL-DT-STDVDRAM GSA-T50N Adapter: 2 ID: 0
Read mode : Secure
Utilize accurate stream : Yes
Defeat audio cache : Yes
Make use of C2 pointers : No
Read offset correction : 667
Overread into Lead-In and Lead-Out : No
Fill up missing offset samples with silence : Yes
Delete leading and trailing silent blocks : No
Null samples used in CRC calculations : Yes
Used interface : Native Win32 interface for Win NT & 2000
Used output format : User Defined Encoder
Selected bitrate : 768 kBit/s
Quality : High
Add ID3 tag : No
Command line compressor : C:\Program Files (x86)\Exact Audio Copy\FLAC\FLAC.EXE
Additional command line options : -6 -V -T "ARTIST=%a" -T "TITLE=%t" -T "ALBUM=%g" -T "DATE=%y" -T "TRACKNUMBER=%n" -T "GENRE=%m" -T "COMMENT=%e" %j--picture="%i"%j %s -o %d
TOC of the extracted CD
Track | Start | Length | Start sector | End sector
---------------------------------------------------------
1 | 0:00.00 | 4:12.74 | 0 | 18973
2 | 4:12.74 | 5:53.39 | 18974 | 45487
3 | 10:06.38 | 5:32.37 | 45488 | 70424
4 | 15:39.00 | 2:19.55 | 70425 | 80904
5 | 17:58.55 | 4:30.04 | 80905 | 101158
6 | 22:28.59 | 10:31.54 | 101159 | 148537
7 | 33:00.38 | 4:36.50 | 148538 | 169287
8 | 37:37.13 | 3:44.52 | 169288 | 186139
9 | 41:21.65 | 10:06.27 | 186140 | 231616
10 | 51:28.17 | 5:50.73 | 231617 | 257939
11 | 57:19.15 | 8:13.02 | 257940 | 294916
12 | 65:32.17 | 7:20.26 | 294917 | 327942
Range status and errors
Selected range
Filename C:\Users\Igor\Desktop\Rhapsody - Symphony Of Enchanted Lands II - The Dark Secret\Rhapsody - Symphony Of Enchanted Lands II - The Dark Secret.wav
Peak level 97.7 %
Extraction speed 0.4 X
Range quality 100.0 %
Test CRC BD4596D8
Copy CRC BD4596D8
Copy OK
No errors occurred
AccurateRip summary
Track 1 accurately ripped (confidence 2) [78A330BF]
Track 2 accurately ripped (confidence 110) [F38954B9]
Track 3 accurately ripped (confidence 110) [E6ED5586]
Track 4 accurately ripped (confidence 110) [172EDFF5]
Track 5 accurately ripped (confidence 111) [DABBAB52]
Track 6 accurately ripped (confidence 109) [0D36321F]
Track 7 accurately ripped (confidence 110) [3B3748E5]
Track 8 accurately ripped (confidence 108) [DD4F69D7]
Track 9 accurately ripped (confidence 110) [2BAD03F9]
Track 10 accurately ripped (confidence 110) [E65E9CD0]
Track 11 accurately ripped (confidence 106) [2590B370]
Track 12 accurately ripped (confidence 108) [24B0D7D8]
All tracks accurately ripped
End of status report
Год издания диска: 2006
Продолжительность: 01:00:09

Tracklist

01. The Dark Secret (3:06)
02. Unholy Warcry (5:32)
03. Wisdom of The Kings (4:21)
04. The village of Dwarves (3:59)
05. Erian`s Mystical Rhymes (13:12)
06. Dawn of Victory (4:45)
07. Lamento Eroico (6:17)
08. Nightfall on The Grey Mountains (4:41)
09. The March of The Swordmaster (5:07)
10. Emerald Sword (6:07)
11. Gran Finale (3:03)
 
EAC extraction logfile from 26. January 2006, 15:11 for CD
Rhapsody / Live in Canada 2005
Used drive : BENQ DVD DD DW1620 Adapter: 0 ID: 0
Read mode : Secure with NO C2, accurate stream, disable cache
Read offset correction : 618
Overread into Lead-In and Lead-Out : No
Used output format : C:\Archivos de programa\Exact Audio Copy\MAC.EXE (Monkey's Audio Lossless Encoder)
High Lossless Compression
Other options :
Fill up missing offset samples with silence : Yes
Delete leading and trailing silent blocks : No
Installed external ASPI interface
Range status and errors
Selected range
Filename C:\Documents and Settings\AGUANTE QUILMES\Escritorio\Sangrando\rhapsody\CDImage.wav
Peak level 100.0 %
Range quality 100.0 %
CRC 13851F33
Copy OK
No errors occured
End of status report

Rhapsody of Fire
Страна-производитель диска: Italy
Год издания диска: 2006
Продолжительность: 01:16:11

Tracklist

01. Dar-Kunor (3:13)
02. Triumph or Agony (5:02)
03. Heart of the Darklands (4:10)
04. Old Age of Wonders (4:35)
05. The Myth of the Holy Sword (5:03)
06. Il Canto del Vento (3:54)
07. Silent Dream (3:50)
08. Bloody Red Dungeons (5:10)
09. Son of Pain (4:43)
10. The Mystic Prophecy of the Demon Knight (16:26)
11. Dark Reign of Fire (6:26)
12. Defenders of Gaia (Bonus Track) (4:35)
13. A New Saga Begins (Radio Edit) (Bonus Track) (4:20)
14. Son of Pain (Italian Version) (Bonus Track) (4:47)
 
Exact Audio Copy V0.99 prebeta 4 from 23. January 2008
EAC extraction logfile from 14. February 2009, 6:04
Rhapsody Of Fire / Triumph Or Agony - Italian Special Edition
Used drive : Optiarc DVD RW AD-7201S Adapter: 3 ID: 0
Read mode : Secure
Utilize accurate stream : Yes
Defeat audio cache : Yes
Make use of C2 pointers : No
Read offset correction : 48
Overread into Lead-In and Lead-Out : No
Fill up missing offset samples with silence : Yes
Delete leading and trailing silent blocks : No
Null samples used in CRC calculations : Yes
Used interface : Native Win32 interface for Win NT & 2000
Gap handling : Appended to previous track
Used output format : User Defined Encoder
Selected bitrate : 320 kBit/s
Quality : High
Add ID3 tag : No
Command line compressor : C:\Program Files\Exact Audio Copy\Flac\flac.exe
Additional command line options : -V -8 -T "artist=%a" -T "title=%t" -T "album=%g" -T "date=%y" -T "tracknumber=%n" -T "genre=%m" %s
TOC of the extracted CD
Track | Start | Length | Start sector | End sector
---------------------------------------------------------
1 | 0:00.00 | 3:13.10 | 0 | 14484
2 | 3:13.10 | 5:02.62 | 14485 | 37196
3 | 8:15.72 | 4:10.58 | 37197 | 56004
4 | 12:26.55 | 4:35.02 | 56005 | 76631
5 | 17:01.57 | 5:03.21 | 76632 | 99377
6 | 22:05.03 | 3:54.31 | 99378 | 116958
7 | 25:59.34 | 3:50.49 | 116959 | 134257
8 | 29:50.08 | 5:11.48 | 134258 | 157630
9 | 35:01.56 | 4:43.27 | 157631 | 178882
10 | 39:45.08 | 16:26.19 | 178883 | 252851
11 | 56:11.27 | 6:26.12 | 252852 | 281813
12 | 62:37.39 | 4:34.49 | 281814 | 302412
13 | 67:12.13 | 4:17.24 | 302413 | 321711
14 | 71:29.37 | 4:42.04 | 321712 | 342865
Track 1
Filename F:\What.cd Uploads\Rhapsody Of Fire - Triumph Or Agony (Italian Special Edition)\01. Rhapsody Of Fire - Dar-Kunor.wav
Pre-gap length 0:00:02.00
Peak level 97.6 %
Track quality 100.0 %
Test CRC CD290657
Copy CRC CD290657
Cannot be verified as accurate (confidence 2) [5187578B], AccurateRip returned [F13A7C64]
Copy OK
Track 2
Filename F:\What.cd Uploads\Rhapsody Of Fire - Triumph Or Agony (Italian Special Edition)\02. Rhapsody Of Fire - Triumph Or Agony.wav
Peak level 97.6 %
Track quality 99.9 %
Test CRC 3C39D3DB
Copy CRC 3C39D3DB
Cannot be verified as accurate (confidence 2) [A7B345F4], AccurateRip returned [DE61E520]
Copy OK
Track 3
Filename F:\What.cd Uploads\Rhapsody Of Fire - Triumph Or Agony (Italian Special Edition)\03. Rhapsody Of Fire - Heart Of The Darklands.wav
Peak level 97.6 %
Track quality 100.0 %
Test CRC 492E8EE6
Copy CRC 492E8EE6
Cannot be verified as accurate (confidence 2) [71780035], AccurateRip returned [85B274F1]
Copy OK
Track 4
Filename F:\What.cd Uploads\Rhapsody Of Fire - Triumph Or Agony (Italian Special Edition)\04. Rhapsody Of Fire - Old Age Of Wonders.wav
Peak level 97.6 %
Track quality 100.0 %
Test CRC D91D6A5D
Copy CRC D91D6A5D
Cannot be verified as accurate (confidence 2) [217B99AF], AccurateRip returned [7FEE551A]
Copy OK
Track 5
Filename F:\What.cd Uploads\Rhapsody Of Fire - Triumph Or Agony (Italian Special Edition)\05. Rhapsody Of Fire - The Myth Of The Holy Sword.wav
Peak level 97.6 %
Track quality 100.0 %
Test CRC 612ECFB4
Copy CRC 612ECFB4
Cannot be verified as accurate (confidence 2) [54D11A87], AccurateRip returned [1B6171ED]
Copy OK
Track 6
Filename F:\What.cd Uploads\Rhapsody Of Fire - Triumph Or Agony (Italian Special Edition)\06. Rhapsody Of Fire - Il canto del Vento.wav
Peak level 97.6 %
Track quality 99.9 %
Test CRC 18B83D22
Copy CRC 18B83D22
Cannot be verified as accurate (confidence 2) [5B0117AB], AccurateRip returned [69846C64]
Copy OK
Track 7
Filename F:\What.cd Uploads\Rhapsody Of Fire - Triumph Or Agony (Italian Special Edition)\07. Rhapsody Of Fire - Silent Dream.wav
Peak level 97.6 %
Track quality 100.0 %
Test CRC 07E6FB4B
Copy CRC 07E6FB4B
Cannot be verified as accurate (confidence 2) [F491F3BA], AccurateRip returned [2864E6E7]
Copy OK
Track 8
Filename F:\What.cd Uploads\Rhapsody Of Fire - Triumph Or Agony (Italian Special Edition)\08. Rhapsody Of Fire - Bloody Red Dungeons.wav
Peak level 97.6 %
Track quality 100.0 %
Test CRC 0786F35A
Copy CRC 0786F35A
Cannot be verified as accurate (confidence 2) [E9803E8D], AccurateRip returned [A1C75A72]
Copy OK
Track 9
Filename F:\What.cd Uploads\Rhapsody Of Fire - Triumph Or Agony (Italian Special Edition)\09. Rhapsody Of Fire - Son Of Pain.wav
Peak level 97.6 %
Track quality 100.0 %
Test CRC 22AAB8AD
Copy CRC 22AAB8AD
Cannot be verified as accurate (confidence 2) [7A78C9AA], AccurateRip returned [B1699216]
Copy OK
Track 10
Filename F:\What.cd Uploads\Rhapsody Of Fire - Triumph Or Agony (Italian Special Edition)\10. Rhapsody Of Fire - The Mystic Prophecy Of The Demonknight.wav
Peak level 97.6 %
Track quality 100.0 %
Test CRC 1FB1D912
Copy CRC 1FB1D912
Cannot be verified as accurate (confidence 2) [2582EAA3], AccurateRip returned [A3B1E1BC]
Copy OK
Track 11
Filename F:\What.cd Uploads\Rhapsody Of Fire - Triumph Or Agony (Italian Special Edition)\11. Rhapsody Of Fire - Dark Reign Of Fire.wav
Peak level 97.6 %
Track quality 99.9 %
Test CRC B65C9A55
Copy CRC B65C9A55
Cannot be verified as accurate (confidence 2) [FB962A43], AccurateRip returned [162F89FA]
Copy OK
Track 12
Filename F:\What.cd Uploads\Rhapsody Of Fire - Triumph Or Agony (Italian Special Edition)\12. Rhapsody Of Fire - Defenders Of Gaia (Bonus Track).wav
Peak level 97.6 %
Track quality 100.0 %
Test CRC 27ABEABC
Copy CRC 27ABEABC
Cannot be verified as accurate (confidence 2) [B9BDC6FB], AccurateRip returned [AA6EEB03]
Copy OK
Track 13
Filename F:\What.cd Uploads\Rhapsody Of Fire - Triumph Or Agony (Italian Special Edition)\13. Rhapsody Of Fire - A New Saga Begins (Radio Edit) (Bonus Track).wav
Peak level 97.6 %
Track quality 100.0 %
Test CRC 67F85CE5
Copy CRC 67F85CE5
Cannot be verified as accurate (confidence 2) [9D16A13D], AccurateRip returned [4754D414]
Copy OK
Track 14
Filename F:\What.cd Uploads\Rhapsody Of Fire - Triumph Or Agony (Italian Special Edition)\14. Rhapsody Of Fire - Son Of Pain (Italian Version) (Bonus Track).wav
Peak level 97.7 %
Track quality 100.0 %
Test CRC 71741A96
Copy CRC 71741A96
Cannot be verified as accurate (confidence 2) [21A4E5DA], AccurateRip returned [EB1B7C65]
Copy OK
No tracks could be verified as accurate
You may have a different pressing from the one(s) in the database
No errors occurred
End of status report
Страна-производитель диска: Japan
Год издания диска: 2010
Издатель (лейбл): King Records
Номер по каталогу: KICP-1472
Продолжительность: 01:06:26

Tracklist

01. Dark Frozen World (2:13)
02. Sea of Fate (4:48)
03. Crystal Moonlight (4:25)
04. Reign of Terror (6:53)
05. Danza Di Fuoco E Ghiaccio (6:25)
06. Raging Starfire (4:56)
07. Lost in Cold Dreams (5:12)
08. On The Way to Ainor (6:58)
09. The Frozen Tears of Angels (11:17)
10. Labyrinth of Madness (3:58)
11. Sea of Fate (Orchestral Version) (3:53)
12. Immortal New Reign (Bonus Track for Japan) (5:29)
 
Отчёт EAC об извлечении, выполненном 2. июня 2010, 21:50 для диска:
Rhapsody Of Fire / The Frozen Tears Of Angels
Дисковод: _NEC DVD_RW ND-3520AW Adapter: 2 ID: 0
Режим чтения: Достоверный (C2: нет, Точный поток: да, Отключение кэша: да)
Коррекция смещения при чтении: 48
Способность читать области Lead-in и Lead-out : Нет
Выходной формат: Внутренние WAV-операции
44.100 Гц; 16 бит; стерео
Другие параметры:
Заполнение пропущенных сэмплов тишиной : Да
Удаление блоков с тишиной в начале и конце : Нет
Установленный внешний ASPI-интерфейс
Характеристики диапазона извлечения и сообщения об ошибках
Выбранный диапазон
Имя файла C:\Users\АНДРЕЙ\Music\Rhapsody Of Fire - The Frozen Tears Of Angels\Rhapsody Of Fire - The Frozen Tears Of Angels.wav
Пиковый уровень 100.0 %
Качество диапазона 99.9 %
CRC DFE982DB
Копирование... OK
Ошибок не произошло
Конец отчёта
Страна-производитель диска: Германия
Год издания диска: 2010
Издатель (лейбл): Nuclear Blast Records
Продолжительность: 00:35:46

Tracklist

01. Act I — The Pass of Nair-Kaan 2:01
02. Act II — Dark Mystic Vision 1:41
03. Act III — The Ancient Fires of Har-Kuun 14:56
04. Act IV — The Betrayal 3:59
05. Act V — Neve Rosso Sangue 4:42
06. Act VI — Erian's Lost Secrets 4:28
07. Act VII — The Angels Dark Revelation 3:59
 
Exact Audio Copy V0.99 prebeta 4 from 23. January 2008
EAC extraction logfile from 15. October 2010, 18:08
Rhapsody Of Fire / The Cold Embrace Of Fear
Used drive : ATAPI DVD A DH20A4P Adapter: 3 ID: 0
Read mode : Secure
Utilize accurate stream : Yes
Defeat audio cache : Yes
Make use of C2 pointers : No
Read offset correction : 6
Overread into Lead-In and Lead-Out : No
Fill up missing offset samples with silence : Yes
Delete leading and trailing silent blocks : No
Null samples used in CRC calculations : Yes
Used interface : Installed external ASPI interface
Used output format : Monkey's Audio Lossless Encoder
Selected bitrate : High Lossless Compression
Quality : High
Add ID3 tag : Yes
Command line compressor : C:\Program Files\Monkey's Audio\MAC.exe
TOC of the extracted CD
Track | Start | Length | Start sector | End sector
---------------------------------------------------------
1 | 0:00.00 | 2:01.42 | 0 | 9116
2 | 2:01.42 | 1:41.11 | 9117 | 16702
3 | 3:42.53 | 14:56.16 | 16703 | 83918
4 | 18:38.69 | 3:58.56 | 83919 | 101824
5 | 22:37.50 | 4:41.31 | 101825 | 122930
6 | 27:19.06 | 4:28.05 | 122931 | 143035
7 | 31:47.11 | 3:59.26 | 143036 | 160986
Range status and errors
Selected range
Filename D:\Download\Rhapsody Of Fire - The Cold Embrace Of Fear.wav
Peak level 99.1 %
Range quality 100.0 %
Copy CRC DADF662A
Copy OK
No errors occurred
AccurateRip summary
Track 1 not present in database
Track 2 not present in database
Track 3 not present in database
Track 4 not present in database
Track 5 not present in database
Track 6 not present in database
Track 7 not present in database
None of the tracks are present in the AccurateRip database
End of status report
Страна-производитель диска: Japan
Год издания диска: 2011
Издатель (лейбл): King Record Co., Ltd.
Номер по каталогу: KICP-1561
Продолжительность: 01:08:14

Tracklist

01. Ad Infinitum 01:30
02. From Chaos to Eternity 05:45
03. Tempesta Di Fuoco 04:48
04. Ghosts of Forgotten Worlds 05:35
05. Anima Perduta 04:46
06. Aeons of Raging Darkness 05:46
07. I Belong to The Stars 04:55
08. Tornado 04:57
09. Heroes of The Waterfalls' Kingdom 19:32
10. Flash of The Blade (Iron Maiden Cover) 04:17
11. Tornado (Instrumental) (Bonus Track)
 
Exact Audio Copy V1.1 from 23. June 2015
EAC extraction logfile from 29. December 2015, 21:14
Rhapsody Of Fire / From Chaos To Eternity (Japan)
Used drive : ATAPI iHAS122 W Adapter: 2 ID: 0
Read mode : Secure
Utilize accurate stream : Yes
Defeat audio cache : Yes
Make use of C2 pointers : No
Read offset correction : 48
Overread into Lead-In and Lead-Out : No
Fill up missing offset samples with silence : Yes
Delete leading and trailing silent blocks : No
Null samples used in CRC calculations : Yes
Used interface : Installed external ASPI interface
Used output format : User Defined Encoder
Selected bitrate : 1024 kBit/s
Quality : High
Add ID3 tag : No
Command line compressor : C:\Program Files\FLAC\flac.exe
Additional command line options : -V -8 -T "Date=%year%" -T "Genre=%genre%" -T"COMMENT=Ripped by Ilijan" -8 -V %source%
TOC of the extracted CD
Track | Start | Length | Start sector | End sector
---------------------------------------------------------
1 | 0:00.00 | 1:28.74 | 0 | 6673
2 | 1:28.74 | 5:45.45 | 6674 | 32593
3 | 7:14.44 | 4:46.06 | 32594 | 54049
4 | 12:00.50 | 5:31.06 | 54050 | 78880
5 | 17:31.56 | 4:45.00 | 78881 | 100255
6 | 22:16.56 | 5:41.09 | 100256 | 125839
7 | 27:57.65 | 4:52.40 | 125840 | 147779
8 | 32:50.30 | 4:55.00 | 147780 | 169904
9 | 37:45.30 | 19:38.61 | 169905 | 258315
10 | 57:24.16 | 4:17.53 | 258316 | 277643
11 | 61:41.69 | 6:33.04 | 277644 | 307122
Range status and errors
Selected range
Filename D:\ilко\Rhapsody Of Fire - From Chaos To Eternity (Japan).wav
Peak level 97.7 %
Extraction speed 4.4 X
Range quality 100.0 %
Test CRC C3A43D95
Copy CRC C3A43D95
Copy OK
No errors occurred
AccurateRip summary
Track 1 accurately ripped (confidence 4) [C1E15E47] (AR v2)
Track 2 accurately ripped (confidence 4) [03B196D2] (AR v2)
Track 3 accurately ripped (confidence 4) [DDA906DB] (AR v2)
Track 4 accurately ripped (confidence 4) [A09CCC2D] (AR v2)
Track 5 accurately ripped (confidence 4) [47089379] (AR v2)
Track 6 accurately ripped (confidence 4) [BDD74CC8] (AR v2)
Track 7 accurately ripped (confidence 4) [6B839A3A] (AR v2)
Track 8 accurately ripped (confidence 4) [ABA58223] (AR v2)
Track 9 accurately ripped (confidence 4) [002CB9D9] (AR v2)
Track 10 accurately ripped (confidence 4) [6BBC67E4] (AR v2)
Track 11 accurately ripped (confidence 4) [6D6A1C14] (AR v2)
All tracks accurately ripped
End of status report
---- CUETools DB Plugin V2.1.6
[CTDB TOCID: J5SCY7tXGjFKGcIBooeF_D8P1Wk-] found
Submit result: J5SCY7tXGjFKGcIBooeF_D8P1Wk- has been confirmed
Track | CTDB Status
1 | (6/6) Accurately ripped
2 | (6/6) Accurately ripped
3 | (6/6) Accurately ripped
4 | (6/6) Accurately ripped
5 | (6/6) Accurately ripped
6 | (6/6) Accurately ripped
7 | (6/6) Accurately ripped
8 | (6/6) Accurately ripped
9 | (6/6) Accurately ripped
10 | (6/6) Accurately ripped
11 | (6/6) Accurately ripped
==== Log checksum 2FD8AABCF02616F700A997FAC89D28AACCA9FFDCF282A10C5B6BF20CB4FBEC4B ====
Страна-производитель диска: Германия
Год издания диска: 2013
Издатель (лейбл): AFM Records
Номер по каталогу: AFM 405-9
Продолжительность: 00:49:45 + 00:56:53

Tracklist

CD 1
01. Dark Mystic Vision
02. Ad Infinitum
03. From Chaos to Eternity
04. Triumph or Agony
05. I Belong to the Stars
06. The Dark Secret
07. Unholy Warcry
08. Lost in Cold Dreams
09. Land of Immortals
10. Aeons of Raging Darkness
11. Dark Reign of Fire
12. Drum Solo

CD 2
01. The March of the Swordmaster
02. Dawn of Victory
03. Toccata on Bass
04. The Village of Dwarves
05. The Magic of the Wizard's Dream
06. Holy Thunderforce
07. Reign of Terror
08. Knightrider of Doom
09. Epicus Furor
10. Emerald Sword
11. Erian's Lost Secrets
12. The Splendour of Angels' Glory (A Final Revelation)
[pre]
Exact Audio Copy V0.99 prebeta 5 from 4. May 2009
EAC extraction logfile from 28. April 2013, 0:07
Rhapsody Of Fire / Live - From Chaos To Eternity - CD1
Used drive : ATAPI iHAS624 B Adapter: 2 ID: 0
Read mode : Secure
Utilize accurate stream : Yes
Defeat audio cache : Yes
Make use of C2 pointers : No
Read offset correction : 6
Overread into Lead-In and Lead-Out : No
Fill up missing offset samples with silence : Yes
Delete leading and trailing silent blocks : No
Null samples used in CRC calculations : Yes
Used interface : Installed external ASPI interface
Used output format : User Defined Encoder
Selected bitrate : 40 kBit/s
Quality : High
Add ID3 tag : No
Command line compressor : C:\Program Files\Exact Audio Copy\Flac\flac.exe
Additional command line options : -6 -V %s
TOC of the extracted CD
Track | Start | Length | Start sector | End sector
---------------------------------------------------------
1 | 0:00.00 | 2:11.08 | 0 | 9832
2 | 2:11.08 | 0:55.19 | 9833 | 13976
3 | 3:06.27 | 6:27.53 | 13977 | 43054
4 | 9:34.05 | 5:04.44 | 43055 | 65898
5 | 14:38.49 | 4:50.06 | 65899 | 87654
6 | 19:28.55 | 4:10.18 | 87655 | 106422
7 | 23:38.73 | 5:12.49 | 106423 | 129871
8 | 28:51.47 | 5:13.19 | 129872 | 153365
9 | 34:04.66 | 5:07.18 | 153366 | 176408
10 | 39:12.09 | 5:44.52 | 176409 | 202260
11 | 44:56.61 | 2:36.62 | 202261 | 214022
12 | 47:33.48 | 2:11.40 | 214023 | 223887
Range status and errors
Selected range
Filename D:\Download\Rhapsody Of Fire - Live - From Chaos To Eternity - CD1.wav
Peak level 98.8 %
Range quality 100.0 %
Copy CRC 1870B345
Copy OK
No errors occurred
AccurateRip summary
Track 1 not present in database
Track 2 not present in database
Track 3 not present in database
Track 4 not present in database
Track 5 not present in database
Track 6 not present in database
Track 7 not present in database
Track 8 not present in database
Track 9 not present in database
Track 10 not present in database
Track 11 not present in database
Track 12 not present in database
None of the tracks are present in the AccurateRip database
End of status report
 
Exact Audio Copy V0.99 prebeta 5 from 4. May 2009
EAC extraction logfile from 28. April 2013, 0:45
Rhapsody Of Fire / Live - From Chaos To Eternity - CD2
Used drive : ATAPI iHAS624 B Adapter: 2 ID: 0
Read mode : Secure
Utilize accurate stream : Yes
Defeat audio cache : Yes
Make use of C2 pointers : No
Read offset correction : 6
Overread into Lead-In and Lead-Out : No
Fill up missing offset samples with silence : Yes
Delete leading and trailing silent blocks : No
Null samples used in CRC calculations : Yes
Used interface : Installed external ASPI interface
Used output format : User Defined Encoder
Selected bitrate : 40 kBit/s
Quality : High
Add ID3 tag : No
Command line compressor : C:\Program Files\Exact Audio Copy\Flac\flac.exe
Additional command line options : -6 -V %s
TOC of the extracted CD
Track | Start | Length | Start sector | End sector
---------------------------------------------------------
1 | 0:00.00 | 6:51.32 | 0 | 30856
2 | 6:51.32 | 5:13.37 | 30857 | 54368
3 | 12:04.69 | 3:10.35 | 54369 | 68653
4 | 15:15.29 | 3:56.55 | 68654 | 86408
5 | 19:12.09 | 4:30.37 | 86409 | 106695
6 | 23:42.46 | 4:29.21 | 106696 | 126891
7 | 28:11.67 | 6:56.31 | 126892 | 158122
8 | 35:08.23 | 5:13.36 | 158123 | 181633
9 | 40:21.59 | 1:12.62 | 181634 | 187095
10 | 41:34.46 | 6:10.19 | 187096 | 214864
11 | 47:44.65 | 4:59.25 | 214865 | 237314
12 | 52:44.15 | 4:09.37 | 237315 | 256026
Range status and errors
Selected range
Filename D:\Download\Rhapsody Of Fire - Live - From Chaos To Eternity - CD2.wav
Peak level 98.8 %
Range quality 100.0 %
Copy CRC 2433FDE7
Copy OK
No errors occurred
AccurateRip summary
Track 1 not present in database
Track 2 not present in database
Track 3 not present in database
Track 4 not present in database
Track 5 not present in database
Track 6 not present in database
Track 7 not present in database
Track 8 not present in database
Track 9 not present in database
Track 10 not present in database
Track 11 not present in database
Track 12 not present in database
None of the tracks are present in the AccurateRip database
End of status report
Страна-производитель диска: Japan
Год издания диска: 2013
Издатель (лейбл): King Records
Номер по каталогу: KICP-1673
Продолжительность: 01:04:36

Tracklist

01. Vis Divina
02. Rising from Tragic Flames
03. Angel of Light
04. Tears of Pain
05. Fly to Crystal Skies
06. My Sacrifice
07. Silver Lake of Tears
08. Custode di Pace
09. A Tale of Magic
10. Dark Wings of Steel
11. Sad Mystic Moon
12. Voler Vers Toi (French Version) (Bonus Track)
13. A Candle to Light (Extended Version) (Bonus Track by Limited Edition)
 
Exact Audio Copy V1.0 beta 3 from 29. August 2011
EAC extraction logfile from 20. January 2014, 17:45
Rhapsody Of Fire / Dark Wings Of Steel
Used drive : hp DVDRAM GT30L Adapter: 0 ID: 0
Read mode : Secure
Utilize accurate stream : Yes
Defeat audio cache : Yes
Make use of C2 pointers : No
Read offset correction : 103
Overread into Lead-In and Lead-Out : No
Fill up missing offset samples with silence : Yes
Delete leading and trailing silent blocks : No
Null samples used in CRC calculations : Yes
Used interface : Native Win32 interface for Win NT & 2000
Used output format : User Defined Encoder
Selected bitrate : 128 kBit/s
Quality : High
Add ID3 tag : No
Command line compressor : C:\Program Files\Exact Audio Copy\Flac\flac.exe
Additional command line options : -V -8 -T "Date=%year%" -T "Genre=%genre%" -T"COMMENT=Ripped by korrOZZYya" -8 -V %source%
TOC of the extracted CD
Track | Start | Length | Start sector | End sector
---------------------------------------------------------
1 | 0:00.00 | 1:28.72 | 0 | 6671
2 | 1:28.72 | 6:16.01 | 6672 | 34872
3 | 7:44.73 | 7:05.55 | 34873 | 66802
4 | 14:50.53 | 6:27.33 | 66803 | 95860
5 | 21:18.11 | 5:13.25 | 95861 | 119360
6 | 26:31.36 | 8:05.42 | 119361 | 155777
7 | 34:37.03 | 5:00.65 | 155778 | 178342
8 | 39:37.68 | 5:07.13 | 178343 | 201380
9 | 44:45.06 | 4:18.22 | 201381 | 220752
10 | 49:03.28 | 5:51.56 | 220753 | 247133
11 | 54:55.09 | 4:37.36 | 247134 | 267944
12 | 59:32.45 | 5:04.01 | 267945 | 290745
Range status and errors
Selected range
Filename E:\Music\korrOZZYya\Rhapsody Of Fire - Dark Wings Of Steel (Japanese Edition) - 2013\Rhapsody Of Fire - Dark Wings Of Steel.wav
Peak level 97.7 %
Extraction speed 2.2 X
Range quality 100.0 %
Test CRC E58954DD
Copy CRC E58954DD
Copy OK
No errors occurred
AccurateRip summary
Track 1 not present in database
Track 2 not present in database
Track 3 not present in database
Track 4 not present in database
Track 5 not present in database
Track 6 not present in database
Track 7 not present in database
Track 8 not present in database
Track 9 not present in database
Track 10 not present in database
Track 11 not present in database
Track 12 not present in database
None of the tracks are present in the AccurateRip database
End of status report
---- CUETools DB Plugin V2.1.3
[CTDB TOCID: E9qWxXqbXMMAbw5Xj0NZKdn_prM-] found, Submit result: E9qWxXqbXMMAbw5Xj0NZKdn_prM- has been confirmed
[402634e8] (1/1) Accurately ripped
==== Log checksum E3C5445C2B95F10D5A53BFB771E7B21822A4D27355364ED194968DFF8660E6A9 ====
Страна-производитель диска: Германия
Год издания диска: 2016
Издатель (лейбл): AFM Records
Номер по каталогу: AFM 532-9
Продолжительность: 01:11:21

Tracklist

01. Vis Divina
02. Rising from Tragic Flames
03. Angel of Light
04. Tears of Pain
05. Fly to Crystal Skies
06. My Sacrifice
07. Silver Lake of Tears
08. Custode di Pace
09. A Tale of Magic
10. Dark Wings of Steel
11. Sad Mystic Moon
12. Voler Vers Toi (French Version)
13. A Candle to Light (Extended Version) (Bonus Track by Limited Edition)
 
Exact Audio Copy V1.1 from 23. June 2015
EAC extraction logfile from 16. January 2016, 1:28
Rhapsody of Fire / Into the Legend
Used drive : ATAPI iHAS122 W Adapter: 2 ID: 0
Read mode : Secure
Utilize accurate stream : Yes
Defeat audio cache : Yes
Make use of C2 pointers : No
Read offset correction : 48
Overread into Lead-In and Lead-Out : No
Fill up missing offset samples with silence : Yes
Delete leading and trailing silent blocks : No
Null samples used in CRC calculations : Yes
Used interface : Installed external ASPI interface
Used output format : User Defined Encoder
Selected bitrate : 1024 kBit/s
Quality : High
Add ID3 tag : No
Command line compressor : C:\Program Files\FLAC\flac.exe
Additional command line options : -V -8 -T "Date=%year%" -T "Genre=%genre%" -T"COMMENT=Ripped by Ilijan" -8 -V %source%
TOC of the extracted CD
Track | Start | Length | Start sector | End sector
---------------------------------------------------------
1 | 0:00.00 | 2:45.00 | 0 | 12374
2 | 2:45.00 | 4:32.41 | 12375 | 32815
3 | 7:17.41 | 5:01.07 | 32816 | 55397
4 | 12:18.48 | 7:44.18 | 55398 | 90215
5 | 20:02.66 | 6:18.03 | 90216 | 118568
6 | 26:20.69 | 6:54.71 | 118569 | 149689
7 | 33:15.65 | 4:39.01 | 149690 | 170615
8 | 37:54.66 | 6:00.72 | 170616 | 197687
9 | 43:55.63 | 6:02.66 | 197688 | 224903
10 | 49:58.54 | 16:45.05 | 224904 | 300283
11 | 66:43.59 | 4:37.48 | 300284 | 321106
12 | 73:53.32 | 5:30.02 | 332507 | 357258
Range status and errors
Selected range
Filename D:\ilко\Rhapsody of Fire - Into the Legend.wav
Peak level 98.8 %
Extraction speed 4.5 X
Range quality 100.0 %
Test CRC E800B34B
Copy CRC E800B34B
Copy OK
No errors occurred
AccurateRip summary
Track 1 not present in database
Track 2 not present in database
Track 3 not present in database
Track 4 not present in database
Track 5 not present in database
Track 6 not present in database
Track 7 not present in database
Track 8 not present in database
Track 9 not present in database
Track 10 not present in database
Track 11 not present in database
None of the tracks are present in the AccurateRip database
End of status report
---- CUETools DB Plugin V2.1.6
[CTDB TOCID: Wsga_1ikAzO0PQQVuHeiaiwSVn0-] found
Submit result: Wsga_1ikAzO0PQQVuHeiaiwSVn0- has been confirmed
Track | CTDB Status
1 | (1/1) Accurately ripped
2 | (1/1) Accurately ripped
3 | (1/1) Accurately ripped
4 | (1/1) Accurately ripped
5 | (1/1) Accurately ripped
6 | (1/1) Accurately ripped
7 | (1/1) Accurately ripped
8 | (1/1) Accurately ripped
9 | (1/1) Accurately ripped
10 | (1/1) Accurately ripped
11 | (1/1) Accurately ripped
==== Log checksum 06CDEC618A9E276D18690410FC0811523A4B606C16C35F5551D05567A85BEA9E ====
Страна-производитель диска: Japan
Год издания диска: 2017
Издатель (лейбл): King Record Co., Ltd.
Номер по каталогу: KICP-1850
Продолжительность: 01:18:19

Tracklist

01. Dawn of Victory
02. Knightrider of Doom
03. Flames of Revenge
04. Beyond the Gates of Infinity
05. Land of Immortals
06. Emerald Sword
07. Legendary Tales
08. Dargor, Shadowlord of the Black Mountain
09. When Demons Awake
10. Wings of Destiny
11. Riding the Winds of Eternity
12. The Dark Tower of Abyss
13. Holy Thunderforce
14. Rain of a Thousand Flames
15. Where Dragons Fly (Bonus Track)
 
Exact Audio Copy V1.3 from 2. September 2016
EAC extraction logfile from 30. May 2017, 17:47
Rhapsody Of Fire / Legendary Years (Japan)
Used drive : MATSHITADVD-RAM UJ8G6 Adapter: 1 ID: 0
Read mode : Secure
Utilize accurate stream : Yes
Defeat audio cache : Yes
Make use of C2 pointers : No
Read offset correction : 103
Overread into Lead-In and Lead-Out : No
Fill up missing offset samples with silence : Yes
Delete leading and trailing silent blocks : No
Null samples used in CRC calculations : Yes
Used interface : Native Win32 interface for Win NT & 2000
Used output format : User Defined Encoder
Selected bitrate : 1024 kBit/s
Quality : High
Add ID3 tag : No
Command line compressor : C:\Program Files (x86)\Exact Audio Copy\FLAC\FLAC.EXE
Additional command line options : -V -8 -T "Date=%year%" -T"Genre=%genre%" -T"COMMENT=Ripped by Ilijan - ilko" -8 -V %source%
TOC of the extracted CD
Track | Start | Length | Start sector | End sector
---------------------------------------------------------
1 | 0:00.00 | 4:44.66 | 0 | 21365
2 | 4:44.66 | 3:58.24 | 21366 | 39239
3 | 8:43.15 | 5:32.65 | 39240 | 64204
4 | 14:16.05 | 7:21.59 | 64205 | 97338
5 | 21:37.64 | 4:53.45 | 97339 | 119358
6 | 26:31.34 | 4:23.01 | 119359 | 139084
7 | 30:54.35 | 7:49.61 | 139085 | 174320
8 | 38:44.21 | 4:47.61 | 174321 | 195906
9 | 43:32.07 | 6:46.31 | 195907 | 226387
10 | 50:18.38 | 4:17.05 | 226388 | 245667
11 | 54:35.43 | 4:12.44 | 245668 | 264611
12 | 58:48.12 | 6:51.72 | 264612 | 295508
13 | 65:40.09 | 4:20.51 | 295509 | 315059
14 | 70:00.60 | 3:43.33 | 315060 | 331817
15 | 73:44.18 | 4:35.25 | 331818 | 352467
Range status and errors
Selected range
Filename D:\ilko\Rhapsody Of Fire - Legendary Years (Japan).wav
Peak level 99.8 %
Extraction speed 4.5 X
Range quality 100.0 %
Test CRC 21FD18BD
Copy CRC 21FD18BD
Copy OK
No errors occurred
AccurateRip summary
Track 1 not present in database
Track 2 not present in database
Track 3 not present in database
Track 4 not present in database
Track 5 not present in database
Track 6 not present in database
Track 7 not present in database
Track 8 not present in database
Track 9 not present in database
Track 10 not present in database
Track 11 not present in database
Track 12 not present in database
Track 13 not present in database
Track 14 not present in database
Track 15 not present in database
None of the tracks are present in the AccurateRip database
End of status report
---- CUETools DB Plugin V2.1.6
[CTDB TOCID: DB_C2SJeohjoz5DoW1N8OpJn.Ho-] found
Submit result: already submitted
Track | CTDB Status
1 | (4/4) Accurately ripped
2 | (4/4) Accurately ripped
3 | (4/4) Accurately ripped
4 | (4/4) Accurately ripped
5 | (4/4) Accurately ripped
6 | (4/4) Accurately ripped
7 | (4/4) Accurately ripped
8 | (4/4) Accurately ripped
9 | (4/4) Accurately ripped
10 | (4/4) Accurately ripped
11 | (4/4) Accurately ripped
12 | (4/4) Accurately ripped
13 | (4/4) Accurately ripped
14 | (4/4) Accurately ripped
15 | (4/4) Accurately ripped
==== Log checksum C041FD5E713BEDEA9203B8011A0FDC41113483E84BAAFA6A8EB8009235B5EBBD ====

Encyclopaedia Metallum
info [Профиль]  [ЛС] 

darserg

Пол: Пол:Муж

Стаж: 7 лет 9 месяцев

Сообщений: 2

Россия
Рейтинг

post 23-Июн-2017 14:16 (спустя 14 часов) [-]0[+]

[Цитировать] 

Ребята, выйдите на раздачу!
info [Профиль]  [ЛС] 
Показать сообщения:    
Ответить на тему

Текущее время: 26-Июл 20:49

Часовой пояс: GMT + 4



Вы не можете начинать темы
Вы не можете отвечать на сообщения
Вы не можете редактировать свои сообщения
Вы не можете удалять свои сообщения
Вы не можете голосовать в опросах
Вы не можете прикреплять файлы к сообщениям
Вы не можете скачивать файлы