Ошибка

Тайные желания отвергнутых / Kuzu no Honkai / Scum`s Wish [TV] [1-12 из 12] [2017] [романтика, драма, школа, сёнэн] [WEBRip] [720p] [Любительский (JAP+SUB)]

Ответить на тему
 
Автор Сообщение

TotSamiySoer

Пол: Пол:Муж

Стаж: 2 года 7 месяцев

Сообщений: 296

Россия
Рейтинг

post 13-Янв-2017 20:41 1[+]

[Цитировать] 

Тайные желания отвергнутых / Kuzu no Honkai

Год выпуска: 2017
Страна: Япония
Жанр: романтика, драма, школа, сёнэн
Тип: ТВ
Продолжительность: 12 эп. по ~25 мин.
Студия: Lerche
Режиссер: Андо Масаоми
Озвучание: двухголосое (муж./жен.): Soer, MezIdA [DeadLine Studio]
Субтитры: Nippa (1-4), Bourbonice, Mr. A. Grayson (5-*)
Описание:
Семнадцатилетние Ясураока Ханаби и Авая Муги считаются среди школьников идеальной парой. Парни завидуют Авае, считая его самым везучим в школе, ведь он заполучил красавицу Ханаби, у которой множество поклонников. Девочки же, в свою очередь, грызут локти от зависти к Ханаби, отхватившей себе светловолосого и белокожего Муги. Но ни те, ни другие не могут поспорить с тем, что этой паре буквально сами небеса предписали быть вместе, они безупречно подходят друг другу.
«Что же в этой истории может быть не так?» – спросите вы. Ведь скучно смотреть, когда у всех всё хорошо, и никаких передряг. Но не всё так просто, у авторов есть для вас внезапный поворот сюжета! В паре Ханаби и Муги идеально всё, но… они не любят друг друга. Вместо взаимной любви они испытывают неразделённую любовь к своим учителям. Ханаби безответно влюблена в учителя Канаи, который ей как старший брат. А Муги вздыхает по учительнице Минагаве, заигрывающей, в свою очередь, с объектом любви Ханаби. Ребята страдают от мучительной и запутанной любви и зализывают свои раны в объятиях друг друга.
Информация о видео:

Качество: WEBRip | Формат: .mkv | Рип: HorribleSubs
Видео: x264(10 bit.), 1280x720, 2003 Kbps, 23.976 fps
Звук (Rus(int)): aaс, 182 kbps, 48.0 KHz, 2.0 ch | [2VO]
Звук (Japanese): aaс, 192 kbps, 48.0 KHz, 2.0 ch | Original
Субтитры (Russian): ass, встроенные | только надписи (включены по умолчанию)
Субтитры (Russian): ass, встроенные | полный перевод
Хардсаб: отсутствует

01. Загадай желание
02. Мне нужно твое тепло
03. Покажи мне, что такое любовь
04. Гнилое яблоко
05. Дитя разрушения
06. Добро пожаловать в Измерение Х
07. Много любви
08. Сладкий отказ
09. Пловец баттерфляем
10. Хрупкие и пустые
11. Боже милостивый
12. История двоих

General
Unique ID : 171152516335216881598133776656120503424 (0x80C2C68F790CC6829A2AA4C18B855C80)
Complete name : D:\[DLS] Kuzu no Honkai [Soer & MezIdA]\[DeadLine] Kuzu no Honkai - 01 [Soer & MezIdA] [720p WEBRip].mkv
Format : Matroska
Format version : Version 4 / Version 2
File size : 390 MiB
Duration : 22mn 54s
Overall bit rate : 2 378 Kbps
Encoded date : UTC 2017-01-13 15:34:09
Writing application : mkvmerge v7.6.0 ('Garden of Dreams') 64bit built on Feb 8 2015 13:04:34
Writing library : libebml v1.3.1 + libmatroska v1.4.2
Attachments : OpenSans-Semibold.ttf

Video
ID : 1
Format : AVC
Format/Info : Advanced Video Codec
Format profile : High 10@L5
Format settings, CABAC : Yes
Format settings, ReFrames : 16 frames
Codec ID : V_MPEG4/ISO/AVC
Duration : 22mn 54s
Bit rate : 2 003 Kbps
Width : 1 280 pixels
Height : 720 pixels
Display aspect ratio : 16:9
Frame rate mode : Constant
Frame rate : 23.976 (24000/1001) fps
Color space : YUV
Chroma subsampling : 4:2:0
Bit depth : 10 bits
Scan type : Progressive
Bits/(Pixel*Frame) : 0.091
Stream size : 328 MiB (84%)
Writing library : x264 core 148 r2665 a01e339
Encoding settings : cabac=1 / ref=16 / deblock=1:1:1 / analyse=0x3:0x133 / me=umh / subme=10 / psy=1 / psy_rd=0.70:0.10 / mixed_ref=1 / me_range=24 / chroma_me=1 / trellis=2 / 8x8dct=1 / cqm=0 / deadzone=21,11 / fast_pskip=1 / chroma_qp_offset=-3 / threads=22 / lookahead_threads=5 / sliced_threads=0 / nr=0 / decimate=1 / interlaced=0 / bluray_compat=0 / constrained_intra=0 / bframes=10 / b_pyramid=2 / b_adapt=2 / b_bias=0 / direct=3 / weightb=1 / open_gop=0 / weightp=2 / keyint=250 / keyint_min=23 / scenecut=40 / intra_refresh=0 / rc_lookahead=60 / rc=crf / mbtree=1 / crf=18.0 / qcomp=0.60 / qpmin=0 / qpmax=81 / qpstep=4 / ip_ratio=1.40 / aq=3:0.80
Language : English
Default : Yes
Forced : No

Audio #1
ID : 2
Format : AAC
Format/Info : Advanced Audio Codec
Format profile : LC
Codec ID : A_AAC
Duration : 22mn 54s
Bit rate : 182 Kbps
Channel(s) : 2 channels
Channel positions : Front: L R
Sampling rate : 48.0 KHz
Frame rate : 46.875 fps (1024 spf)
Compression mode : Lossy
Stream size : 29.8 MiB (8%)
Title : [Soer & MezIdA] [Deadline Studio]
Language : Russian
Default : Yes
Forced : Yes

Audio #2
ID : 3
Format : AAC
Format/Info : Advanced Audio Codec
Format profile : LC
Codec ID : A_AAC
Duration : 22mn 54s
Bit rate : 192 Kbps
Channel(s) : 2 channels
Channel positions : Front: L R
Sampling rate : 48.0 KHz
Frame rate : 46.875 fps (1024 spf)
Compression mode : Lossy
Stream size : 30.9 MiB (8%)
Title : Original
Language : Japanese
Default : No
Forced : No

Text #1
ID : 4
Format : ASS
Codec ID : S_TEXT/ASS
Codec ID/Info : Advanced Sub Station Alpha
Duration : 18mn 27s
Bit rate : 9 bps
Count of elements : 17
Compression mode : Lossless
Stream size : 1.25 KiB (0%)
Title : Надписи
Language : Russian
Default : Yes
Forced : Yes

Text #2
ID : 5
Format : ASS
Codec ID : S_TEXT/ASS
Codec ID/Info : Advanced Sub Station Alpha
Duration : 21mn 19s
Bit rate : 111 bps
Count of elements : 283
Compression mode : Lossless
Stream size : 17.4 KiB (0%)
Title : Полные субтитры
Language : Russian
Default : No
Forced : No
info [Профиль]  [ЛС] 

TotSamiySoer

Пол: Пол:Муж

Стаж: 2 года 7 месяцев

Сообщений: 296

Россия
Рейтинг

post 13-Янв-2017 20:42 (спустя 37 секунд) [-]0[+]

[Цитировать] 

Добавлена: 1 серия.
info [Профиль]  [ЛС] 

Ritsu

Пол: Пол:Муж

Стаж: 5 лет 11 месяцев

Сообщений: 877

Австралия
Рейтинг

post 13-Янв-2017 21:50 (спустя 1 час 7 минут) [-]0[+]

[Цитировать] 

Ждём-с полный сезон.

_________________
Флудите вместе с Рицу и будет вам счастье! ^__^

"...Зажжем рок в этой дыре!.."
info [Профиль]  [ЛС] 

ZashikiWarashi

Пол: Пол:Муж

Стаж: 4 года 7 месяцев

Сообщений: 463

Предупреждений: 1

Россия
Рейтинг

post 14-Янв-2017 02:15 (спустя 4 часа) [-]0[+]

[Цитировать] 

Очень ждем.
info [Профиль]  [ЛС] 

TotSamiySoer

Пол: Пол:Муж

Стаж: 2 года 7 месяцев

Сообщений: 296

Россия
Рейтинг

post 24-Янв-2017 20:27 (спустя 10 дней) [-]0[+]

[Цитировать] 

Добавлена: 2 серия.
info [Профиль]  [ЛС] 

franck

Пол: Пол:Муж

Стаж: 7 лет 7 месяцев

Сообщений: 169

Украина
Рейтинг

post 24-Янв-2017 22:48 (спустя 2 часа 21 минута) [-]0[+]

[Цитировать] 

Сюжет оригинальный, однако anime_12

_________________
info [Профиль]  [ЛС] 

TotSamiySoer

Пол: Пол:Муж

Стаж: 2 года 7 месяцев

Сообщений: 296

Россия
Рейтинг

post 30-Янв-2017 20:56 (спустя 5 дней) [-]0[+]

[Цитировать] 

Добавлена: 3 серия.
info [Профиль]  [ЛС] 

Whysoserious9

Пол: Пол:Муж

Стаж: 7 лет 2 месяца

Сообщений: 115

Рейтинг

post 31-Янв-2017 17:26 (спустя 20 часов) [-]0[+]

[Цитировать] 

Одни из самых сочных звуков поцелуев Смеюсь
info [Профиль]  [ЛС] 

franck

Пол: Пол:Муж

Стаж: 7 лет 7 месяцев

Сообщений: 169

Украина
Рейтинг

post 31-Янв-2017 20:57 (спустя 3 часа) [-]-1[+]

[Цитировать] 

Whysoserious9
Вакуум на полную anime_6

_________________
info [Профиль]  [ЛС] 

TotSamiySoer

Пол: Пол:Муж

Стаж: 2 года 7 месяцев

Сообщений: 296

Россия
Рейтинг

post 12-Фев-2017 21:28 (спустя 12 дней) [-]0[+]

[Цитировать] 

Добавлена: 4 серия.
info [Профиль]  [ЛС] 

TotSamiySoer

Пол: Пол:Муж

Стаж: 2 года 7 месяцев

Сообщений: 296

Россия
Рейтинг

post 23-Фев-2017 22:20 (спустя 11 дней) [-]0[+]

[Цитировать] 

Добавлены: 5 и 6 серии.
info [Профиль]  [ЛС] 

TotSamiySoer

Пол: Пол:Муж

Стаж: 2 года 7 месяцев

Сообщений: 296

Россия
Рейтинг

post 27-Фев-2017 22:42 (спустя 4 дня) [-]0[+]

[Цитировать] 

Добавлена: 7 серия.
info [Профиль]  [ЛС] 

TotSamiySoer

Пол: Пол:Муж

Стаж: 2 года 7 месяцев

Сообщений: 296

Россия
Рейтинг

post 06-Мар-2017 22:04 (спустя 6 дней) [-]0[+]

[Цитировать] 

Добавлена: 8 серия.
info [Профиль]  [ЛС] 

TotSamiySoer

Пол: Пол:Муж

Стаж: 2 года 7 месяцев

Сообщений: 296

Россия
Рейтинг

post 14-Мар-2017 20:42 (спустя 7 дней) [-]0[+]

[Цитировать] 

Добавлена: 9 серия.
info [Профиль]  [ЛС] 

TotSamiySoer

Пол: Пол:Муж

Стаж: 2 года 7 месяцев

Сообщений: 296

Россия
Рейтинг

post 27-Мар-2017 23:58 (спустя 13 дней) [-]0[+]

[Цитировать] 

Добавлены: 10 и 11 серии.
info [Профиль]  [ЛС] 

TotSamiySoer

Пол: Пол:Муж

Стаж: 2 года 7 месяцев

Сообщений: 296

Россия
Рейтинг

post 03-Апр-2017 17:44 (спустя 6 дней) [-]0[+]

[Цитировать] 

Добавлена: 12 серия. Конец.
info [Профиль]  [ЛС] 

Thifer

Пол: Пол:Муж

Стаж: 7 лет 11 месяцев

Сообщений: 124

Россия
Рейтинг

post 11-Апр-2017 03:02 (спустя 7 дней) [-]0[+]

[Цитировать] 

я случайно с этой анимехи реветь не буду? Смеюсь
а то судя по описанию придется платочки искать

_________________
info [Профиль]  [ЛС] 

TotSamiySoer

Пол: Пол:Муж

Стаж: 2 года 7 месяцев

Сообщений: 296

Россия
Рейтинг

post 11-Апр-2017 14:41 (спустя 11 часов) [-]0[+]

[Цитировать] 

Thifer
с этой анимехи по-разному реагируют. я вот бомбил очень сильно, но концовку считаю хорошей.
info [Профиль]  [ЛС] 
Показать сообщения:    
Ответить на тему

Текущее время: 25-Июн 16:28

Часовой пояс: GMT + 4



Вы не можете начинать темы
Вы не можете отвечать на сообщения
Вы не можете редактировать свои сообщения
Вы не можете удалять свои сообщения
Вы не можете голосовать в опросах
Вы не можете прикреплять файлы к сообщениям
Вы не можете скачивать файлы