Ошибка

До окончания фрилича осталось:


Гранд Тур / The Grand Tour / Сезон: 1 / Серии 1-3 из 12 / Amazon [2016., Авто-шоу, WEB-DLRip 720p] MVO (Gears Media)

Ответить на тему
 
Автор Сообщение

L

Пол: Пол:Муж

Стаж: 6 лет 8 месяцев

Сообщений: 10838

Украина
Рейтинг

post 21-Ноя-2016 11:00 8[+]

[Цитировать] 

Гранд тур / The Grand Tour

Год выпуска: 2016
Страна: США
Жанр: Автошоу
Продолжительность: ~01:11:00
Перевод: Профессиональный (многоголосый закадровый) Gears Media | есть реклама

Режиссер: Ричард Эванс, Ронан Браун, Грег Винс
В ролях:Джереми Кларксон, Ричард Хаммонд и Джэймс Мэй

Описание:Предлагаем вашему вниманию долгожданный многими фанатами автомобилей проект с легендарными ведущими Джереми Кларксоном, Джеймом Мэйем и Ричардом Хаммондом. В центре внимания проекта оказываются автомобили со всего света. Ведущие отправляются в большое путешествие по миру, чтобы найти раритетные модели авто или же невероятные суперкары. В каждом новом городе будет снят очередной эпизод этого шоу, а ведущие проведут тест драйв местных автомобилей, рассказав о них кое-что по-настоящему интересное. На улице любителей "Топ Гира" огромный праздник - "Гранд Тур" вашему вниманию!

Сэмпл: http://multi-up.com/1127660

Качество: WEB-DLRip 720p
Формат: MKV
Видео: x264, 1280x720 (16:9), 23,976 fps, 4000 kbps
Аудио1: Russian, ААС, 48 kHz, 2 ch, 256 kbps
Субтитры: нет
Format : Matroska
Format version : Version 4 / Version 2
File size : 1.84 GiB
Duration : 1h 11mn
Overall bit rate mode : Variable
Overall bit rate : 3 678 Kbps
Encoded date : UTC 2016-11-19 23:29:05
Writing application : mkvmerge v9.4.2 ('So High') 64bit
Writing library : libebml v1.3.4 + libmatroska v1.4.5

Video
ID : 1
Format : AVC
Format/Info : Advanced Video Codec
Format profile : High@L4.1
Format settings, CABAC : Yes
Format settings, ReFrames : 3 frames
Codec ID : V_MPEG4/ISO/AVC
Duration : 1h 11mn
Bit rate mode : Variable
Bit rate : 3 101 Kbps
Maximum bit rate : 12.0 Mbps
Width : 1 280 pixels
Height : 720 pixels
Display aspect ratio : 16:9
Frame rate mode : Constant
Frame rate : 23.976 (24000/1001) fps
Standard : NTSC
Color space : YUV
Chroma subsampling : 4:2:0
Bit depth : 8 bits
Scan type : Progressive
Bits/(Pixel*Frame) : 0.140
Stream size : 1.55 GiB (84%)
Language : English
Default : Yes
Forced : No
Color range : Limited
Color primaries : BT.709
Transfer characteristics : BT.709
Matrix coefficients : BT.709

Audio #1
ID : 2
Format : AAC
Format/Info : Advanced Audio Codec
Format profile : LC
Codec ID : A_AAC
Duration : 1h 11mn
Bit rate : 256 Kbps
Channel(s) : 2 channels
Channel positions : Front: L R
Sampling rate : 48.0 KHz
Frame rate : 46.875 fps (1024 spf)
Compression mode : Lossy
Delay relative to video : 20ms
Stream size : 131 MiB (7%)
Title : Gears Media
Language : Russian
Default : Yes
Forced : Yes
[b]Внимание! Раздача ведётся путём добавления новых серий; при каждом добавлении создаётся новый торрент. Чтобы начать докачку новой серии, пользователям необходимо сделать следующее:
(1) остановить скачивание,
(2) удалить старый торрент у себя из клиента (старые серии удалять не надо),
(3) скачать новый торрент и запустить его у себя в клиенте вместо старого, при этом указать клиенту путь в старую папку куда и должно происходить скачивание новых серий.

Eсли вы уже удалили старые серии, то предотвратить повторную закачку старых серий можно, отжав галочку в соответствующих местах при запуске нового торрента. По возможности, желательно не удалять старые серии как можно дольше чтобы релизёр не столько продолжал раздавать старые серии, а смог сконцентрироваться на новых.
info [Профиль]  [ЛС] 

Leliil

Пол: Пол:Муж

Стаж: 5 лет 3 месяца

Сообщений: 837

Россия
Рейтинг

post 22-Ноя-2016 07:06 (спустя 20 часов) [-]6[+]

[Цитировать] 

Спасибо, подписался

_________________
info [Профиль]  [ЛС] 

L

Пол: Пол:Муж

Стаж: 6 лет 8 месяцев

Сообщений: 10838

Украина
Рейтинг

post 28-Ноя-2016 13:17 (спустя 6 дней) [-]2[+]

[Цитировать] 

+2 серия

_________________
info [Профиль]  [ЛС] 

Rixmos

Стаж: 6 лет 8 месяцев

Сообщений: 25

Россия
Рейтинг

post 28-Ноя-2016 16:18 (спустя 3 часа) [-]0[+]

[Цитировать] 

боженьки :3
info [Профиль]  [ЛС] 

kirolango

Пол: Пол:Муж

Стаж: 7 лет 2 месяца

Сообщений: 228

Французская Гвиана
Рейтинг

post 28-Ноя-2016 20:43 (спустя 4 часа) [-]3[+]

[Цитировать] 

первая серия 10 из 10
А вторая ооочень странная )
info [Профиль]  [ЛС] 

L

Пол: Пол:Муж

Стаж: 6 лет 8 месяцев

Сообщений: 10838

Украина
Рейтинг

post 03-Дек-2016 23:46 (спустя 5 дней) [-]2[+]

[Цитировать] 

+3 серия

_________________
info [Профиль]  [ЛС] 

DenisGromoff

Пол: Пол:Муж

Стаж: 3 года 8 месяцев

Сообщений: 19

Россия
Рейтинг

post 04-Дек-2016 11:10 (спустя 11 часов) [-]1[+]

[Цитировать] 

Это очень хорошее шоу если бы не черномазая сука за спиной Кларксона ,которая постоянно скалится ,где надо и не надо .

_________________
den
info [Профиль]  [ЛС] 

egorikSTAIL

Стаж: 7 лет 3 месяца

Сообщений: 228

Рейтинг

post 05-Дек-2016 06:04 (спустя 18 часов) [-]0[+]

[Цитировать] 

Зя ниче так. Респект!
info [Профиль]  [ЛС] 

Krushons

Пол: Пол:Муж

Стаж: 3 года 8 месяцев

Сообщений: 1

Рейтинг

post 05-Дек-2016 22:26 (спустя 16 часов) [-]0[+]

[Цитировать] 

Прошу в дальнейшем предупреждать о звуковой или текстовой рекламе. Потерял только время на скачивание Грущу
info [Профиль]  [ЛС] 
Показать сообщения:    
Ответить на тему

Текущее время: 10-Дек 07:10

Часовой пояс: GMT + 4



Вы не можете начинать темы
Вы не можете отвечать на сообщения
Вы не можете редактировать свои сообщения
Вы не можете удалять свои сообщения
Вы не можете голосовать в опросах
Вы не можете прикреплять файлы к сообщениям
Вы не можете скачивать файлы