Ошибка

Ледниковый период: Столкновение неизбежно / Ice Age: Collision Course (Майк Тёрмайер, Гален Т. Чу) [2016, мультфильм, фантастика, комедия, приключения, семейный, BDRemux 1080p] Dub + Ukr + Eng + Sub rus, ukr, eng от R.G. TNClub

Ответить на тему
 
Автор Сообщение

L

Пол: Пол:Муж

Стаж: 6 лет 11 месяцев

Сообщений: 11366

Украина
Рейтинг

post 03-Ноя-2016 09:47 6[+]

[Цитировать] 

Ледниковый период: Столкновение неизбежно
«Маленький шаг для него. Большая проблема для всех»

Страна: США
Жанр: мультфильм, фантастика, комедия, приключения, семейный
Год выпуска: 2016
Продолжительность: 01:34:00
Перевод:
  • Профессиональный (дублированный) [Лицензия EUR] - русский
  • Профессиональный (дублированный) [Лицензия EUR] - украинский
Субтитры: русские, украинские, английские
Оригинальная дорожка: английский
Главы: есть

Режиссер: Майк Тёрмайер, Гален Т. Чу
В ролях: Рэй Романо, Джон Легуизамо, Дэнис Лири, Куин Латифа, Шонн Уильям Скотт, Саймон Пегг, Дженнифер Лопез, Нил Тайсон, Джесси Тайлер Фергюсон, Джесси Джей
Описание: Отчаянная погоня за неуловимым желудем катапультирует Скрата прямо в космос, где он случайно запускает целую серию космических событий. Именно они изменят весь мир Ледникового периода и станут реальной угрозой для него. Чтобы спастись, Сид, Мэнни, Диего и остальные звери должны покинуть свои дома, отправиться в забавное и захватывающее приключение в экзотические новые земли и встретиться со множеством красочных новых персонажей.

Качество видео: BDRemux 1080p
Рип от L
Формат видео: MKV
Видео: MPEG-4 AVC Video ~25Mbps 1080p / 23,976 fps / 16:9 / High Profile 4.1
Аудио:
  • Russian: 48 kHz, DTS, 3/2 (L,C,R,l,r) + LFE ch, ~768.00 kbps avg
  • Ukrainian: 48 kHz, AC3 Dolby Digital, 3/2 (L,C,R,l,r) + LFE ch, ~448 kbps
  • English: 48 kHz | 24-bit, DTS-HD Master Audio 7.1 ch, ~4613 kbps (48 kHz, DTS, 3/2 (L,C,R,l,r) + LFE ch, ~1509)
Формат субтитров: softsub (SRT)
Раздача от &

Код:

Уникальный идентификатор                 : 182067146805669411102426760274974737669 (0x88F8DB63D78FA3B09F5D519063D60505)
Полное имя                               : D:\Bluebird-HD.org\Ice.Age.Collision.Course.2016.BluRay.Remux.1080p.AVC -TNClub.mkv
Формат                                   : Matroska
Версия формата                           : Version 4 / Version 2
Размер файла                             : 19,5 Гбайт
Продолжительность                        : 1 ч. 34 м.
Режим общего битрейта                    : Переменный
Общий поток                              : 29,5 Мбит/сек
Название фильма                          : Ice.Age.Collision.Course.2016.BluRay.Remux.1080p.AVC -L@TNClub
Дата кодирования                         : UTC 2016-11-03 05:29:21
Программа кодирования                    : mkvmerge v7.7.0 ('Six Voices') 32bit built on Feb 28 2015 23:23:00
Библиотека кодирования                   : libebml v1.3.1 + libmatroska v1.4.2
Обложка                                  : Yes
Attachments                              : coveree.png / cover.png

Видео
Идентификатор                            : 1
Формат                                   : AVC
Формат/Информация                        : Advanced Video Codec
Профиль формата                          : High@L4.1
Параметр CABAC формата                   : Да
Параметр ReFrames формата                : 4 кадра
Идентификатор кодека                     : V_MPEG4/ISO/AVC
Продолжительность                        : 1 ч. 34 м.
Вид битрейта                             : Переменный
Битрейт                                  : 24,4 Мбит/сек
Максимальный битрейт                     : 30,0 Мбит/сек
Ширина                                   : 1920 пикселей
Высота                                   : 1080 пикселей
Соотношение сторон                       : 16:9
Режим частоты кадров                     : Постоянный
Частота кадров                           : 23,976 (24000/1001) кадра/сек
Цветовое пространство                    : YUV
Субдискретизация насыщенности            : 4:2:0
Битовая глубина                          : 8 бит
Тип развёртки                            : Прогрессивная
Бит/(Пиксели*Кадры)                      : 0.491
Размер потока                            : 16,1 Гбайт (83%)
Заголовок                                : Ice.Age.Collision.Course.2016.BluRay.Remux.1080p.AVC -L@TNClub
Default                                  : Нет
Forced                                   : Нет

Аудио #1
Идентификатор                            : 2
Формат                                   : DTS
Формат/Информация                        : Digital Theater Systems
Режим                                    : 16
Параметр Endianness формата              : Big
Идентификатор кодека                     : A_DTS
Продолжительность                        : 1 ч. 34 м.
Вид битрейта                             : Постоянный
Битрейт                                  : 768 Кбит/сек
Каналы                                   : 6 каналов
Расположение каналов                     : Front: L C R, Side: L R, LFE
Частота                                  : 48,0 КГц
Частота кадров                           : 93,750 кадра/сек (512 spf)
Битовая глубина                          : 24 бит
Метод сжатия                             : С потерями
Размер потока                            : 519 Мбайт (3%)
Заголовок                                : DTS 5.1 @ 768 kbps
Язык                                     : Russian
Default                                  : Да
Forced                                   : Нет

Аудио #2
Идентификатор                            : 3
Формат                                   : AC-3
Формат/Информация                        : Audio Coding 3
Расширение режима                        : CM (complete main)
Параметр Endianness формата              : Big
Идентификатор кодека                     : A_AC3
Продолжительность                        : 1 ч. 34 м.
Вид битрейта                             : Постоянный
Битрейт                                  : 448 Кбит/сек
Каналы                                   : 6 каналов
Расположение каналов                     : Front: L C R, Side: L R, LFE
Частота                                  : 48,0 КГц
Частота кадров                           : 31,250 кадров/сек (1536 spf)
Метод сжатия                             : С потерями
Размер потока                            : 303 Мбайт (2%)
Заголовок                                : DD 5.1 @ 448 kbps
Язык                                     : Ukrainian
Default                                  : Нет
Forced                                   : Нет

Аудио #3
Идентификатор                            : 4
Формат                                   : DTS
Формат/Информация                        : Digital Theater Systems
Профиль формата                          : MA / ES Matrix / Core
Режим                                    : 16
Параметр Endianness формата              : Big
Идентификатор кодека                     : A_DTS
Продолжительность                        : 1 ч. 18 м.
Вид битрейта                             : Переменный / Постоянный / Постоянный
Битрейт                                  : 4605 Кбит/сек / 1509 Кбит/сек / 1509 Кбит/сек
Каналы                                   : 8 каналов / 7 каналов / 6 каналов
Расположение каналов                     : Front: L C R, Side: L R, Back: L R, LFE / Front: L C R, Side: L R, Back: C, LFE / Front: L C R, Side: L R, LFE
Частота                                  : 48,0 КГц
Частота кадров                           : 93,750 кадра/сек (512 spf)
Битовая глубина                          : 24 бит
Метод сжатия                             : Без потерь / Lossy / Lossy
Размер потока                            : 2,53 Гбайт (13%)
Заголовок                                : DTS-HD MA 7.1 @ 4613 kbps
Язык                                     : English
Default                                  : Нет
Forced                                   : Нет

Текст #1
Идентификатор                            : 5
Формат                                   : UTF-8
Идентификатор кодека                     : S_TEXT/UTF8
Идентификатор кодека/Информация          : UTF-8 Plain Text
Продолжительность                        : 24 м. 51 с.
Битрейт                                  : 0 бит/сек
Count of elements                        : 2
Размер потока                            : 109 байт (0%)
Заголовок                                : Forced
Язык                                     : Russian
Default                                  : Да
Forced                                   : Нет

Текст #2
Идентификатор                            : 6
Формат                                   : UTF-8
Идентификатор кодека                     : S_TEXT/UTF8
Идентификатор кодека/Информация          : UTF-8 Plain Text
Продолжительность                        : 1 ч. 23 м.
Битрейт                                  : 99 бит/сек
Count of elements                        : 1221
Размер потока                            : 61,1 Кбайт (0%)
Язык                                     : Russian
Default                                  : Нет
Forced                                   : Нет

Текст #3
Идентификатор                            : 7
Формат                                   : UTF-8
Идентификатор кодека                     : S_TEXT/UTF8
Идентификатор кодека/Информация          : UTF-8 Plain Text
Продолжительность                        : 1 ч. 21 м.
Битрейт                                  : 0 бит/сек
Count of elements                        : 3
Размер потока                            : 145 байт (0%)
Заголовок                                : Forced
Язык                                     : Ukrainian
Default                                  : Нет
Forced                                   : Нет

Текст #4
Идентификатор                            : 8
Формат                                   : UTF-8
Идентификатор кодека                     : S_TEXT/UTF8
Идентификатор кодека/Информация          : UTF-8 Plain Text
Продолжительность                        : 1 ч. 33 м.
Битрейт                                  : 89 бит/сек
Count of elements                        : 1225
Размер потока                            : 61,3 Кбайт (0%)
Язык                                     : Ukrainian
Default                                  : Нет
Forced                                   : Нет

Текст #5
Идентификатор                            : 9
Формат                                   : UTF-8
Идентификатор кодека                     : S_TEXT/UTF8
Идентификатор кодека/Информация          : UTF-8 Plain Text
Продолжительность                        : 1 ч. 23 м.
Битрейт                                  : 60 бит/сек
Count of elements                        : 1221
Размер потока                            : 36,9 Кбайт (0%)
Язык                                     : English
Default                                  : Нет
Forced                                   : Нет

Меню
00:00:00.000                             : en:00:00:00.000
00:03:09.106                             : en:00:03:09.106
00:05:24.366                             : en:00:05:24.366
00:09:06.087                             : en:00:09:06.087
00:13:22.301                             : en:00:13:22.301
00:18:05.751                             : en:00:18:05.751
00:20:50.583                             : en:00:20:50.583
00:23:10.306                             : en:00:23:10.306
00:27:29.898                             : en:00:27:29.898
00:30:15.981                             : en:00:30:15.981
00:32:54.347                             : en:00:32:54.347
00:36:13.588                             : en:00:36:13.588
00:39:33.454                             : en:00:39:33.454
00:42:58.701                             : en:00:42:58.701
00:47:35.019                             : en:00:47:35.019
00:51:11.735                             : en:00:51:11.735
00:55:50.764                             : en:00:55:50.764
01:01:09.457                             : en:01:01:09.457
01:05:06.402                             : en:01:05:06.402
01:09:39.300                             : en:01:09:39.300
01:14:36.889                             : en:01:14:36.889
01:17:41.532                             : en:01:17:41.532
01:21:43.065                             : en:01:21:43.065
01:24:46.498                             : en:01:24:46.498
Пожалуйста, оставайтесь на раздаче как можно дольше!
Релиз специально для Tapochek.net
Все раздачи R.G.TNClub




Оформление by:GhostRidik
info [Профиль]  [ЛС] 

post 03-Ноя-2016 09:48 (спустя 1 минута) [-]0[+]

Топик был перенесен из форума Оформление раздач (R.G. TNClub) в форум Новинки 2015-2016 (Web-DL, DVD, HD DVD, Blu-ray, HD Rips)

L
 

JackZlo

Пол: Пол:Муж

Стаж: 6 лет 11 месяцев

Сообщений: 1005

Предупреждений: 2

Россия
Рейтинг

post 03-Ноя-2016 20:29 (спустя 10 часов) [-]0[+]

[Цитировать] 

Цитата:

English: 48 kHz | 24-bit, DTS-HD Master Audio 7.1 ch, ~4613 kbps
Зачем хоть такой огромный битрейт на английскую речь? Целых 2,53 Гб занимает одна лишь английская речь, что и очень и очень немало, думаю 448kbps было бы для неё более нормально...
Ну это так, моё имхо, в целом спасибо большое.

_________________
info [Профиль]  [ЛС] 

B1ohazard

Стаж: 7 лет 11 месяцев

Сообщений: 3466

Россия
Рейтинг

post 04-Ноя-2016 00:12 (спустя 3 часа) [-]0[+]

[Цитировать] 

JackZlo
А почему собсно и нет? БД-Ремукс как никак.
info [Профиль]  [ЛС] 

Ян

Пол: Пол:Муж

Стаж: 5 лет 5 месяцев

Сообщений: 330

Россия
Рейтинг

post 06-Ноя-2016 14:50 (спустя 2 дня 14 часов) [-]0[+]

[Цитировать] 

не стоит тратить время... честно. Лучшие 1-2 . остальные... даже детишкам не хочется показывать

_________________
info [Профиль]  [ЛС] 

Bizzare Koshak

Пол: Пол:Муж

Стаж: 6 лет 4 месяца

Сообщений: 295

Россия
Рейтинг

post 07-Ноя-2016 14:43 (спустя 23 часа) [-]0[+]

[Цитировать] 

Я откровенно говоря вообще не понимаю, как можно такое показывать детям. Тут психика не каждого взрослого человека такую ахинею выдержит!

_________________
info [Профиль]  [ЛС] 

post 03-Фев-2017 10:20 (спустя 2 месяца 25 дней) [-]0[+]

Топик был перенесен из форума Новинки 2016-2017 (Web-DL, DVD, HD DVD, Blu-ray, HD Rips) в форум Зарубежное кино от R.G. TNСlub

L
 

post 03-Фев-2017 10:21 (спустя 2 месяца 25 дней) [-]0[+]

Топик был перенесен из форума Зарубежное кино от R.G. TNСlub в форум Мультфильмы от R.G. TNСlub

L
 
Показать сообщения:    
Ответить на тему

Текущее время: 24-Мар 14:20

Часовой пояс: GMT + 4



Вы не можете начинать темы
Вы не можете отвечать на сообщения
Вы не можете редактировать свои сообщения
Вы не можете удалять свои сообщения
Вы не можете голосовать в опросах
Вы не можете прикреплять файлы к сообщениям
Вы не можете скачивать файлы