Ошибка

Приказ Свыше / Big Order (TV) [1-10 из 10] [2016] [Приключения, сёнэн, фантастика] [HDTVRip720p] [Любительский]

Ответить на тему
 
Автор Сообщение

Chel90RUS

Пол: Пол:Муж

Стаж: 5 лет 5 месяцев

Сообщений: 413

Россия
Рейтинг

post 25-Июн-2016 23:21 0[+]

[Цитировать] 

pic="http://static2.anidub.com/tracker/poster/9837a1b251.jpg"
Приказ Свыше
Big Order / ビッグオーダー

Год выпуска: 2016
Жанр: Приключения, сёнэн, фантастика
Страна: Япония
Тип: HDTV
Продолжительность: 10 серий ~ 25 мин
Дата выпуска: c 16.04.2016 по 18.06.2016
Режиссер: Каманака Нобухару
Автор оригинала / Сценарист: Эсуно Сакаэ
Студия: Asread
Озвучено: Trina_D, JAM
Перевод: FooBoo
Тайминг и работа со звуком: Felix, Alden (4+)
Формат файла: Mp4
Аудио: AAC 48000Hz stereo 192kbps [A: Russian [rus] (aac lc, 48000 Hz, stereo, 192 kb/s)]
Видео: MPEG4 Video (H264) 1280x720 23.976fps 3343kbps [V: 264 (h264 high L4.1, yuv420p, 1280x720, 3343 kb/s)]

General
Complete name : \[AniDub]_Big_Order_[01]_[720p_x264_Aac]_[Trina_D_JAM].mp4
Format : MPEG-4
Format profile : Base Media
Codec ID : isom
File size : 620 MiB
Duration : 24mn 29s
Overall bit rate mode : Variable
Overall bit rate : 3 539 Kbps
Encoded date : UTC 2016-04-17 20:03:14
Tagged date : UTC 2016-04-17 20:03:14
Writing application : Yamb 2.1.0.0
Video
ID : 1
Format : AVC
Format/Info : Advanced Video Codec
Format profile : High@L4.1
Format settings, CABAC : Yes
Format settings, ReFrames : 4 frames
Codec ID : avc1
Codec ID/Info : Advanced Video Coding
Duration : 24mn 29s
Bit rate : 3 343 Kbps
Maximum bit rate : 10.7 Mbps
Width : 1 280 pixels
Height : 720 pixels
Display aspect ratio : 16:9
Frame rate mode : Constant
Frame rate : 23.976 fps
Color space : YUV
Chroma subsampling : 4:2:0
Bit depth : 8 bits
Scan type : Progressive
Bits/(Pixel*Frame) : 0.151
Stream size : 586 MiB (94%)
Title : 264
Writing library : x264 core 129 r2245+729M 1a52e03
Encoding settings : cabac=1 / ref=4 / deblock=1:1:-1 / analyse=0x3:0x113 / me=umh / subme=9 / psy=1 / fade_compensate=0.00 / psy_rd=1.00:0.00 / mixed_ref=1 / me_range=24 / chroma_me=1 / trellis=2 / 8x8dct=1 / cqm=0 / deadzone=21,11 / fast_pskip=1 / chroma_qp_offset=-2 / threads=8 / lookahead_threads=1 / sliced_threads=0 / nr=0 / decimate=1 / interlaced=0 / bluray_compat=0 / constrained_intra=0 / fgo=0 / bframes=9 / b_pyramid=2 / b_adapt=2 / b_bias=0 / direct=1 / weightb=1 / open_gop=0 / weightp=2 / keyint=240 / keyint_min=24 / scenecut=40 / intra_refresh=0 / rc=crf / mbtree=0 / crf=17.0 / qcomp=0.72 / qpmin=0 / qpmax=69 / qpstep=4 / ip_ratio=1.40 / pb_ratio=1.30 / aq=1:0.85
Encoded date : UTC 2016-04-17 06:33:07
Tagged date : UTC 2016-04-17 20:04:16
Color range : Limited
Color primaries : BT.709
Transfer characteristics : BT.709
Matrix coefficients : BT.709

Audio
ID : 2
Format : AAC
Format/Info : Advanced Audio Codec
Format profile : LC
Codec ID : 40
Duration : 24mn 29s
Bit rate mode : Variable
Bit rate : 192 Kbps
Maximum bit rate : 196 Kbps
Channel(s) : 2 channels
Channel positions : Front: L R
Sampling rate : 48.0 KHz
Compression mode : Lossy
Stream size : 33.7 MiB (5%)
Language : Russian
Encoded date : UTC 2016-04-17 20:04:13
Tagged date : UTC 2016-04-17 20:04:16


Описание:Ордэры - Люди наделенные силой исполнять их желание. Главный герой нашей истории - Хошимия Эйджи один из таких Ордэров.
В детстве восхищаясь своим любимым аниме героем он захотел захватить мир, чтобы изменить его к лучшему.
Но не осознав какую силу получил в свои руки Эйджи практически уничтожил его.
Прошло десять лет, мир догадывается, что Великая катастрофа случилась по вине какого-то Ордэра, но никто не знает кого.
Но однажды в классе Эйджи появляется новая ученица...
info [Профиль]  [ЛС] 
Показать сообщения:    
Ответить на тему

Текущее время: 08-Дек 18:30

Часовой пояс: GMT + 4



Вы не можете начинать темы
Вы не можете отвечать на сообщения
Вы не можете редактировать свои сообщения
Вы не можете удалять свои сообщения
Вы не можете голосовать в опросах
Вы не можете прикреплять файлы к сообщениям
Вы не можете скачивать файлы