Ошибка

Я сделал всё, что мог (Дмитрий Салынский) [1986 г., Драма, экранизация, DVB]

Ответить на тему
 
Автор Сообщение

Kotleopold

Пол: Пол:Муж

Стаж: 4 года 11 месяцев

Сообщений: 194

СССР
Рейтинг

post 20-Сен-2015 19:11 1[+]

[Цитировать] 

Я сделал всё, что мог

Год выпуска: 1986
Страна: СССР
Жанр: Драма, экранизация
Продолжительность: 01:12:55

Режиссёр: Дмитрий Салынский

В ролях: Александр Филиппенко, Андрей Болтнев, Ольга Остроумова, Василий Мищенко, Василий Фунтиков, Ирина Шмелёва, Григорий Кочержинский, Алексей Золотницкий, Евгений Шмаров, Светлана Тормахова, Алевтина Румянцева, Яна Друзь, Валентина Клягина, Сергей Десницкий, Владимир Земляникин, Надежда Матушкина, Николай Прокопович, Владимир Сизов, В. Куликов

Описание:
Осенью 1941 года в лагере для военнопленных под Киевом появился человек, назвавший себя врачом, и убедил немцев в необходимости организовать за пределами лагеря госпиталь.

Прекрасно владеющий немецким, не вызывая никаких сомнений у гитлеровцев, он снабжал оружием тех, кто становился на ноги, и давал возможность им уйти в лес...



Дополнительно:
Фильм снят по мотивам документального рассказа С.С. Смирнова «Госпиталь в Еремеевке».



Качество: DVB
Формат: MPEG-PS
Видео кодек: XviD
Аудио кодек: MPEG Audio
Видео: MPEG Video, 720(768)x576 (4:3), 25,000 кадров/сек, 2659 Кбит/сек
Аудио: MPEG Audio, 48,0 КГц, 192 Кбит/сек, 2 канала


General
Complete name : U:\Тапочки\Я сделал всё, что мог (1986).mpg
Format : MPEG-PS
File size : 1.48 GiB
Duration : 1h 12mn
Overall bit rate : 2 909 Kbps
Video #224
ID : 224 (0xE0)
Format : MPEG Video
Format version : Version 2
Format profile : Main@Main
Format settings, Matrix : Default
Duration : 1h 12mn
Bit rate mode : Variable
Bit rate : 2 601 Kbps
Nominal bit rate : 5 000 Kbps
Width : 720 pixels
Height : 576 pixels
Display aspect ratio : 4:3
Frame rate : 25.000 fps
Standard : PAL
Colorimetry : 4:2:0
Scan type : Interlaced
Scan order : Top Field First
Bits/(Pixel*Frame) : 0.251
Stream size : 1.32 GiB (89%)
Audio #192
ID : 192 (0xC0)
Format : MPEG Audio
Format version : Version 1
Format profile : Layer 2
Duration : 1h 12mn
Bit rate mode : Constant
Bit rate : 192 Kbps
Channel(s) : 2 channels
Sampling rate : 48.0 KHz
Resolution : 16 bits
Video delay : 9ms
Stream size : 100 MiB (7%)

info [Профиль]  [ЛС] 

post 02-Окт-2015 13:29 (спустя 11 дней) [-]0[+]

Топик был перенесен из форума Анонсы в форум Советское кино (Rips)

koss555
 
Показать сообщения:    
Ответить на тему

Текущее время: 03-Дек 15:41

Часовой пояс: GMT + 4



Вы не можете начинать темы
Вы не можете отвечать на сообщения
Вы не можете редактировать свои сообщения
Вы не можете удалять свои сообщения
Вы не можете голосовать в опросах
Вы не можете прикреплять файлы к сообщениям
Вы не можете скачивать файлы