Ошибка

Забудьте слово Смерть (Самвел Гаспаров) [1979 г., Боевик, приключенческий, DVDRip]

Ответить на тему
 
Автор Сообщение

Kotleopold

Пол: Пол:Муж

Стаж: 5 лет 5 месяцев

Сообщений: 195

СССР
Рейтинг

post 13-Сен-2015 23:25 0[+]

[Цитировать] 

Забудьте слово Смерть

Год выпуска: 1979
Страна: СССР, Одесская к/с
Жанр: Боевик, приключенческий
Продолжительность: 01:17:27

Режиссёр: Самвел Гаспаров

В ролях: Богдан Ступка, Константин Степанков, Евгений Леонов-Гладышев, Вадим Василевский, Пётр Меркурьев, Олег Корчиков, Ольга Гаспарова, Александр Горбатов
1920 год. Барон Врангель все ещё в Крыму. А в небольшом украинском селе Суховка свирепствует банда местного преступного авторитета Кикотя - одного из многочисленных самостийных «батек»...

Иван Островой, посланный Губчека на помощь местным чекистам, должен проникнуть в логово банды и уничтожить её главаря...
Качество: DVDRip
Формат: AVI
Видео кодек: XviD
Аудио кодек: MP3
Видео: 640x336 (1.90:1); 25 fps; 1141 kbps; 0.21 bit/pixel
Аудио: 48 kHz; 2 ch; 108.12 kbps
Дополнительно:
Прокат (1979, 19-е место) - 24.2 млн. зрителей

General
Complete name : U:\Тапочки\Забудьте слово Смерть (1979).avi
Format : AVI
Format/Info : Audio Video Interleave
File size : 700 MiB
Duration : 1h 17mn
Overall bit rate : 1 264 Kbps
Writing application : VirtualDubMod 1.5.4.1 (build 2178/release)
Writing library : VirtualDubMod build 2178/release
Video #0
ID : 0
Format : MPEG-4 Visual
Format profile : AdvancedSimple@L5
Format settings, BVOP : Yes
Format settings, QPel : No
Format settings, GMC : No warppoints
Format settings, Matrix : Custom
Codec ID : XVID
Codec ID/Hint : XviD
Duration : 1h 17mn
Bit rate : 1 142 Kbps
Width : 640 pixels
Height : 336 pixels
Display aspect ratio : 1.905
Frame rate : 25.000 fps
Resolution : 24 bits
Colorimetry : 4:2:0
Scan type : Progressive
Bits/(Pixel*Frame) : 0.213
Stream size : 633 MiB (90%)
Writing library : XviD 1.2.1 (UTC 2008-12-04)
Audio #1
ID : 1
Format : MPEG Audio
Format version : Version 1
Format profile : Layer 3
Codec ID : 55
Codec ID/Hint : MP3
Duration : 1h 17mn
Bit rate mode : Variable
Bit rate : 108 Kbps
Nominal bit rate : 128 Kbps
Channel(s) : 2 channels
Sampling rate : 48.0 KHz
Resolution : 16 bits
Stream size : 59.9 MiB (9%)
Alignment : Aligned on interleaves
Interleave, duration : 24 ms (0.60 video frame)
Interleave, preload duration : 525 ms
Writing library : LAME3.98r
Encoding settings : -m j -V 4 -q 2 -lowpass 17 --abr 128
Language : Russian

info [Профиль]  [ЛС] 

post 14-Сен-2015 07:20 (спустя 7 часов) [-]0[+]

Топик был перенесен из форума Анонсы в форум Советское кино (Rips)

L
 

Montgomery

Пол: Пол:Муж

Стаж: 4 года 6 месяцев

Сообщений: 746

Предупреждений: 1

Россия
Рейтинг

post 14-Сен-2015 09:13 (спустя 9 часов) [-]-3[+]

[Цитировать] 

Цитата:

одного из многочисленных самостийных «батек»
Это оригинальное описание? А то больно по-современному звучит Улыбаюсь
info [Профиль]  [ЛС] 

Як9т

Пол: Пол:Муж

Стаж: 4 года 6 месяцев

Сообщений: 103

Украина
Рейтинг

post 14-Сен-2015 10:54 (спустя 1 час 41 минута) [-]0[+]

[Цитировать] 

А ты оригинал! Современный. Однако.
info [Профиль]  [ЛС] 

Kotleopold

Пол: Пол:Муж

Стаж: 5 лет 5 месяцев

Сообщений: 195

СССР
Рейтинг

post 14-Сен-2015 20:04 (спустя 9 часов) [-]-1[+]

[Цитировать] 

Montgomery писал(а):

Цитата:

одного из многочисленных самостийных «батек»
Это оригинальное описание? А то больно по-современному звучит Улыбаюсь
Это оригинал в моей обработке. kolob_107 Вот ещё несколько фильмов в тему: «Тревожный месяц вересень», «Провал операции «Большая Медведица» и «Карпатское золото», в котором Константин Степанков сыграл очередного местного преступного авторитета - на этот раз в рясе. bd

_________________
Чистые лапы, горячее сердце, холодная голова и пушистый хвост!!!
info [Профиль]  [ЛС] 
Показать сообщения:    
Ответить на тему

Текущее время: 26-Май 18:58

Часовой пояс: GMT + 4



Вы не можете начинать темы
Вы не можете отвечать на сообщения
Вы не можете редактировать свои сообщения
Вы не можете удалять свои сообщения
Вы не можете голосовать в опросах
Вы не можете прикреплять файлы к сообщениям
Вы не можете скачивать файлы