Ошибка

Копы в юбках / The Heat (Пол Фиг) [2013 г., комедия, криминал, боевик, детектив, Blu-ray 1080p]

Ответить на тему
 
Автор Сообщение

Eвгений

Пол: Пол:Муж

Стаж: 6 лет 9 месяцев

Сообщений: 680

Россия
Рейтинг

post 22-Июл-2015 22:51 1[+]

[Цитировать] 

Копы в юбках / The Heat

Год выпуска: 2013
Страна: США
Жанр: комедия, криминал, боевик, детектив
Продолжительность: 01:57:04 | 02:00:20
Перевод: Профессиональный (полное дублирование)
Режиссер:
  • Пол Фиг

В ролях:
  • Сандра Буллок, Мелисса МакКарти, Демиан Бишир, Марлон Уайанс, Майкл Рапапорт, Томас Ф. Уилсон, Майкл МакДональд, Дэн Баккедаль, Таран Киллэм, Джейн Куртин

Описание: Агенту ФБР и бостонскому полицейскому доверено ответственное задание: выйти на след и обезвредить опасного преступника. И это даже хорошо, что копы - женщины, ведь бандит-то - русский. А непредсказуемости русской смекалки можно противопоставить только столь же непредсказуемую женскую логику.
Качество: Blu-ray
Формат: BDMV
Видео кодек: MPEG-4 AVC Video
Аудио кодек: DTS-HD MA, DTS, DD
Видео: 21379 kbps, 1920x1080, 23,976 fps
Аудио 1: Английский DTS-HD MA 5.1
Аудио 2: Французскмй DTS 5.1
Аудио 3: Немецкий DTS 5.1
Аудио 4: Итальянский DTS 5.1
Аудио 5: Японский DTS 5.1
Аудио 6: Русский DTS 5.1 (768 kbps) (Дубляж)
Аудио 7: Испанский DTS 5.1
Аудио 8: Английский Dolby Digital 5.1
Аудио 9: Украинский Dolby Digital 5.1 (448 kbps) (Дубляж)

Код:

DISC INFO:

Disc Title:     THE_HEAT
Disc Size:      47 616 849 704 bytes
Protection:     AACS
BD-Java:        Yes
BDInfo:         0.5.8

PLAYLIST REPORT:

Name:                   00801.MPLS
Length:                 2:00:20.087 (h:m:s.ms)
Size:                   31 822 405 632 bytes
Total Bitrate:          35,26 Mbps

(*) Indicates included stream hidden by this playlist.

VIDEO:

Codec                   Bitrate             Description   
-----                   -------             -----------   
MPEG-4 AVC Video        21379 kbps          1080p / 23,976 fps / 16:9 / High Profile 4.1

AUDIO:

Codec                           Language        Bitrate         Description   
-----                           --------        -------         -----------   
DTS-HD Master Audio             English         3234 kbps       5.1 / 48 kHz / 3234 kbps / 24-bit (DTS Core: 5.1 / 48 kHz / 1509 kbps / 24-bit)
DTS Audio                       French          768 kbps        5.1 / 48 kHz / 768 kbps / 24-bit
DTS Audio                       German          768 kbps        5.1 / 48 kHz / 768 kbps / 24-bit
DTS Audio                       Italian         768 kbps        5.1 / 48 kHz / 768 kbps / 24-bit
* DTS Audio                     Japanese        768 kbps        5.1 / 48 kHz / 768 kbps / 24-bit
DTS Audio                       Russian         768 kbps        5.1 / 48 kHz / 768 kbps / 24-bit
DTS Audio                       Spanish         768 kbps        5.1 / 48 kHz / 768 kbps / 24-bit
* Dolby Digital Audio           English         448 kbps        5.1 / 48 kHz / 448 kbps
Dolby Digital Audio             Ukrainian       448 kbps        5.1 / 48 kHz / 448 kbps
Dolby Digital Audio             English         224 kbps        2.0 / 48 kHz / 224 kbps
* Dolby Digital Audio           English         224 kbps        2.0 / 48 kHz / 224 kbps
* Dolby Digital Audio           English         224 kbps        2.0 / 48 kHz / 224 kbps
* Dolby Digital Audio           English         224 kbps        2.0 / 48 kHz / 224 kbps
* Dolby Digital Audio           English         224 kbps        2.0 / 48 kHz / 224 kbps

SUBTITLES:

Codec                           Language        Bitrate         Description   
-----                           --------        -------         -----------   
Presentation Graphics           English         67,635 kbps                   
* Presentation Graphics         English         87,641 kbps                   
Presentation Graphics           Arabic          29,952 kbps                   
Presentation Graphics           Chinese         36,803 kbps                   
Presentation Graphics           Danish          49,807 kbps                   
* Presentation Graphics         Danish          62,946 kbps                   
Presentation Graphics           Dutch           42,925 kbps                   
* Presentation Graphics         Dutch           63,044 kbps                   
Presentation Graphics           Estonian        51,676 kbps                   
Presentation Graphics           Finnish         43,158 kbps                   
* Presentation Graphics         Finnish         66,790 kbps                   
Presentation Graphics           French          43,402 kbps                   
* Presentation Graphics         French          59,872 kbps                   
Presentation Graphics           German          57,017 kbps                   
* Presentation Graphics         German          69,907 kbps                   
Presentation Graphics           Italian         50,593 kbps                   
* Presentation Graphics         Italian         60,033 kbps                   
* Presentation Graphics         Japanese        33,207 kbps                   
* Presentation Graphics         Japanese        0,295 kbps                     
* Presentation Graphics         Japanese        42,871 kbps                   
Presentation Graphics           Latvian         48,791 kbps                   
Presentation Graphics           Lithuanian      49,110 kbps                   
Presentation Graphics           Norwegian       48,653 kbps                   
* Presentation Graphics         Norwegian       61,131 kbps                   
Presentation Graphics           Russian         50,337 kbps                   
* Presentation Graphics         Russian         75,163 kbps                   
Presentation Graphics           Spanish         52,433 kbps                   
* Presentation Graphics         Spanish         62,805 kbps                   
Presentation Graphics           Swedish         48,169 kbps                   
* Presentation Graphics         Swedish         61,175 kbps                   
Presentation Graphics           Turkish         54,961 kbps                   
Presentation Graphics           Ukrainian       54,333 kbps

FILES:

Name            Time In         Length          Size            Total Bitrate 
----            -------         ------          ----            ------------- 
01755.M2TS      0:00:00.000     0:08:52.156     2 458 890 240   36 965         
01831.M2TS      0:08:52.156     0:01:15.283     322 621 440     34 283         
01806.M2TS      0:10:07.440     0:08:31.886     2 280 450 048   35 640         
01832.M2TS      0:18:39.326     0:00:44.127     186 574 848     33 825         
01808.M2TS      0:19:23.453     0:03:48.478     988 207 104     34 601         
01833.M2TS      0:23:11.932     0:01:08.109     288 307 200     33 864         
01810.M2TS      0:24:20.041     0:01:08.568     297 873 408     34 753         
01834.M2TS      0:25:28.610     0:00:32.574     137 189 376     33 693         
01812.M2TS      0:26:01.184     0:07:44.839     2 021 535 744   34 791         
01835.M2TS      0:33:46.023     0:00:26.901     115 863 552     34 455         
01814.M2TS      0:34:12.925     0:09:40.955     2 641 637 376   36 376         
01836.M2TS      0:43:53.881     0:00:50.258     214 474 752     34 139         
01816.M2TS      0:44:44.139     0:28:13.316     7 442 595 840   35 162         
01837.M2TS      1:12:57.456     0:03:28.499     886 757 376     34 024         
01818.M2TS      1:16:25.956     0:04:19.467     1 136 689 152   35 047         
01838.M2TS      1:20:45.423     0:00:42.834     188 301 312     35 168         
01820.M2TS      1:21:28.258     0:02:20.056     624 377 856     35 664         
01839.M2TS      1:23:48.314     0:00:28.987     122 265 600     33 743         
01822.M2TS      1:24:17.302     0:00:51.217     222 461 952     34 748         
01840.M2TS      1:25:08.519     0:01:27.545     368 037 888     33 632         
01824.M2TS      1:26:36.065     0:02:00.954     530 196 480     35 068         
01841.M2TS      1:28:37.019     0:00:28.862     130 910 208     36 286         
01826.M2TS      1:29:05.881     0:17:30.424     4 627 912 704   35 246         
01842.M2TS      1:46:36.306     0:00:42.500     180 510 720     33 978         
01830.M2TS      1:47:18.807     0:13:01.280     3 407 763 456   34 894

PLAYLIST REPORT

Name:                   00800.MPLS
Length:                 1:57:04.684 (h:m:s.ms)
Size:                   31 056 113 664 bytes
Total Bitrate:          35,37 Mbps

(*) Indicates included stream hidden by this playlist.

VIDEO:

Codec                   Bitrate             Description   
-----                   -------             -----------   
MPEG-4 AVC Video        21389 kbps          1080p / 23,976 fps / 16:9 / High Profile 4.1

AUDIO:

Codec                           Language        Bitrate         Description   
-----                           --------        -------         -----------   
DTS-HD Master Audio             English         3238 kbps       5.1 / 48 kHz / 3238 kbps / 24-bit (DTS Core: 5.1 / 48 kHz / 1509 kbps / 24-bit)
DTS Audio                       French          768 kbps        5.1 / 48 kHz / 768 kbps / 24-bit
DTS Audio                       German          768 kbps        5.1 / 48 kHz / 768 kbps / 24-bit
DTS Audio                       Italian         768 kbps        5.1 / 48 kHz / 768 kbps / 24-bit
* DTS Audio                     Japanese        768 kbps        5.1 / 48 kHz / 768 kbps / 24-bit
DTS Audio                       Russian         768 kbps        5.1 / 48 kHz / 768 kbps / 24-bit
DTS Audio                       Spanish         768 kbps        5.1 / 48 kHz / 768 kbps / 24-bit
Dolby Digital Audio             English         448 kbps        5.1 / 48 kHz / 448 kbps
Dolby Digital Audio             Ukrainian       448 kbps        5.1 / 48 kHz / 448 kbps
* Dolby Digital Audio           English         224 kbps        2.0 / 48 kHz / 224 kbps
Dolby Digital Audio             English         224 kbps        2.0 / 48 kHz / 224 kbps
Dolby Digital Audio             English         224 kbps        2.0 / 48 kHz / 224 kbps
Dolby Digital Audio             English         224 kbps        2.0 / 48 kHz / 224 kbps
Dolby Digital Audio             English         224 kbps        2.0 / 48 kHz / 224 kbps

SUBTITLES:

Codec                           Language        Bitrate         Description   
-----                           --------        -------         -----------   
Presentation Graphics           English         67,633 kbps                   
Presentation Graphics           English         97,689 kbps                   
Presentation Graphics           Arabic          29,755 kbps                   
Presentation Graphics           Chinese         36,747 kbps                   
Presentation Graphics           Danish          49,627 kbps                   
Presentation Graphics           Danish          70,094 kbps                   
Presentation Graphics           Dutch           42,484 kbps                   
Presentation Graphics           Dutch           70,175 kbps                   
Presentation Graphics           Estonian        51,590 kbps                   
Presentation Graphics           Finnish         42,718 kbps                   
Presentation Graphics           Finnish         74,368 kbps                   
Presentation Graphics           French          43,110 kbps                   
Presentation Graphics           French          66,646 kbps                   
Presentation Graphics           German          56,712 kbps                   
Presentation Graphics           German          77,894 kbps                   
Presentation Graphics           Italian         50,535 kbps                   
Presentation Graphics           Italian         66,855 kbps                   
* Presentation Graphics         Japanese        33,112 kbps                   
* Presentation Graphics         Japanese        0,304 kbps                     
* Presentation Graphics         Japanese        47,886 kbps                   
Presentation Graphics           Latvian         48,697 kbps                   
Presentation Graphics           Lithuanian      48,754 kbps                   
Presentation Graphics           Norwegian       48,531 kbps                   
Presentation Graphics           Norwegian       68,153 kbps                   
Presentation Graphics           Russian         50,133 kbps                   
Presentation Graphics           Russian         83,703 kbps                   
Presentation Graphics           Spanish         52,111 kbps                   
Presentation Graphics           Spanish         69,927 kbps                   
Presentation Graphics           Swedish         47,935 kbps                   
Presentation Graphics           Swedish         68,180 kbps                   
Presentation Graphics           Turkish         54,790 kbps                   
Presentation Graphics           Ukrainian       54,216 kbps                   

FILES:

Name            Time In         Length          Size            Total Bitrate 
----            -------         ------          ----            ------------- 
01755.M2TS      0:00:00.000     0:08:52.156     2 458 890 240   36 965         
01805.M2TS      0:08:52.156     0:00:36.995     162 607 104     35 163         
01806.M2TS      0:09:29.151     0:08:31.886     2 280 450 048   35 640         
01807.M2TS      0:18:01.038     0:00:36.828     160 026 624     34 762         
01808.M2TS      0:18:37.866     0:03:48.478     988 207 104     34 601         
01809.M2TS      0:22:26.344     0:00:49.841     217 939 968     34 981         
01810.M2TS      0:23:16.186     0:01:08.568     297 873 408     34 753         
01811.M2TS      0:24:24.754     0:00:32.741     141 447 168     34 561         
01812.M2TS      0:24:57.495     0:07:44.839     2 021 535 744   34 791         
01813.M2TS      0:32:42.335     0:00:26.568     118 038 528     35 543         
01814.M2TS      0:33:08.903     0:09:40.955     2 641 637 376   36 376         
01815.M2TS      0:42:49.858     0:00:26.192     114 100 224     34 849         
01816.M2TS      0:43:16.051     0:28:13.316     7 442 595 840   35 162         
01817.M2TS      1:11:29.368     0:02:12.298     583 096 320     35 259         
01818.M2TS      1:13:41.667     0:04:19.467     1 136 689 152   35 047         
01819.M2TS      1:18:01.134     0:00:15.807     71 608 320      36 240         
01820.M2TS      1:18:16.942     0:02:20.056     624 377 856     35 664         
01821.M2TS      1:20:36.998     0:00:28.987     125 644 800     34 676         
01822.M2TS      1:21:05.985     0:00:51.217     222 461 952     34 748         
01823.M2TS      1:21:57.203     0:01:25.293     368 812 032     34 592         
01824.M2TS      1:23:22.497     0:02:00.954     530 196 480     35 068         
01825.M2TS      1:25:23.451     0:00:28.903     135 426 048     37 483         
01826.M2TS      1:25:52.355     0:17:30.424     4 627 912 704   35 246         
01829.M2TS      1:43:22.779     0:00:40.623     176 775 168     34 812         
01830.M2TS      1:44:03.403     0:13:01.280     3 407 763 456   34 894

Technical Specs
Blu-ray
BD-50 Dual-Layer Disc
Aspect Ratio(s)
2.40:1
Subtitles/Captions
Английский
Арабский
Китайский
Датский
Голландский
Эстонский
Финский
Французский
Немецкий
Итальянский
Японский
Латышский
Литовский
Норвежский
Русский
Испанский
Шведский
Тайский
Турецкий
Украинский
Supplements
Welcome to the Bonus Features with Paul Feig
Mullins Family Fun
Acting Master Class
Let's Get Physical
Police Brutality
Von Bloopers
Supporting Cast Cavalcade
Over and Out
All of the Stuff that We Had to Take Out: Deleted, Alternate and Extended Scenes
How 'The Heat' Was Made
The Commentary Track in Which the Director of 'The Heat' Talks Endlessly About 'The Heat'
The Commentary Track in Which Melissa McCarthy and Other Great People from 'The Heat' Talk About 'The Heat'
The Commentary Track in Which Some of the Mullins Family Discusses 'The Heat'
Attend the June 23, 2013 Premiere of 'The Heat' at the Ziegfeld Theater in the Comfort of Your Own Home
The Commentary Track in Which the Original Line-Up from 'Mystery Science Theater 3000' Comments on 'The Heat'
info [Профиль]  [ЛС] 

post 25-Сен-2015 08:02 (спустя 2 месяца 2 дня) [-]0[+]

Топик был перенесен из форума Зарубежное кино | HD DVD и Blu-ray в форум Зерубежное видео от R.G. TNclub

L
 

post 25-Сен-2015 08:22 (спустя 2 месяца 2 дня) [-]0[+]

Топик был перенесен из форума Зерубежное видео от R.G. TNclub в форум Зарубежное кино | HD DVD и Blu-ray

L
 
Показать сообщения:    
Ответить на тему

Текущее время: 04-Дек 12:16

Часовой пояс: GMT + 4



Вы не можете начинать темы
Вы не можете отвечать на сообщения
Вы не можете редактировать свои сообщения
Вы не можете удалять свои сообщения
Вы не можете голосовать в опросах
Вы не можете прикреплять файлы к сообщениям
Вы не можете скачивать файлы