Ошибка

Discovery: Анатомия секса / Discovery: Anatomy Of Sex (Джонатан Группер) [2005 г., документальный, познавательный, физиология, психология, DVDRip]

Ответить на тему
 
Автор Сообщение

markfiter

Пол: Пол:Муж

Стаж: 4 года 11 месяцев

Сообщений: 2729

Германия
Рейтинг

post 31-Янв-2015 22:54 0[+]

[Цитировать] 

Discovery: Анатомия секса / Discovery: Anatomy Of Sex

Год выпуска: 2005
Страна: США
Жанр: документальный, познавательный, физиология, психология
Продолжительность: 00:49:31
Перевод: Профессиональный (двухголосый)

Режиссер: Джонатан Группер

Описание: Человеческое тело – это особый и очень хрупкий механизм. Его основная задача – продолжение рода. Но почему некоторые люди притягивают друг друга, а некоторые, наоборот, отталкивают? Как происходит естественный отбор? Что переживает человеческое тело на пике удовольствия? Все это вы узнаете из программы «Анатомия секса».

Качество: DVDRip
Формат: AVI
Видео кодек: XviD
Аудио кодек: AC3
Видео: 720x464 (1.55:1), 25 fps, XviD build 50 ~1773 kbps avg, 0.21 bit/pixel
Аудио: 48 kHz, AC3 Dolby Digital, 2/0 (L,R) ch, ~192 kbps
Общее
Формат : AVI
Формат/Информация : Audio Video Interleave
Размер файла : 700 Мбайт
Продолжительность : 49 м.
Общий поток : 1976 Кбит/сек
Программа кодирования : VirtualDubMod 1.5.10.2 (build 2540/release)
Библиотека кодирования : VirtualDubMod build 2540/release

Видео
Идентификатор : 0
Формат : MPEG-4 Visual
Профиль формата : Advanced Simple@L5
Параметр BVOP формата : 2
Параметр QPel формата : Нет
Параметр GMC формата : Без точки перехода
Параметр матрицы формата : Выборочная
Идентификатор кодека : XVID
Идентификатор кодека/Подсказка : XviD
Продолжительность : 49 м.
Битрейт : 1774 Кбит/сек
Ширина : 720 пикселей
Высота : 464 пикселя
Соотношение сторон : 16:10
Частота кадров : 25,000 кадров/сек
Цветовое пространство : YUV
Субдискретизация насыщенности : 4:2:0
Битовая глубина : 8 бит
Тип развёртки : Прогрессивная
Метод сжатия : С потерями
Бит/(Пиксели*Кадры) : 0.212
Размер потока : 628 Мбайт (90%)
Библиотека кодирования : XviD 1.2.1 (UTC 2008-12-04)

Аудио
Идентификатор : 1
Формат : AC-3
Формат/Информация : Audio Coding 3
Расширение режима : CM (complete main)
Параметр Endianness формата : Big
Идентификатор кодека : 2000
Продолжительность : 49 м.
Вид битрейта : Постоянный
Битрейт : 192 Кбит/сек
Каналы : 2 канала
Расположение каналов : Front: L R
Частота : 48,0 КГц
Битовая глубина : 16 бит
Метод сжатия : С потерями
Размер потока : 68,0 Мбайт (10%)
Выравнивание : Разделение по промежуткам
Продолжительность промежутка : 40 мс. (1,00 видеокадр)
Время предзагрузки промежутка : 500 мс.
info [Профиль]  [ЛС] 

paramedik1

Пол: Пол:Муж

Стаж: 7 лет 3 месяца

Сообщений: 33

СССР
Рейтинг

post 01-Фев-2015 00:20 (спустя 1 час 26 минут) [-]5[+]

[Цитировать] 

2 скриншот страшен.

_________________
AVE IMPEROR
info [Профиль]  [ЛС] 

mvl007

Пол: Пол:Муж

Стаж: 3 года 11 месяцев

Сообщений: 25

СССР
Рейтинг

post 01-Фев-2015 06:26 (спустя 6 часов) [-]3[+]

[Цитировать] 

paramedik1 писал(а):

2 скриншот страшен.
И чем же, интересно?
info [Профиль]  [ЛС] 

nv86

Пол: Пол:Муж

Стаж: 7 лет 7 месяцев

Сообщений: 101

СССР
Рейтинг

post 01-Фев-2015 08:31 (спустя 2 часа 4 минуты) [-]10[+]

[Цитировать] 

paramedik1 писал(а):

2 скриншот страшен.
И это говорит парамедик
info [Профиль]  [ЛС] 
Показать сообщения:    
Ответить на тему

Текущее время: 08-Дек 18:30

Часовой пояс: GMT + 4



Вы не можете начинать темы
Вы не можете отвечать на сообщения
Вы не можете редактировать свои сообщения
Вы не можете удалять свои сообщения
Вы не можете голосовать в опросах
Вы не можете прикреплять файлы к сообщениям
Вы не можете скачивать файлы