Ошибка

Спирит: Душа прерий / Spirit: Stallion of the Cimarron (Келли Эсбёри, Лорна Кук) [2002 г., мультфильм, мелодрама, комедия, приключения, семейный, вестерн, BDRip 1080p]

Ответить на тему
 
Автор Сообщение

NovA_JKE

Пол: Пол:Жен

Стаж: 6 лет 9 месяцев

Сообщений: 413

Антарктида
Рейтинг

post 04-Сен-2014 19:47 1[+]

[Цитировать] 

pic="http://savepic.ru/5795258.png"

Спирит: Душа прерий
Spirit: Stallion of the Cimarron

Год выпуска: 2002
Страна: США
Жанр: мультфильм, мелодрама, комедия, приключения, семейный, вестерн
Продолжительность: 01:23:28
Перевод: Профессиональный (полное дублирование) [лицензия]
Режиссер: Келли Эсбёри, Лорна Кук
В ролях: Мэтт Дэймон, Джеймс Кромуэлл, Дэниэл Студи, Чоппер Бернет, Джеф ЛеБо, Джон Рубано, Ричард МакГонагл, Мэтт Левин, Адам Пол, Роберт Кайт
Описание: Дикий, необузданный мустанг Спирит путешествует по бескрайним просторам прерий и переживает множество опасных приключений. Совершая свой полный злоключений путь домой, пролегающий по сказочным просторам американского запада, Спирит встречает друга - индейского воина по имени Ручеек, умудряется перехитрить безжалостный эскадрон солдат и находит свою первую любовь - прекрасную пятнистую кобылицу Грозу.
Дополнительная информация:

Качество: BDRip 1080p
Формат: mkv
Видео: h.264; 8 bit; 1920x820; 23,976 fps; ~6353 kbps
Аудио:
  1. AC3 5.1, 48 kHz, 448 kbps - Русский дублированный | песни на русском
  2. AC3 5.1, 48 kHz, 448 kbps - Русский дублированный | песни на английском
  3. AC3 5.1, 48 kHz, 448 kbps - Русский многоголосый закадровый
  4. AC3 5.1, 48 kHz, 448 kbps - Украинский многоголосый закадровый
  5. AC3 5.1, 48 kHz, 640 kbps - Английский оригинал
  6. AC3 5.1, 48 kHz, 384 kbps - Испанский дублированный
  7. AC3 5.1, 48 kHz, 384 kbps - Шведский дублированный
  8. AC3 5.1, 48 kHz, 384 kbps - Финский дублированный
  9. AC3 5.1, 48 kHz, 384 kbps - Португальский дублированный
  10. AC3 2.0, 48 kHz, 192 kbps - Комментарии (Русский язык)
  11. AC3 2.0, 48 kHz, 192 kbps - Комментарии (Английский язык)
Субтитры:
  1. Русские полные (софт, SRT)
  2. Английские полные (Софт, SRT)

Код:

Общее
Уникальный идентификатор                 : 254030574449296271807375054570224761868 (0xBF1C824E9F466419AEBF28CCE53E3C0C)
Полное имя                               : O:\NovA_JKE\Кино\Spirit.Stallion.of.the.Cimarron.2002.BDRip.1080p.mkv
Формат                                   : Matroska
Версия формата                           : Version 4 / Version 2
Размер файла                             : 6,37 Гбайт
Продолжительность                        : 1 ч. 23 м.
Общий поток                              : 10,9 Мбит/сек
Название фильма                          : Спирит: Душа прерий / Spirit: Stallion of the Cimarron (2002)
Дата кодирования                         : UTC 2014-09-04 13:18:07
Программа кодирования                    : mkvmerge v7.0.0 ('Where We Going') 64bit built on Jun  9 2014 15:16:27
Библиотека кодирования                   : libebml v1.3.0 + libmatroska v1.4.1
_STATISTICS_WRITING_APP                  : mkvmerge v7.0.0 ('Where We Going') 64bit built on Jun  9 2014 15:16:27
_STATISTICS_WRITING_DATE_UTC             : 2014-09-04 13:18:07
_STATISTICS_TAGS                         : BPS DURATION NUMBER_OF_FRAMES NUMBER_OF_BYTES
DURATION                                 : 01:23:28.837000000
NUMBER_OF_FRAMES                         : 120092
NUMBER_OF_BYTES                          : 4111354251

Видео
Идентификатор                            : 1
Формат                                   : AVC
Формат/Информация                        : Advanced Video Codec
Профиль формата                          : High@L4.1
Параметр CABAC формата                   : Да
Параметр ReFrames формата                : 5 кадров
Идентификатор кодека                     : V_MPEG4/ISO/AVC
Продолжительность                        : 1 ч. 23 м.
Битрейт                                  : 6353 Кбит/сек
Ширина                                   : 1920 пикселей
Высота                                   : 820 пикселей
Соотношение сторон                       : 2,35:1
Режим частоты кадров                     : Постоянный
Частота кадров                           : 23,976 кадра/сек
Цветовое пространство                    : YUV
Субдискретизация насыщенности            : 4:2:0
Битовая глубина                          : 8 бит
Тип развёртки                            : Прогрессивная
Бит/(Пиксели*Кадры)                      : 0.168
Размер потока                            : 3,70 Гбайт (58%)
Библиотека кодирования                   : x264 core 142 r2431 ac76440
Настройки программы                      : cabac=1 / ref=5 / deblock=1:2:2 / analyse=0x3:0x133 / me=esa / subme=10 / psy=1 / psy_rd=1.00:0.00 / mixed_ref=1 / me_range=32 / chroma_me=1 / trellis=2 / 8x8dct=1 / cqm=0 / deadzone=21,11 / fast_pskip=0 / chroma_qp_offset=-2 / threads=6 / lookahead_threads=1 / sliced_threads=0 / nr=0 / decimate=1 / interlaced=0 / bluray_compat=0 / constrained_intra=0 / bframes=10 / b_pyramid=2 / b_adapt=2 / b_bias=0 / direct=3 / weightb=1 / open_gop=0 / weightp=2 / keyint=240 / keyint_min=23 / scenecut=40 / intra_refresh=0 / rc_lookahead=60 / rc=crf / mbtree=1 / crf=14.2 / qcomp=0.60 / qpmin=0 / qpmax=69 / qpstep=4 / vbv_maxrate=62500 / vbv_bufsize=78125 / crf_max=0.0 / nal_hrd=none / filler=0 / ip_ratio=1.40 / aq=1:1.00
Default                                  : Да
Forced                                   : Нет

Аудио #1
Идентификатор                            : 2
Формат                                   : AC-3
Формат/Информация                        : Audio Coding 3
Расширение режима                        : CM (complete main)
Параметр Endianness формата              : Big
Идентификатор кодека                     : A_AC3
Продолжительность                        : 1 ч. 23 м.
Вид битрейта                             : Постоянный
Битрейт                                  : 448 Кбит/сек
Каналы                                   : 6 каналов
Расположение каналов                     : Front: L C R, Side: L R, LFE
Частота                                  : 48,0 КГц
Битовая глубина                          : 16 бит
Метод сжатия                             : С потерями
Размер потока                            : 268 Мбайт (4%)
Заголовок                                : Русский дублированый | песни на русском
Язык                                     : Russian
Default                                  : Да
Forced                                   : Нет

Аудио #2
Идентификатор                            : 3
Формат                                   : AC-3
Формат/Информация                        : Audio Coding 3
Расширение режима                        : CM (complete main)
Параметр Endianness формата              : Big
Идентификатор кодека                     : A_AC3
Продолжительность                        : 1 ч. 23 м.
Вид битрейта                             : Постоянный
Битрейт                                  : 448 Кбит/сек
Каналы                                   : 6 каналов
Расположение каналов                     : Front: L C R, Side: L R, LFE
Частота                                  : 48,0 КГц
Битовая глубина                          : 16 бит
Метод сжатия                             : С потерями
Размер потока                            : 268 Мбайт (4%)
Заголовок                                : Русский дублированый | песни на английском
Язык                                     : Russian
Default                                  : Нет
Forced                                   : Нет

Аудио #3
Идентификатор                            : 4
Формат                                   : AC-3
Формат/Информация                        : Audio Coding 3
Расширение режима                        : CM (complete main)
Параметр Endianness формата              : Big
Идентификатор кодека                     : A_AC3
Продолжительность                        : 1 ч. 23 м.
Вид битрейта                             : Постоянный
Битрейт                                  : 448 Кбит/сек
Каналы                                   : 6 каналов
Расположение каналов                     : Front: L C R, Side: L R, LFE
Частота                                  : 48,0 КГц
Битовая глубина                          : 16 бит
Метод сжатия                             : С потерями
Размер потока                            : 268 Мбайт (4%)
Заголовок                                : Русский многоголосый закадровый
Язык                                     : Russian
Default                                  : Нет
Forced                                   : Нет

Аудио #4
Идентификатор                            : 5
Формат                                   : AC-3
Формат/Информация                        : Audio Coding 3
Расширение режима                        : CM (complete main)
Параметр Endianness формата              : Big
Идентификатор кодека                     : A_AC3
Продолжительность                        : 1 ч. 23 м.
Вид битрейта                             : Постоянный
Битрейт                                  : 448 Кбит/сек
Каналы                                   : 6 каналов
Расположение каналов                     : Front: L C R, Side: L R, LFE
Частота                                  : 48,0 КГц
Битовая глубина                          : 16 бит
Метод сжатия                             : С потерями
Размер потока                            : 268 Мбайт (4%)
Заголовок                                : Украинский многоголосый закадровый
Язык                                     : Ukrainian
Default                                  : Нет
Forced                                   : Нет

Аудио #5
Идентификатор                            : 6
Формат                                   : AC-3
Формат/Информация                        : Audio Coding 3
Расширение режима                        : CM (complete main)
Параметр Endianness формата              : Big
Идентификатор кодека                     : A_AC3
Продолжительность                        : 1 ч. 23 м.
Вид битрейта                             : Постоянный
Битрейт                                  : 640 Кбит/сек
Каналы                                   : 6 каналов
Расположение каналов                     : Front: L C R, Side: L R, LFE
Частота                                  : 48,0 КГц
Битовая глубина                          : 16 бит
Метод сжатия                             : С потерями
Размер потока                            : 382 Мбайт (6%)
Заголовок                                : Английский оригинал
Язык                                     : English
Default                                  : Нет
Forced                                   : Нет

Аудио #6
Идентификатор                            : 7
Формат                                   : AC-3
Формат/Информация                        : Audio Coding 3
Расширение режима                        : CM (complete main)
Параметр Endianness формата              : Big
Идентификатор кодека                     : A_AC3
Продолжительность                        : 1 ч. 23 м.
Вид битрейта                             : Постоянный
Битрейт                                  : 384 Кбит/сек
Каналы                                   : 6 каналов
Расположение каналов                     : Front: L C R, Side: L R, LFE
Частота                                  : 48,0 КГц
Битовая глубина                          : 16 бит
Метод сжатия                             : С потерями
Задержка видео                           : 1 с. 800 мс.
Размер потока                            : 229 Мбайт (4%)
Заголовок                                : Испанский дублированый
Язык                                     : Spanish
Default                                  : Нет
Forced                                   : Нет

Аудио #7
Идентификатор                            : 8
Формат                                   : AC-3
Формат/Информация                        : Audio Coding 3
Расширение режима                        : CM (complete main)
Параметр Endianness формата              : Big
Идентификатор кодека                     : A_AC3
Продолжительность                        : 1 ч. 23 м.
Вид битрейта                             : Постоянный
Битрейт                                  : 384 Кбит/сек
Каналы                                   : 6 каналов
Расположение каналов                     : Front: L C R, Side: L R, LFE
Частота                                  : 48,0 КГц
Битовая глубина                          : 16 бит
Метод сжатия                             : С потерями
Задержка видео                           : 1 с. 800 мс.
Размер потока                            : 229 Мбайт (4%)
Заголовок                                : Шведский дублированый
Язык                                     : Swedish
Default                                  : Нет
Forced                                   : Нет

Аудио #8
Идентификатор                            : 9
Формат                                   : AC-3
Формат/Информация                        : Audio Coding 3
Расширение режима                        : CM (complete main)
Параметр Endianness формата              : Big
Идентификатор кодека                     : A_AC3
Продолжительность                        : 1 ч. 23 м.
Вид битрейта                             : Постоянный
Битрейт                                  : 384 Кбит/сек
Каналы                                   : 6 каналов
Расположение каналов                     : Front: L C R, Side: L R, LFE
Частота                                  : 48,0 КГц
Битовая глубина                          : 16 бит
Метод сжатия                             : С потерями
Задержка видео                           : 1 с. 800 мс.
Размер потока                            : 229 Мбайт (4%)
Заголовок                                : Финский дублированый
Язык                                     : Finnish
Default                                  : Нет
Forced                                   : Нет

Аудио #9
Идентификатор                            : 10
Формат                                   : AC-3
Формат/Информация                        : Audio Coding 3
Расширение режима                        : CM (complete main)
Параметр Endianness формата              : Big
Идентификатор кодека                     : A_AC3
Продолжительность                        : 1 ч. 23 м.
Вид битрейта                             : Постоянный
Битрейт                                  : 384 Кбит/сек
Каналы                                   : 6 каналов
Расположение каналов                     : Front: L C R, Side: L R, LFE
Частота                                  : 48,0 КГц
Битовая глубина                          : 16 бит
Метод сжатия                             : С потерями
Задержка видео                           : 1 с. 800 мс.
Размер потока                            : 229 Мбайт (4%)
Заголовок                                : Португальский дублированый
Язык                                     : Portuguese
Default                                  : Нет
Forced                                   : Нет

Аудио #10
Идентификатор                            : 11
Формат                                   : AC-3
Формат/Информация                        : Audio Coding 3
Расширение режима                        : CM (complete main)
Параметр Endianness формата              : Big
Идентификатор кодека                     : A_AC3
Продолжительность                        : 1 ч. 23 м.
Вид битрейта                             : Постоянный
Битрейт                                  : 192 Кбит/сек
Каналы                                   : 2 канала
Расположение каналов                     : Front: L R
Частота                                  : 48,0 КГц
Битовая глубина                          : 16 бит
Метод сжатия                             : С потерями
Размер потока                            : 115 Мбайт (2%)
Заголовок                                : Комментарии (Русский язык)
Язык                                     : Russian
Default                                  : Нет
Forced                                   : Нет

Аудио #11
Идентификатор                            : 12
Формат                                   : AC-3
Формат/Информация                        : Audio Coding 3
Расширение режима                        : CM (complete main)
Параметр Endianness формата              : Big
Идентификатор кодека                     : A_AC3
Продолжительность                        : 1 ч. 23 м.
Вид битрейта                             : Постоянный
Битрейт                                  : 192 Кбит/сек
Каналы                                   : 2 канала
Расположение каналов                     : Front: L R
Частота                                  : 48,0 КГц
Битовая глубина                          : 16 бит
Метод сжатия                             : С потерями
Размер потока                            : 115 Мбайт (2%)
Заголовок                                : Комментарии (Английский язык)
Язык                                     : English
Default                                  : Нет
Forced                                   : Нет

Текст #1
Идентификатор                            : 13
Формат                                   : UTF-8
Идентификатор кодека                     : S_TEXT/UTF8
Идентификатор кодека/Информация          : UTF-8 Plain Text
Заголовок                                : Русские
Язык                                     : Russian
Default                                  : Нет
Forced                                   : Нет

Текст #2
Идентификатор                            : 14
Формат                                   : UTF-8
Идентификатор кодека                     : S_TEXT/UTF8
Идентификатор кодека/Информация          : UTF-8 Plain Text
Заголовок                                : Английские
Язык                                     : English
Default                                  : Нет
Forced                                   : Нет

Меню
00:00:00.000                             : en:Young Spirit
00:07:32.410                             : en:Leader of His Herd
00:11:29.856                             : en:The Journey Begins
00:18:15.011                             : en:Spirit Meets Man
00:20:40.281                             : en:A Strange New Place
00:23:22.359                             : en:You Can't Break Me
00:25:35.492                             : en:This One Seemed Different
00:30:11.184                             : en:The Great Escape
00:35:24.831                             : en:Indian Camp
00:38:47.951                             : en:Rain's World
00:42:06.149                             : en:Torn Two Ways
00:43:52.547                             : en:"Go Home"
00:48:10.638                             : en:The Cavalry Attacks
00:53:29.289                             : en:Remember Who You Are
00:57:18.810                             : en:Master Plan
01:00:49.437                             : en:Breaking Free
01:04:26.863                             : en:Leap of Faith
01:11:14.562                             : en:Farewell My Friend
01:14:07.234                             : en:The Return
01:16:12.109                             : en:End Credits

Смысл дорожек 6-9 - перепевки песен Брайана Адамса

info [Профиль]  [ЛС] 
Показать сообщения:    
Ответить на тему

Текущее время: 11-Дек 02:32

Часовой пояс: GMT + 4



Вы не можете начинать темы
Вы не можете отвечать на сообщения
Вы не можете редактировать свои сообщения
Вы не можете удалять свои сообщения
Вы не можете голосовать в опросах
Вы не можете прикреплять файлы к сообщениям
Вы не можете скачивать файлы