Ошибка

Охотники за сокровищами / The Monuments Men (Джордж Клуни) [2014 г., военный, драма, комедия, BDRemux 1080p]

Ответить на тему
 
Автор Сообщение

Basketballman

Пол: Пол:Муж

Стаж: 7 лет 1 месяц

Сообщений: 280

Россия
Рейтинг

post 30-Май-2014 15:35 3[+]

[Цитировать] 

Охотники за сокровищами / The Monuments Men

Год выпуска: 2014
Страна: США, Германия
Жанр: военный, драма, комедия
Продолжительность: 01:58:23
Перевод: профессиональный (полное дублирование) [лицензия]
Субтитры: русские, английские
Режиссер:
  • Джордж Клуни
В ролях:
  • Джордж Клуни, Мэтт Дэймон, Билл Мюррэй, Джон Гудмен, Жан Дюжарден, Боб Бэлабан, Хью Бонневилль, Кейт Бланшетт, Димитрий Леонидас, Юстус фон Донаньи

Описание: Фильм основан на реальных событиях — величайшей охоте на сокровища в истории. Во время Второй мировой войны команда из искусствоведов и хранителей музеев объединяется, чтобы спасти известные произведения искусства, похищенные нацистами, прежде чем те успеют их уничтожить.


Качество: BDRemux 1080p
Формат: MKV
Видео кодек: MPEG-4
Аудио кодек: AC3, DTS, DTS-HD
Видео: 1920x1080, 23.976 fps, 24.3 Mбит/с
Аудио 1: Russian: AC3, 6 ch, 448 Kbps
Аудио 2: Russian: DTS, 6 ch, 768 Kbps
Аудио 3: English: DTS-HD MA, 6 ch, 2913 Kbps
Субтитры: SRT

Sample
General
Unique ID : 231303062876669609978828614043225916164 (0xAE035978FB030B26940D728A3A098304)
Complete name : D:\Кино\The Monuments Men BDRemux.mkv
Format : Matroska
Format version : Version 2
File size : 24.0 GiB
Duration : 1h 58mn
Overall bit rate mode : Variable
Overall bit rate : 29.0 Mbps
Movie name : Охотники за сокровищами.2014.Сборкa: ollan
Encoded date : UTC 2014-05-29 21:42:56
Writing application : mkvmerge v5.6.0 ('Kenya Kane') built on May 27 2012 16:44:04
Writing library : libebml v1.2.3 + libmatroska v1.3.0

Video
ID : 1
Format : AVC
Format/Info : Advanced Video Codec
Format profile : High@L4.1
Format settings, CABAC : Yes
Format settings, ReFrames : 2 frames
Codec ID : V_MPEG4/ISO/AVC
Duration : 1h 58mn
Bit rate mode : Variable
Width : 1 920 pixels
Height : 1 080 pixels
Display aspect ratio : 16:9
Frame rate mode : Constant
Frame rate : 23.976 fps
Color space : YUV
Chroma subsampling : 4:2:0
Bit depth : 8 bits
Scan type : Progressive
Default : Yes
Forced : No

Audio #1
ID : 2
Format : AC-3
Format/Info : Audio Coding 3
Mode extension : CM (complete main)
Format settings, Endianness : Big
Codec ID : A_AC3
Duration : 1h 58mn
Bit rate mode : Constant
Bit rate : 448 Kbps
Channel count : 6 channels
Channel positions : Front: L C R, Side: L R, LFE
Sampling rate : 48.0 KHz
Bit depth : 16 bits
Compression mode : Lossy
Stream size : 379 MiB (2%)
Title : Дублированный (Лицензия)
Language : Russian
Default : Yes
Forced : No

Audio #2
ID : 3
Format : DTS
Format/Info : Digital Theater Systems
Mode : 16
Format settings, Endianness : Big
Codec ID : A_DTS
Duration : 1h 58mn
Bit rate mode : Constant
Bit rate : 768 Kbps
Channel count : 6 channels
Channel positions : Front: L C R, Side: L R, LFE
Sampling rate : 48.0 KHz
Bit depth : 24 bits
Compression mode : Lossy
Stream size : 650 MiB (3%)
Title : Дублированный (Лицензия)
Language : Russian
Default : No
Forced : No

Audio #3
ID : 4
Format : DTS
Format/Info : Digital Theater Systems
Format profile : MA / Core
Mode : 16
Format settings, Endianness : Big
Codec ID : A_DTS
Duration : 1h 58mn
Bit rate mode : Variable
Bit rate : Unknown / 1 509 Kbps
Channel count : 6 channels
Channel positions : Front: L C R, Side: L R, LFE
Sampling rate : 48.0 KHz
Bit depth : 24 bits
Compression mode : Lossless / Lossy
Language : English
Default : No
Forced : No

Text #1
ID : 5
Format : UTF-8
Codec ID : S_TEXT/UTF8
Codec ID/Info : UTF-8 Plain Text
Language : Russian
Default : No
Forced : No

Text #2
ID : 6
Format : UTF-8
Codec ID : S_TEXT/UTF8
Codec ID/Info : UTF-8 Plain Text
Title : Forced
Language : English
Default : No
Forced : No

Text #3
ID : 7
Format : UTF-8
Codec ID : S_TEXT/UTF8
Codec ID/Info : UTF-8 Plain Text
Title : Full
Language : English
Default : No
Forced : No

Text #4
ID : 8
Format : UTF-8
Codec ID : S_TEXT/UTF8
Codec ID/Info : UTF-8 Plain Text
Title : SDH
Language : English
Default : No
Forced : No

Menu
00:00:00.000 : en:
00:04:41.572 : en:
00:16:01.961 : en:
00:20:13.962 : en:
00:23:37.457 : en:
00:27:12.839 : en:
00:31:36.811 : en:
00:40:37.977 : en:
00:50:40.579 : en:
00:53:31.374 : en:
00:59:36.447 : en:
01:00:52.815 : en:
01:17:06.913 : en:
01:21:50.530 : en:
01:33:08.332 : en:
01:46:26.671 : en:
info [Профиль]  [ЛС] 

Kofa

Пол: Пол:Муж

Стаж: 5 лет 4 месяца

Сообщений: 23

Россия
Рейтинг

post 03-Июн-2014 14:19 (спустя 3 дня) [-]0[+]

[Цитировать] 

Более тупого, унылого, скучного и отвратительного фильма с такой кучей известных и хороших актёров я не видел. Буквально заставлял себя досмотреть до конца, не веря, что такое может быть. Однако - может. Зачем нанимать столько звёзд, если денег на нормальный сценарий нет?
info [Профиль]  [ЛС] 

post 14-Сен-2014 10:36 (спустя 3 месяца 10 дней) [-]0[+]

Топик был перенесен из форума Новинки 2013-2014 (DVD, HD DVD, Blu-ray, HD Rips, Web-DL) в форум Зарубежное кино | HD DVD и Blu-ray

L
 
Показать сообщения:    
Ответить на тему

Текущее время: 06-Дек 00:43

Часовой пояс: GMT + 4



Вы не можете начинать темы
Вы не можете отвечать на сообщения
Вы не можете редактировать свои сообщения
Вы не можете удалять свои сообщения
Вы не можете голосовать в опросах
Вы не можете прикреплять файлы к сообщениям
Вы не можете скачивать файлы