Ошибка

"Своя колея". К дню рождения Владимира Высоцкого [2014 г., концерт, авторская песня, SATRip]

Ответить на тему
 
Автор Сообщение

Alex Ander

Пол: Пол:Муж

Стаж: 7 лет 5 месяцев

Сообщений: 2379

СССР
Рейтинг

post 08-Фев-2014 11:05 1[+]

[Цитировать] 

"Своя колея". К дню рождения Владимира Высоцкого

Год выпуска: 2014
Страна: Россия
Жанр: концерт, авторская песня
Продолжительность: 01:39:57

Описание:
    Ежегодно, в канун дня рождения Владимира Высоцкого, Фонд Высоцкого вручает премию его имени. Премия "Своя Колея" была учреждена в 1997 году Благотворительным Фондом Владимира Высоцкого, Министерством Культуры РФ и Комитетом по культуре г. Москвы. Идея премии принадлежит сыну поэта Никите. Премия вручается людям, которые не изменяют своим убеждениям, кому сегодня, возможно, захотел бы посвятить песню В. Высоцкий; людям, чья жизнь и творчество созвучны темам его поэзии. Лауреатам вручается почетный знак, номерная золотая медаль, на одной стороне которого высечен профиль Высоцкого, нарисованный им самим, с его автографом.


Качество: SATRip
Формат: AVI
Видео кодек: DivX
Аудио кодек: MP3
Видео: 720x400 (1.80:1), 25 fps, DivX Codec 5.x or 6.x, 1799 kbps avg, 0.25 bit/pixel
Аудио: 48 kHz, 2 ch, 128.00 kbps avg
General
Complete name : ... \Своя колея 2014. К дню рождения Владимира Высоцкого.avi
Format : AVI
Format/Info : Audio Video Interleave
File size : 1.35 GiB
Duration : 1h 39mn
Overall bit rate : 1 937 Kbps
Writing library : VirtualDub build 35491/release

Video
ID : 0
Format : MPEG-4 Visual
Format settings, BVOP : 1
Format settings, QPel : No
Format settings, GMC : No warppoints
Format settings, Matrix : Default (H.263)
Muxing mode : Packed bitstream
Codec ID : DX50
Codec ID/Hint : DivX 5
Duration : 1h 39mn
Bit rate : 1 800 Kbps
Width : 720 pixels
Height : 400 pixels
Display aspect ratio : 16:9
Frame rate : 25.000 fps
Color space : YUV
Chroma subsampling : 4:2:0
Bit depth : 8 bits
Scan type : Progressive
Compression mode : Lossy
Bits/(Pixel*Frame) : 0.250
Stream size : 1.26 GiB (93%)
Writing library : DivX 6.8.5 (UTC 2009-08-20)

Audio
ID : 1
Format : MPEG Audio
Format version : Version 1
Format profile : Layer 3
Mode : Joint stereo
Codec ID : 55
Codec ID/Hint : MP3
Duration : 1h 39mn
Bit rate mode : Constant
Bit rate : 128 Kbps
Channel(s) : 2 channels
Sampling rate : 48.0 KHz
Compression mode : Lossy
Stream size : 91.5 MiB (7%)
Alignment : Split accross interleaves
Interleave, duration : 40 ms (1.00 video frame)
Interleave, preload duration : 500 ms
info [Профиль]  [ЛС] 
Показать сообщения:    
Ответить на тему

Текущее время: 09-Дек 09:50

Часовой пояс: GMT + 4



Вы не можете начинать темы
Вы не можете отвечать на сообщения
Вы не можете редактировать свои сообщения
Вы не можете удалять свои сообщения
Вы не можете голосовать в опросах
Вы не можете прикреплять файлы к сообщениям
Вы не можете скачивать файлы