Ошибка

Астрал: Глава 2 / Insidious: Chapter 2 (Джеймс Ван) [2013 г., ужасы, триллер, BDRemux 1080p]

Ответить на тему
 
Автор Сообщение

Basketballman

Пол: Пол:Муж

Стаж: 7 лет 1 месяц

Сообщений: 280

Россия
Рейтинг

post 16-Янв-2014 15:20 1[+]

[Цитировать] 

Астрал: Глава 2 / Insidious: Chapter 2

Год выпуска: 2013
Страна: США
Жанр: ужасы, триллер
Продолжительность: 01:45:52
Перевод: профессиональный (полное дублирование) [лицензия]
Субтитры: английские
Режиссер:
  • Джеймс Ван
В ролях:
  • Патрик Уилсон, Роуз Бирн, Лин Шэй, Тай Симпкинс, Барбара Хёрши, Стив Култер, Ли Уоннелл, Энгус Сэмпсон, Эндрю Эстор, Хэнк Харри

Описание: Семья Ламберт стремится раскрыть тайну, из-за которой они оказались в опасной связи с миром духов…


Качество: BDRemux 1080p
Формат: MKV
Видео кодек: MPEG-4
Аудио кодек: AC3, DTS-HD
Видео: 1920x1080, 23.976 fps, 25.2 Mбит/с
Аудио 1: Russian: AC3, 6 ch, 448 Kbps
Аудио 2: Russian: AC3, 6 ch, 640 Kbps (любительский, одноголосый)
Аудио 3: English: DTS-HD MA, 6 ch, 2139 Kbps
Субтитры: SRT

Sample
General
Unique ID : 237650648342233153483522487488409188714 (0xB2C9D9993DE897409B73479C9283396A)
Complete name : D:\Кино\Insidious Chapter 2 BDRemux.mkv
Format : Matroska
Format version : Version 2
File size : 21.2 GiB
Duration : 1h 45mn
Overall bit rate mode : Variable
Overall bit rate : 28.7 Mbps
Movie name : Астрал: Глава 2.2013.Сборка: ollan
Encoded date : UTC 2014-01-14 22:49:39
Writing application : mkvmerge v5.6.0 ('Kenya Kane') built on May 27 2012 16:44:04
Writing library : libebml v1.2.3 + libmatroska v1.3.0

Video
ID : 1
Format : AVC
Format/Info : Advanced Video Codec
Format profile : High@L4.1
Format settings, CABAC : Yes
Format settings, ReFrames : 2 frames
Codec ID : V_MPEG4/ISO/AVC
Duration : 1h 45mn
Bit rate mode : Variable
Width : 1 920 pixels
Height : 1 080 pixels
Display aspect ratio : 16:9
Frame rate mode : Constant
Frame rate : 23.976 fps
Color space : YUV
Chroma subsampling : 4:2:0
Bit depth : 8 bits
Scan type : Progressive
Language : English
Default : Yes
Forced : No

Audio #1
ID : 2
Format : AC-3
Format/Info : Audio Coding 3
Mode extension : CM (complete main)
Format settings, Endianness : Big
Codec ID : A_AC3
Duration : 1h 45mn
Bit rate mode : Constant
Bit rate : 640 Kbps
Channel count : 6 channels
Channel positions : Front: L C R, Side: L R, LFE
Sampling rate : 48.0 KHz
Bit depth : 16 bits
Compression mode : Lossy
Stream size : 485 MiB (2%)
Title : Дублированный (Лицензия)
Language : Russian
Default : Yes
Forced : Yes

Audio #2
ID : 3
Format : AC-3
Format/Info : Audio Coding 3
Mode extension : CM (complete main)
Format settings, Endianness : Big
Codec ID : A_AC3
Duration : 1h 45mn
Bit rate mode : Constant
Bit rate : 640 Kbps
Channel count : 6 channels
Channel positions : Front: L C R, Side: L R, LFE
Sampling rate : 48.0 KHz
Bit depth : 16 bits
Compression mode : Lossy
Stream size : 485 MiB (2%)
Title : Любительский одноголосный (VANO)
Language : Russian
Default : No
Forced : No

Audio #3
ID : 4
Format : DTS
Format/Info : Digital Theater Systems
Format profile : MA / Core
Mode : 16
Format settings, Endianness : Big
Codec ID : A_DTS
Duration : 1h 45mn
Bit rate mode : Variable
Bit rate : Unknown / 1 509 Kbps
Channel count : 6 channels
Channel positions : Front: L C R, Side: L R, LFE
Sampling rate : 48.0 KHz
Bit depth : 16 bits
Compression mode : Lossless / Lossy
Language : English
Default : No
Forced : No

Text #1
ID : 5
Format : UTF-8
Codec ID : S_TEXT/UTF8
Codec ID/Info : UTF-8 Plain Text
Language : Russian
Default : No
Forced : No

Text #2
ID : 6
Format : UTF-8
Codec ID : S_TEXT/UTF8
Codec ID/Info : UTF-8 Plain Text
Language : English
Default : No
Forced : No

Menu
00:00:00.000 : en:00:00:00.000
00:12:45.890 : en:00:12:45.890
00:22:22.967 : en:00:22:22.967
00:26:03.228 : en:00:26:03.228
00:30:09.224 : en:00:30:09.224
00:37:31.583 : en:00:37:31.583
00:42:46.314 : en:00:42:46.314
00:48:49.468 : en:00:48:49.468
00:56:11.702 : en:00:56:11.702
00:59:41.661 : en:00:59:41.661
01:05:57.579 : en:01:05:57.579
01:14:33.344 : en:01:14:33.344
01:21:37.351 : en:01:21:37.351
01:27:31.413 : en:01:27:31.413
01:33:33.858 : en:01:33:33.858
01:38:59.433 : en:01:38:59.433
info [Профиль]  [ЛС] 

Ян

Пол: Пол:Муж

Стаж: 5 лет 2 месяца

Сообщений: 330

Россия
Рейтинг

post 16-Янв-2014 20:30 (спустя 5 часов) [-]0[+]

[Цитировать] 

Посмотрим как вышла вторая часть)) мне первая понравилась

_________________
info [Профиль]  [ЛС] 

SimCat

Стаж: 6 лет 8 месяцев

Сообщений: 23

Россия
Рейтинг

post 16-Янв-2014 21:09 (спустя 38 минут) [-]0[+]

[Цитировать] 

Ян писал(а):

Посмотрим как вышла вторая часть)) мне первая понравилась
и как фильм?
info [Профиль]  [ЛС] 
Показать сообщения:    
Ответить на тему

Текущее время: 06-Дек 20:06

Часовой пояс: GMT + 4



Вы не можете начинать темы
Вы не можете отвечать на сообщения
Вы не можете редактировать свои сообщения
Вы не можете удалять свои сообщения
Вы не можете голосовать в опросах
Вы не можете прикреплять файлы к сообщениям
Вы не можете скачивать файлы