Ошибка

Курьер из «Рая» (Михаил Хлебородов) [2013, комедия, приключения, WEB-DLRip]

Ответить на тему
 
Автор Сообщение

Linuxoid

Пол: Пол:Муж

Стаж: 6 лет

Сообщений: 284

Украина
Рейтинг

post 31-Дек-2013 19:41 0[+]

[Цитировать] 

Курьер из «Рая»
«Рай есть!»

Год выпуска: 2013
Страна: Россия
Жанр: комедия, приключения
Продолжительность: 01:32:28
Перевод: Оригинал
Режиссер: Михаил Хлебородов
Сценарий: Андрей Кивинов
Продюсер: Анатолий Максимов, Николай Попов, Александр Сыров, ...
Оператор: Сергей Козлов
Композитор: Руслан Муратов
Художник: Сергей Агин
Монтаж: Илья Лебедев
В ролях: Евгений Ткачук (Артем), Елизавета Боярская (Вероника), Гоша Куценко (Егор Глазунов), Дмитрий Дюжев (Вадим Горохов), Игорь Скляр (Орехов), Дмитрий Нагиев (Орловский)
Описание: Егор Глазунов работает в криминальной полиции столицы и обладает удивительным даром — «врать с листа». Это умение очень выручает его в далёком маленьком городе, которых на карте России великое множество. Сюда Глазунов отправляется помочь другу детства Артёму — обычному курьеру с необычными принципами, у которого угнали доставшийся ему по странному стечению обстоятельств «Мерседес». Все следы ведут к местному авторитету, подобраться к которому невозможно. Последний шанс — прийти с «проверкой» из «следственного комитета». Сюжет гоголевского «Ревизора» превращается в историю новой России.
Сборы в России: $5 488 197 сборы
Зрители: Россия 833.6 тыс. , Украина 33 тыс.
Премьера (мир): 27 ноября 2013, ...
Премьера (РФ): 28 ноября 2013, «WDSSPR»



Качество: WEB-DLRip
Формат: MPEG-4
Видео кодек: AVC
Аудио кодеk: AAC LC
Видео: 480x208 (2.35:1), 29.970 fps, AVC, 640 Kbps
Аудио: Аудио #1: AAC LC, 128 Kbps, 48.0 KHz, 2 ch

Код:

General
Complete name                    : Kuryer.iz.Raja.2013.mp4
Format                           : MPEG-4
Format profile                   : Base Media
Codec ID                         : isom
File size                        : 513 MiB
Duration                         : 1h 32mn
Overall bit rate                 : 776 Kbps
Writing application              : Lavf54.63.104

Video
ID                               : 1
Format                           : AVC
Format/Info                      : Advanced Video Codec
Format profile                   : Baseline@L2.0
Format settings, CABAC           : No
Format settings, ReFrames        : 1 frame
Codec ID                         : avc1
Codec ID/Info                    : Advanced Video Coding
Duration                         : 1h 32mn
Bit rate mode                    : Variable
Bit rate                         : 640 Kbps
Width                            : 480 pixels
Height                           : 208 pixels
Display aspect ratio             : 2.35:1
Frame rate mode                  : Constant
Frame rate                       : 29.970 fps
Color space                      : YUV
Chroma subsampling               : 4:2:0
Bit depth                        : 8 bits
Scan type                        : Progressive
Bits/(Pixel*Frame)               : 0.214
Stream size                      : 424 MiB (83%)
Writing library                  : x264 core 129
Encoding settings                : cabac=0 / ref=1 / deblock=1:0:0 / analyse=0x1:0x111 / me=hex / subme=6 / psy=1 / psy_rd=1.00:0.00 / mixed_ref=0 / me_range=16 / chroma_me=1 / trellis=0 / 8x8dct=0 / cqm=0 / deadzone=21,11 / fast_pskip=1 / chroma_qp_offset=-2 / threads=4 / lookahead_threads=1 / sliced_threads=0 / nr=0 / decimate=1 / interlaced=0 / bluray_compat=0 / constrained_intra=0 / bframes=0 / weightp=0 / keyint=250 / keyint_min=25 / scenecut=40 / intra_refresh=0 / rc_lookahead=40 / rc=abr / mbtree=1 / bitrate=640 / ratetol=1.0 / qcomp=0.60 / qpmin=10 / qpmax=51 / qpstep=4 / ip_ratio=1.41 / aq=1:1.00

Audio
ID                               : 2
Format                           : AAC
Format/Info                      : Advanced Audio Codec
Format version                   : Version 4
Format profile                   : LC
Format settings, SBR             : No
Codec ID                         : 40
Duration                         : 1h 32mn
Bit rate mode                    : Constant
Bit rate                         : 128 Kbps
Channel(s)                       : 2 channels
Channel positions                : Front: L R
Sampling rate                    : 48.0 KHz
Stream size                      : 84.6 MiB (16%)
info [Профиль]  [ЛС] 

Alersandr77

Пол: Пол:Муж

Стаж: 2 года 9 месяцев

Сообщений: 23

Предупреждений: 1

СССР
Рейтинг

post 24-Мар-2014 19:09 (спустя 2 месяца 23 дня) [-]0[+]

[Цитировать] 

Вот скачано 24 раза , а о фильме не кто так и не оставил не одного комента , эт не есть хорошо . Вот возьму и скачаю и отпишусь по полной , и пусть вам будет стыдно .

_________________
info [Профиль]  [ЛС] 

Alersandr77

Пол: Пол:Муж

Стаж: 2 года 9 месяцев

Сообщений: 23

Предупреждений: 1

СССР
Рейтинг

post 26-Мар-2014 06:39 (спустя 1 день 11 часов) [-]0[+]

[Цитировать] 

Хороший такой, позитивный фильм. поднимает извечный русский вопрос: кто виноват и что делать? 4 из 5 поставлю

_________________
info [Профиль]  [ЛС] 
Показать сообщения:    
Ответить на тему

Текущее время: 11-Дек 14:06

Часовой пояс: GMT + 4



Вы не можете начинать темы
Вы не можете отвечать на сообщения
Вы не можете редактировать свои сообщения
Вы не можете удалять свои сообщения
Вы не можете голосовать в опросах
Вы не можете прикреплять файлы к сообщениям
Вы не можете скачивать файлы