Ошибка

Тёмный мир: Равновесие (Олег Асадулин) [2013, фэнтези, приключения, WEBRip]

Ответить на тему
 
Автор Сообщение

Linuxoid

Пол: Пол:Муж

Стаж: 6 лет

Сообщений: 284

Украина
Рейтинг

post 31-Дек-2013 03:37 0[+]

[Цитировать] 

Тёмный мир: Равновесие
«Скоро твой мир изменится»

Год выпуска: 2013
Страна: Россия
Жанр: фэнтези, приключения
Продолжительность: 01:35:01
Перевод: Оригинал

Режиссер: Олег Асадулин
Сценарий: Марина Дяченко, Сергей Дяченко
Продюсер: Наталия Клибанова
Оператор: Максим Шинкоренко
Композитор: -
Художник: Денис Куприн, Юлия Феофанова

В ролях: Мария Пирогова, Павел Прилучный, Макар Запорожский, Евгения Брик, Александр Ратников, Владислав Абашин, Петр Семак, Алиса Хазано


Описание: Каждый день они крадут твои силы, твои эмоции, твою любовь. Мы называем их Тени. Работа таких, как мы — доставлять их обратно в Тёмный мир. Надвигается катастрофа, и человечество может оказаться во власти тьмы…И только мы можем сохранить равновесие.
Сборы в России: $2 118 871 сборы
Зрители: Россия 339.8 тыс. , Украина 16.5 тыс.
Премьера (мир): 5 декабря 2013, ...
Премьера (РФ): 5 декабря 2013, «Централ Партнершип»



Качество: WEBRip
Формат: MPEG-4
Видео кодек: AVC
Аудио кодеk: AAC LC
Видео: 480x272 (16:9), 29.970 fps, AVC, 512 Kbps
Аудио: Аудио #1: AAC LC, 128 Kbps, 44.1 KHz, 2 ch

Код:

General
Complete name                    : Temnuy.Mir.Ravnovesie.2013.O.WEBRip..mp4
Format                           : MPEG-4
Format profile                   : Sony PSP
Codec ID                         : MSNV
File size                        : 437 MiB
Duration                         : 1h 35mn
Overall bit rate                 : 642 Kbps

Video
ID                               : 1
Format                           : AVC
Format/Info                      : Advanced Video Codec
Format profile                   : Main@L2.1
Format settings, CABAC           : Yes
Format settings, ReFrames        : 2 frames
Codec ID                         : avc1
Codec ID/Info                    : Advanced Video Coding
Duration                         : 1h 35mn
Bit rate mode                    : Variable
Bit rate                         : 512 Kbps
Width                            : 480 pixels
Height                           : 272 pixels
Display aspect ratio             : 16:9
Frame rate mode                  : Constant
Frame rate                       : 29.970 fps
Color space                      : YUV
Chroma subsampling               : 4:2:0
Bit depth                        : 8 bits
Scan type                        : Progressive
Bits/(Pixel*Frame)               : 0.131
Stream size                      : 346 MiB (79%)
Writing library                  : x264 core 77
Encoding settings                : cabac=1 / ref=2 / deblock=0:0:0 / analyse=0x1:0 / me=dia / subme=8 / psy=1 / psy_rd=1.0:0.0 / mixed_ref=0 / me_range=16 / chroma_me=0 / trellis=0 / 8x8dct=0 / cqm=0 / deadzone=21,11 / chroma_qp_offset=-2 / threads=7 / nr=0 / decimate=1 / mbaff=0 / constrained_intra=0 / bframes=0 / keyint=12 / keyint_min=7 / scenecut=0 / rc_lookahead=12 / rc=abr / mbtree=1 / bitrate=512 / ratetol=1.0 / qcomp=0.60 / qpmin=10 / qpmax=51 / qpstep=4 / ip_ratio=1.41 / aq=1:1.00

Audio
ID                               : 2
Format                           : AAC
Format/Info                      : Advanced Audio Codec
Format version                   : Version 4
Format profile                   : LC
Format settings, SBR             : No
Codec ID                         : 40
Duration                         : 1h 35mn
Bit rate mode                    : Variable
Bit rate                         : 128 Kbps
Channel(s)                       : 2 channels
Channel positions                : Front: L R
Sampling rate                    : 44.1 KHz
Stream size                      : 87.0 MiB (20%)
info [Профиль]  [ЛС] 

RINGARD

Стаж: 6 лет 10 месяцев

Сообщений: 84

Рейтинг

post 31-Дек-2013 15:54 (спустя 12 часов) [-]0[+]

[Цитировать] 

Сид ты где? Я желаю выкинуть полтора часа своей жизни *trollface.jpg*
info [Профиль]  [ЛС] 
Показать сообщения:    
Ответить на тему

Текущее время: 09-Дек 13:48

Часовой пояс: GMT + 4



Вы не можете начинать темы
Вы не можете отвечать на сообщения
Вы не можете редактировать свои сообщения
Вы не можете удалять свои сообщения
Вы не можете голосовать в опросах
Вы не можете прикреплять файлы к сообщениям
Вы не можете скачивать файлы