Ошибка

Тихоокеанский рубеж | Pacific Rim (Гильермо дель Торо) [2013 г., фантастика, боевик, приключения, BDRemux, 1080p]

Ответить на тему
 
Автор Сообщение

Russian Man

Пол: Пол:Муж

Стаж: 4 года 4 месяца

Сообщений: 166

Россия
Рейтинг

post 29-Окт-2013 14:20 4[+]

[Цитировать] 

Тихоокеанский рубеж | Pacific Rim
«Чтобы сражаться с монстрами, мы создали монстров»

Год выпуска: 2013
Страна: США
Жанр: фантастика, боевик, приключения
Продолжительность: 02:11:16
Перевод:
Дублированный / iTunes Russia
Одноголосый, закадровый / Ю. Сербин
Оригинал
Субтитры: Russian (Forced, iTunes), Russian (iTunes), Ukrainian (Forced, iTunes), Ukrainian (iTunes), English
Режиссер: Гильермо дель Торо
В ролях: Чарли Ханнэм, Идрис Эльба, Ринко Кикути, Роберт Казински, Макс Мартини, Чарли Дэй, Берн Горман, Клифтон Коллинз мл., Рон Перлман, Диего Клаттенхофф
Описание:
Когда из морских глубин поднялись легионы чудовищ, известных как Кайдзу, началась война, которой суждено было забрать миллионы жизней и свести «человеческие ресурсы» почти к нулю всего за несколько лет. Чтобы сражаться с пришельцами, было создано специальное оружие: огромные роботы, названные Джегерами, они управлялись одновременно двумя пилотами, чьи сознания соединены с помощью нейронной связи. Но даже Джегеры оказываются почти бессильны перед лицом безжалостных Кайдзу. На грани поражения у защитников человечества нет выбора, кроме как обратиться к двум весьма сомнительным героям — никому не нужному бывшему пилоту и неопытному стажеру — которые объединились, чтобы повести в бой некогда легендарного, но сейчас устаревшего Джегера. Вместе они оказываются единственной надеждой человечества, последним препятствием перед надвигающимся апокалипсисом.
Релиз группы:
Семпл
Качество: BDRemux
HD стандарт: 1080p
Формат: BDMV
Видео кодек: AVC
Аудио кодек: AC3 / DTS-HD MA
Видео: 1920x1080 at 23.976 fps, MPEG-4 AVC, ~23902 kbps avg
Аудио:
48 kHz, AC3, 3/2 (L,C,R,l,r) + LFE ch, ~384.00 kbps avg |Дубляж, iTunes Russia|
48 kHz, AC3, 2/0 (L,R) ch, ~192.00 kbps avg |Дубляж, iTunes Russia|
48 kHz/24-bit, DTS-HD MA 7.1, ~5494.00 kbps avg |Одноголосый закадровый, Ю.Сербин|
48 kHz/24-bit, DTS-HD MA 7.1, ~5461.00 kbps avg
48 kHz, AC3, 2/0 (L,R) ch, ~192.00 kbps avg |Commentary with Director Guillermo del Toro|

General
Complete name : D:\Торрент\PACIFIC_RIM_2013_REMUX_HDCLUB\BDMV\PLAYLIST\00000.mpls
Format : Blu-ray Playlist
File size : 604 Bytes
Duration : 2h 11mn
Overall bit rate mode : Variable
Overall bit rate : 1 bps

Video
ID : 4113 (0x1011)
Menu ID : 1 (0x1)
Format : AVC
Format/Info : Advanced Video Codec
Format profile : High@L4.1
Format settings, CABAC : Yes
Format settings, ReFrames : 2 frames
Format settings, GOP : M=1, N=10
Codec ID : 27
Duration : 2h 11mn
Bit rate mode : Variable
Width : 1 920 pixels
Height : 1 080 pixels
Display aspect ratio : 16:9
Frame rate : 23.976 fps
Color space : YUV
Chroma subsampling : 4:2:0
Bit depth : 8 bits
Scan type : Progressive
format_identifier : HDMV
Source : 00000.m2ts

Audio #1
ID : 4352 (0x1100)
Menu ID : 1 (0x1)
Format : AC-3
Format/Info : Audio Coding 3
Mode extension : CM (complete main)
Format settings, Endianness : Big
Codec ID : 129
Duration : 2h 11mn
Bit rate mode : Constant
Bit rate : 384 Kbps
Channel count : 6 channels
Channel positions : Front: L C R, Side: L R, LFE
Sampling rate : 48.0 KHz
Bit depth : 16 bits
Compression mode : Lossy
Stream size : 360 MiB (1%)
Language : Russian
bsid : 8
dialnorm : -31
dialnorm/String : -31 dB
acmod : 7
lfeon : 1
dialnorm_Average : -27
dialnorm_Average/String : -27 dB
dialnorm_Minimum : -31
dialnorm_Minimum/String : -31 dB
dialnorm_Maximum : -27
dialnorm_Maximum/String : -27 dB
dialnorm_Count : 112
compr_Average : 5.83
compr_Average/String : 5.83 dB
compr_Minimum : 5.74
compr_Minimum/String : 5.74 dB
compr_Maximum : 6.02
compr_Maximum/String : 6.02 dB
compr_Count : 110
dynrng_Average : 5.78
dynrng_Average/String : 5.78 dB
dynrng_Minimum : 0.00
dynrng_Minimum/String : 0.00 dB
dynrng_Maximum : 5.88
dynrng_Maximum/String : 5.88 dB
dynrng_Count : 112
format_identifier : AC-3
Source : 00000.m2ts

Audio #2
ID : 4353 (0x1101)
Menu ID : 1 (0x1)
Format : AC-3
Format/Info : Audio Coding 3
Mode extension : CM (complete main)
Format settings, Endianness : Big
Codec ID : 129
Duration : 2h 11mn
Bit rate mode : Constant
Bit rate : 192 Kbps
Channel count : 2 channels
Channel positions : Front: L R
Sampling rate : 48.0 KHz
Bit depth : 16 bits
Compression mode : Lossy
Stream size : 180 MiB (1%)
Language : Ukrainian
bsid : 8
dialnorm : -27
dialnorm/String : -27 dB
compr : -0.28
compr/String : -0.28 dB
dynrng : -4.30
dynrng/String : -4.30 dB
dsurmod : 0
acmod : 2
lfeon : 0
dialnorm_Average : -27
dialnorm_Average/String : -27 dB
dialnorm_Minimum : -27
dialnorm_Minimum/String : -27 dB
dialnorm_Maximum : -27
dialnorm_Maximum/String : -27 dB
dialnorm_Count : 207
compr_Average : 5.77
compr_Average/String : 5.77 dB
compr_Minimum : -0.28
compr_Minimum/String : -0.28 dB
compr_Maximum : 6.02
compr_Maximum/String : 6.02 dB
compr_Count : 207
dynrng_Average : 8.15
dynrng_Average/String : 8.15 dB
dynrng_Minimum : -20.56
dynrng_Minimum/String : -20.56 dB
dynrng_Maximum : 21.58
dynrng_Maximum/String : 21.58 dB
dynrng_Count : 207
format_identifier : AC-3
Source : 00000.m2ts

Audio #3
ID : 4354 (0x1102)
Menu ID : 1 (0x1)
Format : DTS
Format/Info : Digital Theater Systems
Format profile : MA / Core
Mode : 16
Format settings, Endianness : Big
Muxing mode : Stream extension
Codec ID : 134
Duration : 2h 11mn
Bit rate mode : Variable
Bit rate : Unknown / 1 509 Kbps
Channel count : 8 channels / 6 channels
Channel positions : Front: L C R, Side: L R, Back: L R, LFE / Front: L C R, Side: L R, LFE
Sampling rate : 48.0 KHz
Bit depth : 24 bits
Compression mode : Lossless / Lossy
Language : Russian
Source : 00000.m2ts

Audio #4
ID : 4355 (0x1103)
Menu ID : 1 (0x1)
Format : DTS
Format/Info : Digital Theater Systems
Format profile : MA / Core
Mode : 16
Format settings, Endianness : Big
Muxing mode : Stream extension
Codec ID : 134
Duration : 2h 11mn
Bit rate mode : Variable
Bit rate : Unknown / 1 509 Kbps
Channel count : 8 channels / 6 channels
Channel positions : Front: L C R, Side: L R, Back: L R, LFE / Front: L C R, Side: L R, LFE
Sampling rate : 48.0 KHz
Bit depth : 24 bits
Compression mode : Lossless / Lossy
Language : English
Source : 00000.m2ts

Audio #5
ID : 4356 (0x1104)
Menu ID : 1 (0x1)
Format : AC-3
Format/Info : Audio Coding 3
Format profile : Dolby Digital
Mode extension : CM (complete main)
Format settings, Endianness : Big
Codec ID : 129
Duration : 2h 11mn
Bit rate mode : Constant
Bit rate : 192 Kbps
Channel count : 2 channels
Channel positions : Front: L R
Sampling rate : 48.0 KHz
Bit depth : 16 bits
Compression mode : Lossy
Stream size : 180 MiB (1%)
Language : English
bsid : 6
dialnorm : -27
dialnorm/String : -27 dB
compr : -0.28
compr/String : -0.28 dB
dsurmod : 2
dsurmod/String : Dolby Surround encoded
acmod : 2
lfeon : 0
dialnorm_Average : -27
dialnorm_Average/String : -27 dB
dialnorm_Minimum : -27
dialnorm_Minimum/String : -27 dB
dialnorm_Maximum : -27
dialnorm_Maximum/String : -27 dB
dialnorm_Count : 207
compr_Average : 5.92
compr_Average/String : 5.92 dB
compr_Minimum : -0.28
compr_Minimum/String : -0.28 dB
compr_Maximum : 6.02
compr_Maximum/String : 6.02 dB
compr_Count : 207
format_identifier : AC-3
Source : 00000.m2ts

Text #1
ID : 4608 (0x1200)
Menu ID : 1 (0x1)
Format : PGS
Codec ID : 144
Duration : 2h 11mn
Language : Russian
Source : 00000.m2ts

Text #2
ID : 4609 (0x1201)
Menu ID : 1 (0x1)
Format : PGS
Codec ID : 144
Duration : 2h 11mn
Language : Russian
Source : 00000.m2ts

Text #3
ID : 4610 (0x1202)
Menu ID : 1 (0x1)
Format : PGS
Codec ID : 144
Duration : 2h 11mn
Language : Ukrainian
Source : 00000.m2ts

Text #4
ID : 4611 (0x1203)
Menu ID : 1 (0x1)
Format : PGS
Codec ID : 144
Duration : 2h 11mn
Language : Ukrainian
Source : 00000.m2ts

Text #5
ID : 4612 (0x1204)
Menu ID : 1 (0x1)
Format : PGS
Codec ID : 144
Duration : 2h 11mn
Language : English
Source : 00000.m2ts

Text #6
ID : 4613 (0x1205)
Menu ID : 1 (0x1)
Format : PGS
Codec ID : 144
Duration : 2h 11mn
Language : French
Source : 00000.m2ts

Text #7
ID : 4614 (0x1206)
Menu ID : 1 (0x1)
Format : PGS
Codec ID : 144
Duration : 2h 11mn
Language : Spanish
Source : 00000.m2ts

Text #8
ID : 4615 (0x1207)
Menu ID : 1 (0x1)
Format : PGS
Codec ID : 144
Duration : 2h 11mn
Language : Portuguese
Source : 00000.m2ts

Text #9
ID : 4616 (0x1208)
Menu ID : 1 (0x1)
Format : PGS
Codec ID : 144
Duration : 2h 11mn
Language : Spanish
Source : 00000.m2ts

Text #10
ID : 4617 (0x1209)
Menu ID : 1 (0x1)
Format : PGS
Codec ID : 144
Duration : 2h 11mn
Language : Portuguese
Source : 00000.m2ts

Menu
00:00:00.000 : Chapter 1
00:09:09.131 : Chapter 2
00:18:35.823 : Chapter 3
00:23:04.340 : Chapter 4
00:33:00.395 : Chapter 5
00:42:44.895 : Chapter 6
00:50:01.665 : Chapter 7
01:01:09.666 : Chapter 8
01:14:45.104 : Chapter 9
01:22:21.311 : Chapter 10
01:32:09.941 : Chapter 11
01:41:55.609 : Chapter 12
01:51:37.857 : Chapter 13
01:59:21.028 : Chapter 14
02:02:17.830 : Chapter 15
02:11:16.618 : Chapter 16
info [Профиль]  [ЛС] 

MAXELL 13 RUS

Пол: Пол:Муж

Стаж: 5 лет 1 месяц

Сообщений: 49

Россия
Рейтинг

post 29-Окт-2013 16:03 (спустя 1 час 42 минуты) [-]0[+]

[Цитировать] 

Cпасибо за раздачу Улыбаюсь

_________________
info [Профиль]  [ЛС] 

foxy91

Пол: Пол:Муж

Стаж: 3 года 3 месяца

Сообщений: 2

Белоруссия
Рейтинг

post 29-Окт-2013 17:10 (спустя 1 час 7 минут) [-]3[+]

[Цитировать] 

Спасибо за раздачу, но сделайте, если можно, рип на 10-20 Гб..
info [Профиль]  [ЛС] 

phoon

Стаж: 3 года 9 месяцев

Сообщений: 17

Рейтинг

post 29-Окт-2013 18:16 (спустя 1 час 5 минут) [-]2[+]

[Цитировать] 

+ по возможности сделать рип 1080p 24гб
info [Профиль]  [ЛС] 

seregashar

Пол: Пол:Муж

Стаж: 6 лет 7 месяцев

Сообщений: 382

СССР
Рейтинг

post 29-Окт-2013 18:37 (спустя 20 минут) [-]0[+]

[Цитировать] 

3д планируется в дубляже?пофиг сколько гиг!

_________________
ДИНОЗАВР ASUS P5Q-e/проц q9550 2.8@3.5/видео ZOTAC GTX470amp1280mb/8gb ram/OC Win7 64bit/SSD Silicon Power V70/монитор 1680*1050/Chieftec APS-850C
info [Профиль]  [ЛС] 

dabyg

Пол: Пол:Муж

Стаж: 3 года 9 месяцев

Сообщений: 152

Россия
Рейтинг

post 29-Окт-2013 20:15 (спустя 1 час 37 минут) [-]1[+]

[Цитировать] 

DTS-HD Master Audio Russian 5489 kbps 7.1 / 48 kHz / 5489 kbps / 24-bit (DTS Core: 5.1 / 48 kHz / 1509 kbps / 24-bit) (MVO)*
Почему эту дорогу тоже в Remux не сунули?
Куда лучше iTunes пожалуй и Ю.Сербина,лично моё мнение.

_________________
Под самым красивым хвостом павлина скрывается самая обычная куриная жопа.
Так что меньше пафоса, господа.
info [Профиль]  [ЛС] 

ArconWarl

Пол: Пол:Муж

Стаж: 3 года 11 месяцев

Сообщений: 132

Предупреждений: 1

Рейтинг

post 30-Окт-2013 16:48 (спустя 20 часов) [-]0[+]

[Цитировать] 

О, наконец-то! Давно ждал!
info [Профиль]  [ЛС] 

AlexFormula

Пол: Пол:Муж

Стаж: 7 лет 8 месяцев

Сообщений: 16621

Рейтинг

post 30-Окт-2013 17:25 (спустя 36 минут) [-]0[+]

[Цитировать] 

Цитата:

DTS-HD Master Audio Russian 5489 kbps 7.1 / 48 kHz / 5489 kbps / 24-bit (DTS Core: 5.1 / 48 kHz / 1509 kbps / 24-bit) (MVO)*
Почему эту дорогу тоже в Remux не сунули?
А зачем этот самопал нужен?
info [Профиль]  [ЛС] 

PhilipN8

Пол: Пол:Муж

Стаж: 6 лет 8 месяцев

Сообщений: 83

Россия
Рейтинг

post 30-Окт-2013 21:43 (спустя 4 часа) [-]1[+]

[Цитировать] 

Качество и фильм порадовали, жаль не пошёл в своё время в киношку...

_________________
info [Профиль]  [ЛС] 

Snowseeker

Стаж: 3 года 10 месяцев

Сообщений: 15

Рейтинг

post 01-Ноя-2013 00:26 (спустя 1 день 2 часа) [-]0[+]

[Цитировать] 

Так это же Blu-Ray, а не Remux

_________________
Windows 10, Intel i5-6400, Radeon hd 7770 1gb, RAM 16 gb, 1360x768
info [Профиль]  [ЛС] 

AlexFormula

Пол: Пол:Муж

Стаж: 7 лет 8 месяцев

Сообщений: 16621

Рейтинг

post 01-Ноя-2013 00:37 (спустя 11 минут) [-]0[+]

[Цитировать] 

Snowseeker писал(а):

Так это же Blu-Ray, а не Remux
Неужели?
info [Профиль]  [ЛС] 

sc_derere

Стаж: 5 лет 3 месяца

Сообщений: 46

Рейтинг

post 03-Ноя-2013 13:41 (спустя 2 дня 13 часов) [-]0[+]

[Цитировать] 

Потрясающее внимание к деталям и дух японской классики про роботов и чудовищ! И все это в великолепной обертке. Актерский состав очень порадовал, разномастный, но при этом очень органично смотрится. В общем восторги, охи, ахи Улыбаюсь
Становится даже жаль, что трансформеров снимал не дель Торо...

Зы. Русские в фильме... Клюква из 80-90х, это видимо дань традициям. Так что даже все уместно )

_________________
info [Профиль]  [ЛС] 

g10om

Пол: Пол:Муж

Стаж: 4 года 8 месяцев

Сообщений: 14

Россия
Рейтинг

post 03-Ноя-2013 16:46 (спустя 3 часа) [-]0[+]

[Цитировать] 

Ребят, сделайте пожалуйста раздачу в MKV 1080 Улыбаюсь
Гигов до 25-30.
Спасиб
info [Профиль]  [ЛС] 

smr

Стаж: 3 года 10 месяцев

Сообщений: 144

Россия
Рейтинг

post 05-Ноя-2013 19:41 (спустя 2 дня 2 часа) [-]-1[+]

[Цитировать] 

Встаньте на раздачу пож!
info [Профиль]  [ЛС] 

timyr8

Стаж: 7 лет 1 месяц

Сообщений: 5

Россия
Рейтинг

post 18-Ноя-2013 23:28 (спустя 13 дней) [-]0[+]

[Цитировать] 

Официальный дубляж будет добавлен?
info [Профиль]  [ЛС] 

Terayon

Пол: Пол:Муж

Стаж: 3 года

Сообщений: 1

Украина
Рейтинг

post 21-Ноя-2013 03:09 (спустя 2 дня 3 часа) [-]0[+]

[Цитировать] 

Качество видео и звука отличное kolob_128 kolob_128 kolob_128
info [Профиль]  [ЛС] 
Показать сообщения:    
Ответить на тему

Текущее время: 03-Дек 08:44

Часовой пояс: GMT + 4



Вы не можете начинать темы
Вы не можете отвечать на сообщения
Вы не можете редактировать свои сообщения
Вы не можете удалять свои сообщения
Вы не можете голосовать в опросах
Вы не можете прикреплять файлы к сообщениям
Вы не можете скачивать файлы