Ошибка

Похититель Душ / The SoulTaker [TV][01-13 из 13][2001][приключения, мистика, ужасы][DVDRip][Любительский (JAP+SUB)]

Ответить на тему
 
Автор Сообщение

sitsumei

Стаж: 3 года 6 месяцев

Сообщений: 2

Украина
Рейтинг

post 03-Май-2013 23:59 0[+]

[Цитировать] 

Похититель Душ / The SoulTaker

Страна: Япония
Год выпуска: 2001 г.
Жанр: приключения, мистика, ужасы
Тип: TV
Продолжительность: 13 эп, ~25 мин. серия
Режиссер: Симбо Акиюки
Студия: Tatsunoko

Описание: Необычный абстрактный мир, балансирующий на грани фантастики и полного абсурда. Всё происходящее здесь не вписывается ни в один канон построения пространства, времени, да и просто не укладывается в сколько-нибудь привычное понимание вещей. Кёсукэ Датэ - мальчик-мутант, которого убивает собственная мать, а потом откапывает сестра, и он оживает. Точнее не сестра, а фликер с частью души его сестры. Затем Датэ сталкивается со странными (хотя к этому времени уже мало что может показаться странным) организациями Кирихара и Госпиталь, теряет сестру (ту, которая не сестра на самом деле)... Дальше лучше смотреть.

© Катерина Измайлова, World Art

Источник:

Качество: DVDRip
Тип релиза: Без хардсаба
Формат видео: MP4
Релиз/Автор рипа: sitsumei
Видео: MPEG4 Video (H264), 848x480(16:9), 29.970fps, ~2 235 Kbps, 8 bit.
Аудио: AC-3, 48000Hz, 2ch, 384kbps, язык японский
Аудио 2: OGG Vorbis, 48000Hz, 2ch, 348kbps, язык русский (внешним файлом) ; Озвучка: одноголосая(sitsumei) ; Сэмпл
Субтитры: внешние, srt, язык субтитров русский ; Перевод: maXmo и Xander
Содержание бонуса:
1. ED без титров;
2. OP без титров;
3. Клип от "JAM-project"(песня опенинга)

Омэйки:
"SoulTaker Omake - Komugi Daisakusen"(3 миссии)
 
General
Format : MPEG-4
Format profile : Base Media
Codec ID : isom
File size : 469 MiB
Duration : 25mn 1s
Overall bit rate : 2 622 Kbps
Encoded date : UTC 2012-08-04 22:28:25
Tagged date : UTC 2012-08-04 22:28:25

Video
ID : 1
Format : AVC
Format/Info : Advanced Video Codec
Format profile : High@L3.1
Format settings, CABAC : Yes
Format settings, ReFrames : 4 frames
Codec ID : avc1
Codec ID/Info : Advanced Video Coding
Duration : 25mn 1s
Bit rate : 2 235 Kbps
Maximum bit rate : 10.8 Mbps
Width : 848 pixels
Height : 480 pixels
Display aspect ratio : 16:9
Frame rate mode : Constant
Frame rate : 29.970 fps
Color space : YUV
Chroma subsampling : 4:2:0
Bit depth : 8 bits
Scan type : Progressive
Bits/(Pixel*Frame) : 0.183
Stream size : 400 MiB (85%)
Writing library : x264 core 125 r2200 999b753
Encoding settings : cabac=1 / ref=3 / deblock=1:0:0 / analyse=0x3:0x113 / me=hex / subme=7 / psy=1 / psy_rd=1.00:0.00 / mixed_ref=1 / me_range=16 / chroma_me=1 / trellis=1 / 8x8dct=1 / cqm=0 / deadzone=21,11 / fast_pskip=1 / chroma_qp_offset=-2 / threads=3 / lookahead_threads=1 / sliced_threads=0 / nr=0 / decimate=1 / interlaced=0 / bluray_compat=0 / constrained_intra=0 / bframes=3 / b_pyramid=2 / b_adapt=1 / b_bias=0 / direct=1 / weightb=1 / open_gop=0 / weightp=2 / keyint=300 / keyint_min=29 / scenecut=40 / intra_refresh=0 / rc_lookahead=40 / rc=2pass / mbtree=1 / bitrate=2235 / ratetol=1.0 / qcomp=0.60 / qpmin=0 / qpmax=69 / qpstep=4 / cplxblur=20.0 / qblur=0.5 / ip_ratio=1.40 / aq=1:1.00
Encoded date : UTC 2012-08-04 21:40:09
Tagged date : UTC 2012-08-04 22:28:46

Audio
ID : 2
Format : AC-3
Format/Info : Audio Coding 3
Mode extension : CM (complete main)
Format settings, Endianness : Big
Codec ID : ac-3
Duration : 25mn 0s
Bit rate mode : Constant
Bit rate : 384 Kbps
Channel(s) : 2 channels
Channel positions : Front: L R
Sampling rate : 48.0 KHz
Bit depth : 16 bits
Compression mode : Lossy
Delay relative to video : -3s 337ms
Stream size : 68.7 MiB (15%)
Encoded date : UTC 2012-08-04 22:28:38
Tagged date : UTC 2012-08-04 22:28:46

Серия 1 – Крест дьявола.
Серия 2 – Мир – это иллюзия.
Серия 3 – Череп и дева.
Серия 4 – Скользящая тьма.
Серия 5 – За пределами всего человеческого.
Серия 6 – Зловещий замок в стратосфере.
Серия 7 – Последняя из женщин.
Серия 8 – Адская маска.
Серия 9 – Призрак прекрасной мёртвой женщины.
Серия 10 – Напрасная жертва.
Серия 11 – Демон пустынного острова.
Серия 12 – Мадонна в чёрном.
Серия 13 – Адская девушка.
От этого:
1. Лучшее качество видео:
2. Альтернативная озвучка.
использующие сам релиз, или озвучку из него, для повторной публикации, должны указывать первоисточник
info [Профиль]  [ЛС] 

Dark Spike

Пол: Пол:Муж

Стаж: 6 лет 5 месяцев

Сообщений: 79

Россия
Рейтинг

post 04-Май-2013 01:34 (спустя 1 час 35 минут) [-]0[+]

[Цитировать] 

* кастует кнопку "скачать" *
анимашка обещает быть интересной)

_________________
И пусть судьба несправедлива, но жизнь игра - играй красиво...
info [Профиль]  [ЛС] 

post 04-Май-2013 15:05 (спустя 13 часов) [-]0[+]

Топик был перенесен из форума Анонсы в форум Аниме (Основной)

TATOSHCA
 

sambo666

Стаж: 5 лет 5 месяцев

Сообщений: 110

Белоруссия
Рейтинг

post 04-Май-2013 15:52 (спустя 14 часов) [-]0[+]

[Цитировать] 

Рекомендую. Аниме хорошее. Единственное - придется по вкусу далеко не каждому.
info [Профиль]  [ЛС] 

BlackEvangel

Стаж: 7 лет 3 месяца

Сообщений: 728

Россия
Рейтинг

post 04-Май-2013 17:36 (спустя 1 час 44 минуты) [-]0[+]

[Цитировать] 

Произведение хорошее, но подойдёт увы только настоящим ценителям. Неподготовленный мозг будет просто взрываться. А подготовится а работам Симбо Акиюки не так просто, даже большинство тех кто считает что понимают его произведения, на самом деле просто льстят себе.

_________________
info [Профиль]  [ЛС] 

naispy2

Стаж: 6 лет 9 месяцев

Сообщений: 269

Рейтинг

post 04-Май-2013 17:40 (спустя 3 минуты) [-]0[+]

[Цитировать] 

Оооооо, не думал что когда нибудь о соул тейкере еще вспомнят! Как то незаметно в свое время он прошел, хотя аниме мне очень понравилось. Вещь спорная, в духе Эльфин Лайд, с кучей насилия и кровищи, но и крутой финал присутствует. Надо освежить, спасибо.
info [Профиль]  [ЛС] 

LaiTai

Пол: Пол:Муж

Стаж: 3 года 7 месяцев

Сообщений: 154

Россия
Рейтинг

post 04-Май-2013 19:27 (спустя 1 час 47 минут) [-]1[+]

[Цитировать] 

Цитата:

Произведение хорошее,
Я не оспариваю крутости произведения.

Цитата:

А подготовится а работам Симбо Акиюки не так просто
Но вот насчёт того чтоб смотреть работы Симбо Акиюки надо подготавливаться я готов поспорить. Ибо его творчество очень спорное и среди его работ как режиссера есть очень много мягко говоря не однозначных работ

_________________
info [Профиль]  [ЛС] 

мужиггг

Пол: Пол:Муж

Стаж: 6 лет 4 месяца

Сообщений: 357

Украина
Рейтинг

post 11-Май-2013 01:37 (спустя 6 дней) [-]0[+]

[Цитировать] 

в день смотрю по 2 серии максимум, так как после каждой серии нужно немного помозговать о том, что увидел, ведь информации куча
info [Профиль]  [ЛС] 
Показать сообщения:    
Ответить на тему

Текущее время: 03-Дек 17:45

Часовой пояс: GMT + 4



Вы не можете начинать темы
Вы не можете отвечать на сообщения
Вы не можете редактировать свои сообщения
Вы не можете удалять свои сообщения
Вы не можете голосовать в опросах
Вы не можете прикреплять файлы к сообщениям
Вы не можете скачивать файлы