Ошибка

Боевые пилоты: Операция «Красный флаг» / Fighter Pilot: Operation Red Flag (Стивен Лоу / Stephen Low) [2004 г., документальный, короткометражка, BDRip 720р] IMAX

Ответить на тему
 
Автор Сообщение

Captain

Пол: Пол:Муж

Стаж: 6 лет 6 месяцев

Сообщений: 932

Россия
Рейтинг

post 21-Апр-2012 21:21 0[+]

[Цитировать] 

pic="http://s002.youpic.su/pictures/1334952000/de64126e354ec17840b4491de70db537.png"

Боевые пилоты: Операция «Красный флаг» / Fighter Pilot: Operation Red Flag

Год выпуска: 2004
Страна:
Жанр: документальный, короткометражка
Продолжительность: 00:48:26.966
Перевод: Профессиональный (двухголосый)
Субтитры: отсутствуют
Режиссер: Стивен Лоу / Stephen Low
В ролях: Джон Стрэттон, Роберт Новотны, Сэм Морган, Рэнди Кейсон, Мишель Перрон, Чарльз Пауэлл, Харольд Винтер
Описание:
    «Красный флаг» - это последняя тренировка для пилотов их техников перед тем, как они отправятся в настоящий бой. Мы проследим за тем, как молодой пилот пройдет через это экстраординарное событие в пустыне Невада. Он поражен тем, насколько эти испытания сложны и опасны. Он понимает, то существует команда, которой не было места в его детском представлении о героизме, эта команда является ключом к успеху всего задания и безопасному возвращению домой. В учебных воздушных боях есть и другие пилоты, цель которых не только проверить себя, они помогают ему, прикрывая спину. И он делает то же самое и для них. Он осознает, что быть героем это не так просто, как он себе это представлял. В целом, показана работа всей команды - пилотов, техников, персонала самолета ДРЛО, других родов в ходе комплексных учений «Красный флаг».


    Источник: Blu-ray 1080i VC-1 DTS-HD 5.1
    Качество: BDRip 720р
    Формат: MKV
    Видео кодек: H.264
    Аудио кодек: DTS
    Видео: AVC, 7 715 Kbps, 1280 x 720, 16:9, 23.976 fps
    Аудио:
      DTS, 6 channels, 3/2.1, 1 510 Kbps, 48.0 KHz
      DTS, 6 channels, 3/2.1, 1 510 Kbps, 48.0 KHz

Код:

Общее
Уникальный идентификатор                 : 218590414219561261584806711088934266399 (0xA472FB808AC4BC399F1BC65FB28BA61F)
Полное имя                               :...\Fighter.Pilot.Operation.Red.Flag.2004.720p.BluRay.Rus.Eng.HDCLUB.mkv
Формат                                   : Matroska
Версия формата                           : Version 2
Размер файла                             : 3,71 Гбайт
Продолжительность                        : 48 м.
Общий поток                              : 11,0 Мбит/сек
Название фильма                          : Fighter Pilot: Operation Red Flag (2004) - Release for HDCLUB
Дата кодирования                         : UTC 2011-10-23 16:42:20
Программа кодирования                    : mkvmerge v5.0.1 ('Es ist Sommer') built on Oct  9 2011 11:55:43
Библиотека кодирования                   : libebml v1.2.2 + libmatroska v1.3.0

Видео
Идентификатор                            : 1
Формат                                   : AVC
Формат/Информация                        : Advanced Video Codec
Профиль формата                          : High@L4.1
Параметр CABAC формата                   : Да
Параметр ReFrames формата                : 6 кадров
Идентификатор кодека                     : V_MPEG4/ISO/AVC
Продолжительность                        : 48 м.
Битрейт                                  : 7715 Кбит/сек
Ширина                                   : 1280 пикселей
Высота                                   : 720 пикселей
Соотношение сторон                       : 16:9
Частота кадров                           : 23,976 кадра/сек
Цветовое пространство                    : YUV
Субдискретизация насыщенности            : 4:2:0
Битовая глубина                          : 8 бит
Тип развёртки                            : Прогрессивная
Бит/(Пиксели*Кадры)                      : 0.349
Размер потока                            : 2,61 Гбайт (70%)
Заголовок                                : Fighter Pilot: Operation Red Flag (2004) - Release for HDCLUB
Библиотека кодирования                   : x264 core 118 r2085 8a62835
Настройки программы                      : cabac=1 / ref=6 / deblock=1:-3:-3 / analyse=0x3:0x113 / me=umh / subme=10 / psy=1 / psy_rd=1.00:0.00 / mixed_ref=1 / me_range=32 / chroma_me=1 / trellis=2 / 8x8dct=1 / cqm=0 / deadzone=21,11 / fast_pskip=0 / chroma_qp_offset=-2 / threads=6 / sliced_threads=0 / nr=0 / decimate=1 / interlaced=0 / bluray_compat=0 / constrained_intra=0 / bframes=7 / b_pyramid=2 / b_adapt=2 / b_bias=0 / direct=1 / weightb=1 / open_gop=0 / weightp=2 / keyint=250 / keyint_min=23 / scenecut=40 / intra_refresh=0 / rc_lookahead=40 / rc=crf / mbtree=0 / crf=16.0 / qcomp=0.60 / qpmin=10 / qpmax=51 / qpstep=4 / vbv_maxrate=50000 / vbv_bufsize=62500 / crf_max=0.0 / nal_hrd=none / ip_ratio=1.40 / pb_ratio=1.30 / aq=1:0.80
Язык                                     : English
Default                                  : Да
Forced                                   : Нет

Аудио #1
Идентификатор                            : 2
Формат                                   : DTS
Формат/Информация                        : Digital Theater Systems
Идентификатор кодека                     : A_DTS
Продолжительность                        : 48 м.
Вид битрейта                             : Постоянный
Битрейт                                  : 1510 Кбит/сек
Каналы                                   : 6 каналов
Расположение каналов                     : Front: L C R, Side: L R, LFE
Частота                                  : 48,0 КГц
Битовая глубина                          : 16 бит
Метод сжатия                             : С потерями
Размер потока                            : 523 Мбайт (14%)
Заголовок                                : DTS 5.1ch 1510 kbps - Двухголосый, Омикрон
Язык                                     : Russian
Default                                  : Да
Forced                                   : Нет

Аудио #2
Идентификатор                            : 3
Формат                                   : DTS
Формат/Информация                        : Digital Theater Systems
Идентификатор кодека                     : A_DTS
Продолжительность                        : 48 м.
Вид битрейта                             : Постоянный
Битрейт                                  : 1510 Кбит/сек
Каналы                                   : 6 каналов
Расположение каналов                     : Front: L C R, Side: L R, LFE
Частота                                  : 48,0 КГц
Битовая глубина                          : 16 бит
Метод сжатия                             : С потерями
Размер потока                            : 523 Мбайт (14%)
Заголовок                                : DTS 5.1ch 1510 kbps
Язык                                     : English
Default                                  : Нет
Forced                                   : Нет

Меню
00:00:00.000                             : en:1. Introduction
00:04:08.181                             : en:2. Red Flag
00:08:11.424                             : en:3. Cleared for Take Off
00:10:19.052                             : en:4. AWACS
00:13:19.565                             : en:5. 1st Engagement
00:17:36.522                             : en:6. Threat Center
00:19:30.469                             : en:7. Dog Fight
00:25:06.138                             : en:8. Mid-air Refueling
00:26:53.078                             : en:9. On the Ground
00:30:09.041                             : en:10. Pilot Down
00:35:05.070                             : en:11. Unsung Heroes
00:37:25.610                             : en:12. Live Fire
скачать сэмпл
info [Профиль]  [ЛС] 

007andre007

Пол: Пол:Муж

Стаж: 6 лет 10 месяцев

Сообщений: 220

Россия
Рейтинг

post 21-Апр-2012 21:35 (спустя 13 минут) [-]0[+]

[Цитировать] 

Спасибо!

_________________
info [Профиль]  [ЛС] 

rimo

Пол: Пол:Муж

Стаж: 5 лет 4 месяца

Сообщений: 1752

Украина
Рейтинг

post 21-Апр-2012 22:47 (спустя 1 час 11 минут) [-]1[+]

[Цитировать] 

А я только выкладывать хотел. Опоздал. Улыбаюсь

добавлено спустя 17 минут 48 секунд:

Вы уже голосовали за этот релиз! Не надо мухлевать! Средний балл: 5.0

эт что за прикол ? kolob_105 голосовать же один раз можно
info [Профиль]  [ЛС] 

Captain

Пол: Пол:Муж

Стаж: 6 лет 6 месяцев

Сообщений: 932

Россия
Рейтинг

post 21-Апр-2012 22:57 (спустя 10 минут) [-]0[+]

[Цитировать] 

rimo
http://tapochek.net/viewtopic.php?t=5335 это лучше спросить в этой теме

_________________
info [Профиль]  [ЛС] 
Показать сообщения:    
Ответить на тему

Текущее время: 04-Дек 20:22

Часовой пояс: GMT + 4



Вы не можете начинать темы
Вы не можете отвечать на сообщения
Вы не можете редактировать свои сообщения
Вы не можете удалять свои сообщения
Вы не можете голосовать в опросах
Вы не можете прикреплять файлы к сообщениям
Вы не можете скачивать файлы