Ошибка

Уральские пельмени. Красота спасет мымр [2012 г., Юмористическое шоу, SATRip]

Ответить на тему
 
Автор Сообщение

Mephi1000fel

Пол: Пол:Муж

Стаж: 5 лет 2 месяца

Сообщений: 286

СССР
Рейтинг

post 08-Мар-2012 15:44 1[+]

[Цитировать] 

Красота спасет мымр

Год выпуска: 2012
Страна: Россия
Жанр: Юмористическое шоу
Продолжительность: 01:09:50
В ролях:
  • Дмитрий Брекоткин
  • Сергей Ершов
  • Сергей Исаев
  • Сергей Калугин
  • Вячеслав Мясников
  • Сергей Нетиевский
  • Александр Попов
  • Андрей Рожков
  • Дмитрий Соколов
  • Максим Ярица
  • Юля Михалкова

Описание: Весёлые парни в мандариновых рубашках не дадут соскучиться и подарят отличное настроение всей семье. У юмора «Уральских пельменей» нет возрастных ограничений, они избегают «шуток ниже пояса» и на их концертах пятилетние дети смеются рядом с 50-ти летними взрослыми. Новое комедийное шоу включает в себя как самостоятельные сценические истории, так и импровизации с залом, а также смешные сценки со звёздами, которые пришли посмотреть на любимую команду и неожиданно для себя оказались на сцене.
«КРАСОТА СПАСЕТ МЫМР!» - все для женщин и о женщинах . Прямо на сцене - Чудесные превращения в принцесс и обратно!

Качество: SATRip
Формат: AVI
Видео кодек: XviD
Аудио кодек: MP3
Видео: 704x400 (1.76:1), 25 fps, XviD MPEG-4 ~1400 kbps avg
Аудио: 48 kHz, MPEG Layer 3, 2 ch, ~128.00 kbps avg

Код:

Общее
Полное имя                       : E:\Uralskie.Pelmeni.Krasota.spaset.mimr.2012.XviD.SATRip.avi
Формат                           : AVI
Формат/Информация                : Audio Video Interleave
Размер файла                     : 764 Мбайт
Продолжительность                : 1 ч. 9 м.
Общий поток                      : 1529 Кбит/сек
Программа кодирования            : VirtualDubMod 1.5.10.3 | www.virtualdub-fr.org || (build 2550/release)
Библиотека кодирования           : VirtualDubMod build 2550/release

Видео
Идентификатор                    : 0
Формат                           : MPEG-4 Visual
Профиль формата                  : Advanced Simple@L5
Параметр BVOP формата            : 2
Параметр QPel формата            : Нет
Параметр GMC формата             : Без точки перехода
Параметр матрицы формата         : Default (MPEG)
Идентификатор кодека             : XVID
Идентификатор кодека/Подсказка   : XviD
Продолжительность                : 1 ч. 9 м.
Битрейт                          : 1391 Кбит/сек
Ширина                           : 704 пикселя
Высота                           : 400 пикселей
Соотношение сторон               : 16:9
Частота кадров                   : 25,000 кадров/сек
Цветовое пространство            : YUV
Субдискретизация насыщенности    : 4:2:0
Битовая глубина                  : 8 бит
Тип развёртки                    : Прогрессивная
Метод сжатия                     : С потерями
Бит/(Пиксели*Кадры)              : 0.198
Размер потока                    : 695 Мбайт (91%)
Библиотека кодирования           : XviD 64

Аудио
Идентификатор                    : 1
Формат                           : MPEG Audio
Версия формата                   : Version 1
Профиль формата                  : Layer 3
Режим                            : Joint stereo
Расширение режима                : MS Stereo
Идентификатор кодека             : 55
Идентификатор кодека/Подсказка   : MP3
Продолжительность                : 1 ч. 9 м.
Вид битрейта                     : Постоянный
Битрейт                          : 128 Кбит/сек
Каналы                           : 2 канала
Частота                          : 48,0 КГц
Метод сжатия                     : С потерями
Размер потока                    : 63,9 Мбайт (8%)
Выравнивание                     : Соединение по промежуткам
Продолжительность промежутка     : 40  мс. (1,00 видеокадр)
Время предзагрузки промежутка    : 504  мс.
Библиотека кодирования           : LAME3.90.3ЄЄЄЄЄЄЄЄЄЄ


info [Профиль]  [ЛС] 

McStatiC

Стаж: 6 лет 4 месяца

Сообщений: 45

Россия
Рейтинг

post 08-Мар-2012 18:01 (спустя 2 часа 16 минут) [-]-20[+]

[Цитировать] 

как это можно смотреть? они уверенно дошли до звания ПЕТРОСЯН
info [Профиль]  [ЛС] 

Vaultin

Пол: Пол:Муж

Стаж: 5 лет 5 месяцев

Сообщений: 63

Финляндия
Рейтинг

post 08-Мар-2012 18:32 (спустя 30 минут) [-]3[+]

[Цитировать] 

McStatiC
Cмотрел все их выпуски до единого и ниразу не пожалел, все оч. весело и пазитивно, предпоследний выпуск среднячок для меня конечно, этот как не знаю - глянуть надо.
info [Профиль]  [ЛС] 

Mephi1000fel

Пол: Пол:Муж

Стаж: 5 лет 2 месяца

Сообщений: 286

СССР
Рейтинг

post 08-Мар-2012 18:53 (спустя 20 минут) [-]24[+]

[Цитировать] 

Я кстати до сих пор не понимаю фразу "Звание Петросян" ???!! Это вообще что? Кто мне объяснит, лично я в детстве с удовольствием смотрел передачи с Евгением Ваганычем и даже сейчас посмотрел бы "Кривое зеркало", "Вокруг Смеха", да и наверно "Аншлаг" (хотя я не понимаю откуда и зачем там вообще Дубовицкая"). Это отличный, добрый юмор, которого сейчас не хватает...
info [Профиль]  [ЛС] 

StalinEXE

Пол: Пол:Муж

Стаж: 6 лет 5 месяцев

Сообщений: 435

СССР
Рейтинг

post 08-Мар-2012 20:30 (спустя 1 час 37 минут) [-]3[+]

[Цитировать] 

Mephi1000fel, просто сейчас эталон юмора - Comedy Club. Мат, сортирный юмор и слова "жопа" - вот, от чего смеётся молодёжь. Мне тоже в детстве нравился Петросян. И Кривое зеркало. А вот Аншлаг не очень, он был унылей Кривого Зеркала... Для меня, конечно же.
info [Профиль]  [ЛС] 

musashi

Пол: Пол:Муж

Стаж: 4 года 11 месяцев

Сообщений: 582

Рейтинг

post 08-Мар-2012 20:41 (спустя 10 минут) [-]-4[+]

[Цитировать] 

Mephi1000fel писал(а):

Я кстати до сих пор не понимаю фразу "Звание Петросян
Шаблонный юмор, читка одного и тогоже монолога в десятках, сотнях, тысячах выступлений.

McStatiC писал(а):

ь? они уверенно дошли до звания ПЕТРОСЯН
Не, планка коненчо пониже стала ибо делают они выпуски часто, не как в КВН. Но смотреть можно.

StalinEXE писал(а):

Comedy Club. Мат, сортирный юмор и слова "жопа"
Стереотип, во певых не все резиденты ругаются, полшлят говорят слово "жопа, и даже если они говорят, то выглядит - это гармонично.
И ты сам то давно смотрел кривое зеркало? Несут там чушь и пошлятину, да еще с запашком тухлого юмора( старого шутки ).

_________________
Никогда не спорьте с дураком - люди могут не заметить между вами разницы.
info [Профиль]  [ЛС] 

StalinEXE

Пол: Пол:Муж

Стаж: 6 лет 5 месяцев

Сообщений: 435

СССР
Рейтинг

post 08-Мар-2012 20:55 (спустя 14 минут) [-]-1[+]

[Цитировать] 

Цитата:

И ты сам то давно смотрел кривое зеркало? Несут там чушь и пошлятину, да еще с запашком тухлого юмора( старого шутки ).
Смотрел где-то в прошлом году, наверное. Ну так юмор там другой. Они не такой провокационный. Его можно пересказывать своим родителям. Этим, наверное, и подкупает. =)
info [Профиль]  [ЛС] 

denic76

Стаж: 4 года 11 месяцев

Сообщений: 2

Россия
Рейтинг

post 01-Апр-2012 20:35 (спустя 23 дня) [-]0[+]

[Цитировать] 

НУ что за спор - просто посмотрите на зрителей которые ходят на программы - в камеди - гламурные фифы и мальчики-педики - все в блестках и прожекторах (понятно для кого это).
В зеркале, и пельменях - просто люди, может и без помады и в мятой одежде - но они искренне смеются и без команда " внимание, жопа, пора смеяться"
info [Профиль]  [ЛС] 
Показать сообщения:    
Ответить на тему

Текущее время: 08-Дек 22:16

Часовой пояс: GMT + 4



Вы не можете начинать темы
Вы не можете отвечать на сообщения
Вы не можете редактировать свои сообщения
Вы не можете удалять свои сообщения
Вы не можете голосовать в опросах
Вы не можете прикреплять файлы к сообщениям
Вы не можете скачивать файлы