Ошибка

До окончания фрилича осталось:


Очень опасная штучка / One for the Money (Джули Энн Робинсон) [2012, комедия, BDRip-AVC] DUB

Ответить на тему
 
Автор Сообщение

L

Пол: Пол:Муж

Стаж: 6 лет 8 месяцев

Сообщений: 10838

Украина
Рейтинг

post 29-Фев-2012 10:22 1[+]

[Цитировать] 

Очень опасная штучка / One for the Money
«Когда мужчины не понимают по-хорошему»

Название: Очень опасная штучка
Оригинальное название: One for the Money
Год выхода: 2012
Жанр: комедия
Выпущено: США
Продолжительность: 1:31:18.222
Перевод: Дубляж
Режиссер: Джули Энн Робинсон
В ролях: Кэтрин Хайгл, Джейсон О’Мара, Дэниел Сунджата, Джон Легуизамо, Шерри Шеперд, Дебби Рейнолдс, Дебра Монк, Нат Муни, Адам Пол, Фишер Стивенс
О фильме: Продавщица нижнего белья в отставке Стэфани Плам нашла новую работу. Отныне она охотится на мужчин, за поимку которых назначена солидная награда. Ее главное оружие - женская интуиция и модные туфли на высоких каблуках. Но даже они бессильны перед главной целью - мужчиной ее мечты. Он красив, остроумен и смертельно опасен, и при этом он её бывший.
5.755 (1189) | | | 4.9 (2619)

Раздача от:
Автор рипа: L
Обложка: by L
Качество: BDRip-AVC
Исходник:ONE_FOR_THE_MONEY_BD_BLUEBIRD
Контейнер: MKV
Видео: x.264 / 1036x434 / 1889 Kbps / 2.40:1 / High@L4.1
Аудио:
  • 48 kHz, AC3, 3/2 (L,C,R,l,r) + LFE ch, ~384.00 kbps avg - профессиональный (дублированный)
Субтитры: нет
Общее
Уникальный идентификатор : 236201472741921047004717240994405593553 (0xB1B2BFB9A0AD855F841E21B89FD4B1D1)
Полное имя : D:\L\Ochen.Opasnaya.Shtuchka.2011.BDRip.x.264.AC3.RG.25.Kadr[by.L].mkv
Формат : Matroska
Версия формата : Version 2
Размер файла : 1,45 Гбайт
Продолжительность : 1 ч. 31 м.
Общий поток : 2273 Кбит/сек
Дата кодирования : UTC 2012-02-29 06:11:40
Программа кодирования : mkvmerge v3.2.0 ('Beginnings') built on Feb 12 2010 16:46:17
Библиотека кодирования : libebml v0.7.9 + libmatroska v0.8.1

Видео
Идентификатор : 1
Формат : AVC
Формат/Информация : Advanced Video Codec
Профиль формата : High@L4.1
Параметр CABAC формата : Да
Параметр ReFrames формата : 10 кадров
Идентификатор кодека : V_MPEG4/ISO/AVC
Продолжительность : 1 ч. 31 м.
Битрейт : 1889 Кбит/сек
Ширина : 1036 пикселей
Высота : 434 пикселя
Соотношение сторон : 2,40:1
Частота кадров : 23,976 кадра/сек
Цветовое пространство : YUV
Субдискретизация насыщенности : 4:2:0
Битовая глубина : 8 бит
Тип развёртки : Прогрессивная
Бит/(Пиксели*Кадры) : 0.175
Размер потока : 1,18 Гбайт (81%)
Библиотека кодирования : x264 core 120 r2164 da19765
Настройки программы : cabac=1 / ref=10 / deblock=1:-2:-1 / analyse=0x3:0x113 / me=umh / subme=11 / psy=1 / psy_rd=0.95:0.05 / mixed_ref=1 / me_range=32 / chroma_me=1 / trellis=2 / 8x8dct=1 / cqm=0 / deadzone=21,11 / fast_pskip=1 / chroma_qp_offset=-3 / threads=6 / sliced_threads=0 / nr=0 / decimate=1 / interlaced=0 / bluray_compat=0 / constrained_intra=0 / bframes=8 / b_pyramid=2 / b_adapt=1 / b_bias=0 / direct=1 / weightb=1 / open_gop=0 / weightp=2 / keyint=240 / keyint_min=22 / scenecut=40 / intra_refresh=0 / rc=2pass / mbtree=0 / bitrate=1889 / ratetol=1.0 / qcomp=0.70 / qpmin=10 / qpmax=61 / qpstep=4 / cplxblur=20.0 / qblur=0.5 / ip_ratio=1.40 / pb_ratio=1.30 / aq=2:0.70
Язык : English
Default : Нет
Forced : Нет

Аудио
Идентификатор : 2
Формат : AC-3
Формат/Информация : Audio Coding 3
Расширение режима : CM (complete main)
Идентификатор кодека : A_AC3
Продолжительность : 1 ч. 31 м.
Вид битрейта : Постоянный
Битрейт : 384 Кбит/сек
Каналы : 6 каналов
Расположение каналов : Front: L C R, Side: L R, LFE
Частота : 48,0 КГц
Битовая глубина : 16 бит
Метод сжатия : С потерями
Размер потока : 251 Мбайт (17%)
Заголовок : DUB
Язык : Russian
Default : Да
Forced : Нет

info [Профиль]  [ЛС] 

post 24-Мар-2012 20:52 (спустя 24 дня) [-]0[+]

Топик был перенесен из форума Rips в форум Зарубежное кино | Rips

Panky
 

post 03-Авг-2014 23:02 (спустя 2 года 5 месяцев) [-]0[+]

Топик был перенесен из форума Зарубежное кино | Rips в форум Прочее | Архив (Зарубежное кино)

L
 
Показать сообщения:    
Ответить на тему

Текущее время: 10-Дек 14:56

Часовой пояс: GMT + 4



Вы не можете начинать темы
Вы не можете отвечать на сообщения
Вы не можете редактировать свои сообщения
Вы не можете удалять свои сообщения
Вы не можете голосовать в опросах
Вы не можете прикреплять файлы к сообщениям
Вы не можете скачивать файлы