Ошибка

Три богатыря: Антология (Алеша Попович и Тугарин Змей / Добрыня Никитич и Змей Горыныч / Илья Муромец и Соловей Разбойник / Три богатыря и Шамаханская царица) (К. Бронзит, И. Максимов, В. Торопчин, С. Глезин) [2004-2010 г., мультфильм BDRip 1080p]

Ответить на тему
 
Автор Сообщение

mallaigne

Пол: Пол:Муж

Стаж: 5 лет 1 месяц

Сообщений: 93

Предупреждений: 1

Россия
Рейтинг

post 24-Фев-2012 14:20 1[+]

[Цитировать] 




Год выпуска: 2004
Страна: Россия
Жанр: полнометражный мультфильм, комедия, приключения, семейный
Продолжительность: 01:18:46
Перевод: Не требуется
Режиссер:
Константин Бронзит
Роли озвучивали:
Олег Куликович, Лия Медведева, Дмитрий Высоцкий, Анатолий Петров, Наталья Данилова, Сергей Маковецкий, Иван Краско, Татьяна Иванова, Михаил Черняк, Константин Бронзит, Елена Шульман
Описание:
В древнем русском городе Ростове родился в поповской семье сын. Назвали его родители Алешей. А когда он вырос и стал богатырем, то совершил такие подвиги, что стал героем русских былин Алешей Поповичем. Только подвиги его начались с конфуза… Подступила к Ростову тугарская вражеская орда во главе с Тугарином Змеем и потребовала, чтобы жители города выплатили дань. Поповский сын предложил план действий. Народ этот план одобрил и собрал гору золота. Алеша же умудрился собственный план "благополучно" провалить, да с каким треском! И золото упустил, и полгорода разрушил. После чего поклялся — Тугарина Змея изловить и золото вернуть. Отправился Алеша Попович в путь вместе с дедом Тихоном, который мальчика вырастил и воспитал, а чуть позже компанию им составили говорящий конь Юлий, купленный у цыган, почти 16-летняя красавица Любава, ее бабка и их ослик Моисей…

Доп. информация: -=Раздача ведется в промежуток с 7:00 по 19:00 по Московскому времени=-

Качество: Blu-ray Rip
Формат: MKV
Видео кодек: H.264
Аудио кодек: DTS
Видео: MPEG-4 AVC (H264) / 3938 kbps / 1920х1036 / 23,976 fps / High Profile 4.1 / Bit/(Pixel*Frame) 0.083
Аудио: DTS 3/2 (L,C,R,l,r) + LFE ch / 48 kHz / 24 bit / ~1536.00 kbps avg

Семпл "Алеша Попович и Тугарин Змей" (2004)

I:\Animation\Три богатыря\Алеша Попович и Тугарин Змей (2004) 1920x1036 BDRip by -=mallaigne=-.mkv
General
Unique ID : 170548689056823151780489142333009045494 (0x804E7B93BCEAD28A93AFA63627AC27F6)
Complete name : I:\Animation\Три богатыря\Алеша Попович и Тугарин Змей (2004) 1920x1036 BDRip by -=mallaigne=-.mkv
Format : Matroska
Format version : Version 2
File size : 3.00 GiB
Duration : 1h 18mn
Overall bit rate : 5 446 Kbps
Movie name : ripped by -=mallaigne=-
Encoded date : UTC 2012-02-23 07:23:22
Writing application : mkvmerge v5.3.0 ('I could have danced') built on Feb 9 2012 10:38:07
Writing library : libebml v1.2.3 + libmatroska v1.3.0
Video #1
ID : 1
Format : AVC
Format/Info : Advanced Video Codec
Format profile : High@L4.1
Format settings, CABAC : Yes
Format settings, ReFrames : 4 frames
Codec ID : V_MPEG4/ISO/AVC
Duration : 1h 18mn
Bit rate : 3 938 Kbps
Width : 1 920 pixels
Height : 1 036 pixels
Display aspect ratio : 1.853
Frame rate : 23.976 fps
Color space : YUV
Chroma subsampling : 4:2:0
Bit depth : 8 bits
Scan type : Progressive
Bits/(Pixel*Frame) : 0.083
Stream size : 2.11 GiB (70%)
Writing library : x264 core 120 r2164 da19765
Encoding settings : cabac=1 / ref=4 / deblock=1:-1:-1 / analyse=0x3:0x113 / me=umh / subme=11 / psy=1 / psy_rd=0.50:0.00 / mixed_ref=1 / me_range=32 / chroma_me=1 / trellis=2 / 8x8dct=1 / cqm=0 / deadzone=21,11 / fast_pskip=0 / chroma_qp_offset=-2 / threads=12 / sliced_threads=0 / nr=0 / decimate=0 / interlaced=0 / bluray_compat=0 / constrained_intra=0 / bframes=10 / b_pyramid=2 / b_adapt=2 / b_bias=0 / direct=3 / weightb=1 / open_gop=0 / weightp=2 / keyint=240 / keyint_min=23 / scenecut=40 / intra_refresh=0 / rc_lookahead=40 / rc=2pass / mbtree=1 / bitrate=3938 / ratetol=1.0 / qcomp=0.70 / qpmin=0 / qpmax=69 / qpstep=4 / cplxblur=20.0 / qblur=0.5 / ip_ratio=1.40 / aq=1:0.60
Language : Russian
Default : Yes
Forced : No
Color primaries : BT.709-5, BT.1361, IEC 61966-2-4, SMPTE RP177
Transfer characteristics : BT.709-5, BT.1361
Matrix coefficients : BT.709-5, BT.1361, IEC 61966-2-4 709, SMPTE RP177
Audio #2
ID : 2
Format : DTS
Format/Info : Digital Theater Systems
Codec ID : A_DTS
Duration : 1h 18mn
Bit rate mode : Constant
Bit rate : 1 510 Kbps
Channel(s) : 6 channels
Channel positions : Front: L C R, Side: L R, LFE
Sampling rate : 48.0 KHz
Bit depth : 24 bits
Compression mode : Lossy
Stream size : 851 MiB (28%)
Language : Russian
Default : Yes
Forced : No
x264 [info]: frame I:1069 Avg QP: 9.81 size:257725 PSNR Mean Y:55.42 U:57.06 V:57.03 Avg:55.88 Global:55.12
x264 [info]: frame P:33544 Avg QP:16.10 size: 39780 PSNR Mean Y:53.29 U:54.88 V:54.85 Avg:53.72 Global:52.34
x264 [info]: frame B:78709 Avg QP:20.14 size: 9112 PSNR Mean Y:52.52 U:54.20 V:54.19 Avg:52.98 Global:52.13
x264 [info]: consecutive B-frames: 7.9% 5.3% 15.9% 35.6% 13.8% 9.4% 2.7% 3.6% 3.1% 1.1% 1.5%
x264 [info]: mb I I16..4: 30.7% 18.6% 50.7%
x264 [info]: mb P I16..4: 2.8% 3.1% 3.2% P16..4: 14.5% 9.1% 4.0% 0.0% 0.0% skip:63.4%
x264 [info]: mb B I16..4: 0.4% 0.3% 0.3% B16..8: 11.9% 3.8% 1.0% direct: 0.7% skip:81.5% L0:46.2% L1:46.8% BI: 7.0%
x264 [info]: 8x8 transform intra:29.4% inter:28.3%
x264 [info]: direct mvs spatial:95.7% temporal:4.3%
x264 [info]: coded y,uvDC,uvAC intra: 44.0% 57.4% 50.3% inter: 4.6% 6.3% 5.1%
x264 [info]: i16 v,h,dc,p: 74% 19% 3% 4%
x264 [info]: i8 v,h,dc,ddl,ddr,vr,hd,vl,hu: 15% 20% 25% 6% 6% 6% 7% 7% 9%
x264 [info]: i4 v,h,dc,ddl,ddr,vr,hd,vl,hu: 23% 18% 21% 6% 7% 7% 6% 6% 6%
x264 [info]: i8c dc,h,v,p: 37% 41% 16% 5%
x264 [info]: Weighted P-Frames: Y:0.8% UV:0.6%
x264 [info]: ref P L0: 61.4% 3.7% 20.1% 11.9% 2.9% 0.0%
x264 [info]: ref B L0: 82.5% 12.8% 4.8%
x264 [info]: ref B L1: 91.0% 9.0%
x264 [info]: SSIM Mean Y:0.9976623 (26.312db)
x264 [info]: PSNR Mean Y:52.775 U:54.431 V:54.410 Avg:53.226 Global:52.213 kb/s:3938.76

encoded 113322 frames, 8.87 fps, 3938.76 kb/s


Год выпуска: 2006
Страна: Россия
Жанр: полнометражный мультфильм, комедия, приключения, семейный
Продолжительность: 01:08:08
Перевод: Не требуется
Режиссер:
Илья Максимов
Роли озвучивали:
Сергей Маковецкий, Валерий Соловьев, Юрий Тарасов, Андрей Толубеев, Екатерина Гороховская, Наталья Данилова
Описание:
Не перевелись еще богатыри на земле русской! И один из них - доблестный воин Добрыня Никитич, состоящий на службе у Князя Киевского. И, казалось бы, кому, как не Добрыне Никитичу, должен поручить Князь непростую задачу - спасти Забаву из когтистых лап похитившего ее Змея Горыныча? Но не отпускает Князь Добрыню на поиски племянницы. Нелегко, ох, нелегко придется Добрыне и его юному ученику Елисею. Тем более, что не знает Добрыня, и даже не догадывается, что Князь сам поставлен в безвыходное положение, и что он вовсе не заинтересован в возвращении племянницы. Тяжкое испытание предстоит Добрыне - познать горечь предательства. Но не суждено будет сбыться злодейским планам - и даже коварная Баба Яга окажется бессильна перед прямым и честным Добрыней и другом его Елисеем!

Доп. информация: -=Раздача ведется в промежуток с 7:00 по 19:00 по Московскому времени=-

Качество: Blu-ray Rip
Формат: MKV
Видео кодек: H.264
Аудио кодек: DTS
Видео: MPEG-4 AVC (H264) / 3952 kbps / 1920х1036 / 23,976 fps / High Profile 4.1 / Bit/(Pixel*Frame) 0.083
Аудио: DTS 3/2 (L,C,R,l,r) + LFE ch / 48 kHz / 24 bit / ~1536.00 kbps avg

Семпл "Добрыня Никитич и Змей Горыныч" (2010)

I:\Animation\Три богатыря\Добрыня Никитич и Змей Горыныч (2006) 1920x1036 BDRip by -=mallaigne=-.mkv
General
Unique ID : 172718705782536153412897409837763914907 (0x81F069A979B46B269CA7545DA06BEC9B)
Complete name : I:\Animation\Три богатыря\Добрыня Никитич и Змей Горыныч (2006) 1920x1036 BDRip by -=mallaigne=-.mkv
Format : Matroska
Format version : Version 2
File size : 2.60 GiB
Duration : 1h 8mn
Overall bit rate : 5 462 Kbps
Movie name : ripped by -=mallaigne=-
Encoded date : UTC 2012-02-24 06:32:50
Writing application : mkvmerge v5.3.0 ('I could have danced') built on Feb 9 2012 10:38:07
Writing library : libebml v1.2.3 + libmatroska v1.3.0
Video #1
ID : 1
Format : AVC
Format/Info : Advanced Video Codec
Format profile : High@L4.1
Format settings, CABAC : Yes
Format settings, ReFrames : 4 frames
Codec ID : V_MPEG4/ISO/AVC
Duration : 1h 8mn
Bit rate : 3 952 Kbps
Width : 1 920 pixels
Height : 1 036 pixels
Display aspect ratio : 1.853
Frame rate : 23.976 fps
Color space : YUV
Chroma subsampling : 4:2:0
Bit depth : 8 bits
Scan type : Progressive
Bits/(Pixel*Frame) : 0.083
Stream size : 1.83 GiB (70%)
Writing library : x264 core 120 r2164 da19765
Encoding settings : cabac=1 / ref=4 / deblock=1:-1:-1 / analyse=0x3:0x113 / me=umh / subme=11 / psy=1 / psy_rd=0.50:0.00 / mixed_ref=1 / me_range=32 / chroma_me=1 / trellis=2 / 8x8dct=1 / cqm=0 / deadzone=21,11 / fast_pskip=0 / chroma_qp_offset=-2 / threads=12 / sliced_threads=0 / nr=0 / decimate=0 / interlaced=0 / bluray_compat=0 / constrained_intra=0 / bframes=10 / b_pyramid=2 / b_adapt=2 / b_bias=0 / direct=3 / weightb=1 / open_gop=0 / weightp=2 / keyint=240 / keyint_min=23 / scenecut=40 / intra_refresh=0 / rc_lookahead=40 / rc=2pass / mbtree=1 / bitrate=3952 / ratetol=1.0 / qcomp=0.70 / qpmin=0 / qpmax=69 / qpstep=4 / cplxblur=20.0 / qblur=0.5 / ip_ratio=1.40 / aq=1:0.60
Language : Russian
Default : Yes
Forced : No
Color primaries : BT.709-5, BT.1361, IEC 61966-2-4, SMPTE RP177
Transfer characteristics : BT.709-5, BT.1361
Matrix coefficients : BT.709-5, BT.1361, IEC 61966-2-4 709, SMPTE RP177
Audio #2
ID : 2
Format : DTS
Format/Info : Digital Theater Systems
Codec ID : A_DTS
Duration : 1h 8mn
Bit rate mode : Constant
Bit rate : 1 510 Kbps
Channel(s) : 6 channels
Channel positions : Front: L C R, Side: L R, LFE
Sampling rate : 48.0 KHz
Bit depth : 24 bits
Compression mode : Lossy
Stream size : 736 MiB (28%)
Language : Russian
Default : Yes
Forced : No
x264 [info]: frame I:1086 Avg QP:11.24 size:246144 PSNR Mean Y:53.83 U:56.34 V:56.60 Avg:54.38 Global:53.75
x264 [info]: frame P:30156 Avg QP:18.12 size: 36750 PSNR Mean Y:52.34 U:55.00 V:55.13 Avg:52.87 Global:51.35
x264 [info]: frame B:66780 Avg QP:21.51 size: 9654 PSNR Mean Y:51.20 U:55.69 V:55.78 Avg:51.83 Global:51.08
x264 [info]: consecutive B-frames: 8.7% 6.1% 16.6% 37.6% 15.4% 5.9% 2.4% 1.9% 4.1% 0.6% 0.9%
x264 [info]: mb I I16..4: 21.5% 27.4% 51.1%
x264 [info]: mb P I16..4: 3.3% 4.8% 3.8% P16..4: 13.7% 9.7% 3.7% 0.0% 0.0% skip:61.0%
x264 [info]: mb B I16..4: 0.7% 0.6% 0.4% B16..8: 11.7% 4.4% 1.1% direct: 1.0% skip:80.1% L0:45.6% L1:47.8% BI: 6.6%
x264 [info]: 8x8 transform intra:36.7% inter:35.1%
x264 [info]: direct mvs spatial:96.9% temporal:3.1%
x264 [info]: coded y,uvDC,uvAC intra: 45.3% 56.4% 45.2% inter: 5.2% 5.8% 4.0%
x264 [info]: i16 v,h,dc,p: 63% 22% 4% 11%
x264 [info]: i8 v,h,dc,ddl,ddr,vr,hd,vl,hu: 14% 21% 22% 6% 6% 6% 7% 7% 10%
x264 [info]: i4 v,h,dc,ddl,ddr,vr,hd,vl,hu: 23% 17% 21% 6% 7% 7% 6% 6% 6%
x264 [info]: i8c dc,h,v,p: 35% 41% 18% 6%
x264 [info]: Weighted P-Frames: Y:1.5% UV:1.2%
x264 [info]: ref P L0: 59.7% 4.4% 20.7% 12.2% 3.1% 0.0%
x264 [info]: ref B L0: 81.2% 13.5% 5.3%
x264 [info]: ref B L1: 91.1% 8.9%
x264 [info]: SSIM Mean Y:0.9967754 (24.915db)
x264 [info]: PSNR Mean Y:51.582 U:55.487 V:55.586 Avg:52.175 Global:51.184 kb/s:3953.19

encoded 98022 frames, 8.51 fps, 3953.19 kb/s


Год выпуска: 2007
Страна: Россия
Жанр: полнометражный мультфильм, комедия, приключения, семейный
Продолжительность: 01:19:31
Перевод: Не требуется
Режиссер:
Владимир Торопчин
Роли озвучивали:
Олег Табаков, Анатолий Петров, Сергей Маковецкий, Валерий Соловьев, Екатерина Гороховская, Андрей Толубеев
Описание:
Славится земля русская богатырями богатырскими да разбойниками разбойничьими… А сверху всего князь княжеский сидит, за всем следит и порядок наводит, если нужно. Да только не всегда выходит у князя так, как нужно — правильно. Вот и сейчас — с богатырём поругался, да от Соловья Разбойника урон потерпел немалый: увёл бандит окаянный казну государственную прямо из-под носа! Что делать князю? А ничего особенного — на то он и князь, чтоб из любой ситуации выход найти! Вот и отправились князь с Ильёй на поиски похищенного, а за ними вслед увязалась корреспондентка летописи «Новая береста». А дорога непростая выдалась, до самого Царьграда довела, где встретил их Император Византийский, да только незадача вышла — повздорили наши герои с императором этим, и заключил он против Князя Киевского и Земель русских союз с Соловьем Разбойником…

Доп. информация: -=Раздача ведется в промежуток с 7:00 по 19:00 по Московскому времени=-

Качество: Blu-ray Rip
Формат: MKV
Видео кодек: H.264
Аудио кодек: DTS
Видео: MPEG-4 AVC (H264) / 3938 kbps / 1920х1036 / 23,976 fps / High Profile 4.1 / Bit/(Pixel*Frame) 0.083
Аудио: DTS 3/2 (L,C,R,l,r) + LFE ch / 48 kHz / 24 bit / ~1536.00 kbps avg

Семпл "Илья Муромец и Соловей Разбойник" (2007)

I:\Animation\Три богатыря\Илья Муромец и Соловей Разбойник (2007) 1920x1036 BDRip by -=mallaigne=-.mkv
General
Unique ID : 253576540201164133642592384522854214501 (0xBEC510B0BC0465469628E4687D122B65)
Complete name : I:\Animation\Три богатыря\Илья Муромец и Соловей Разбойник (2007) 1920x1036 BDRip by -=mallaigne=-.mkv
Format : Matroska
Format version : Version 2
File size : 2.90 GiB
Duration : 1h 19mn
Overall bit rate : 5 219 Kbps
Movie name : ripped by -=mallaigne=-
Encoded date : UTC 2012-02-24 10:49:18
Writing application : mkvmerge v5.3.0 ('I could have danced') built on Feb 9 2012 10:38:07
Writing library : libebml v1.2.3 + libmatroska v1.3.0
Video #1
ID : 1
Format : AVC
Format/Info : Advanced Video Codec
Format profile : High@L4.1
Format settings, CABAC : Yes
Format settings, ReFrames : 4 frames
Codec ID : V_MPEG4/ISO/AVC
Duration : 1h 19mn
Bit rate : 4 065 Kbps
Width : 1 920 pixels
Height : 1 036 pixels
Display aspect ratio : 1.853
Frame rate : 23.976 fps
Color space : YUV
Chroma subsampling : 4:2:0
Bit depth : 8 bits
Scan type : Progressive
Bits/(Pixel*Frame) : 0.085
Stream size : 2.20 GiB (76%)
Writing library : x264 core 120 r2164 da19765
Encoding settings : cabac=1 / ref=4 / deblock=1:-1:-1 / analyse=0x3:0x113 / me=umh / subme=11 / psy=1 / psy_rd=0.50:0.00 / mixed_ref=1 / me_range=32 / chroma_me=1 / trellis=2 / 8x8dct=1 / cqm=0 / deadzone=21,11 / fast_pskip=0 / chroma_qp_offset=-2 / threads=12 / sliced_threads=0 / nr=0 / decimate=0 / interlaced=0 / bluray_compat=0 / constrained_intra=0 / bframes=10 / b_pyramid=2 / b_adapt=2 / b_bias=0 / direct=3 / weightb=1 / open_gop=0 / weightp=2 / keyint=240 / keyint_min=23 / scenecut=40 / intra_refresh=0 / rc_lookahead=40 / rc=2pass / mbtree=1 / bitrate=4065 / ratetol=1.0 / qcomp=0.70 / qpmin=0 / qpmax=69 / qpstep=4 / cplxblur=20.0 / qblur=0.5 / ip_ratio=1.40 / aq=1:0.60
Language : Russian
Default : Yes
Forced : No
Color primaries : BT.709-5, BT.1361, IEC 61966-2-4, SMPTE RP177
Transfer characteristics : BT.709-5, BT.1361
Matrix coefficients : BT.709-5, BT.1361, IEC 61966-2-4 709, SMPTE RP177
Audio #2
ID : 2
Format : DTS
Format/Info : Digital Theater Systems
Codec ID : A_DTS
Duration : 1h 19mn
Bit rate mode : Constant
Bit rate : 1 152 Kbps
Channel(s) : 6 channels
Channel positions : Front: L C R, Side: L R, LFE
Sampling rate : 48.0 KHz
Bit depth : 24 bits
Compression mode : Lossy
Stream size : 655 MiB (22%)
Language : Russian
Default : Yes
Forced : No
x264 [info]: frame I:1384 Avg QP:11.16 size:315938 PSNR Mean Y:53.63 U:55.70 V:55.94 Avg:54.14 Global:53.70
x264 [info]: frame P:34265 Avg QP:17.40 size: 37299 PSNR Mean Y:52.06 U:55.16 V:55.38 Avg:52.58 Global:51.55
x264 [info]: frame B:78743 Avg QP:21.07 size: 9002 PSNR Mean Y:51.07 U:54.15 V:54.38 Avg:51.60 Global:50.97
x264 [info]: consecutive B-frames: 7.4% 4.7% 17.8% 42.6% 15.3% 7.3% 1.4% 1.1% 1.1% 0.5% 0.8%
x264 [info]: mb I I16..4: 20.0% 27.5% 52.5%
x264 [info]: mb P I16..4: 2.4% 3.5% 2.9% P16..4: 14.0% 9.0% 4.0% 0.0% 0.0% skip:64.2%
x264 [info]: mb B I16..4: 0.4% 0.4% 0.3% B16..8: 11.8% 4.0% 1.0% direct: 1.0% skip:81.1% L0:45.0% L1:47.1% BI: 7.9%
x264 [info]: 8x8 transform intra:35.9% inter:33.2%
x264 [info]: direct mvs spatial:96.6% temporal:3.4%
x264 [info]: coded y,uvDC,uvAC intra: 51.8% 62.4% 52.9% inter: 5.1% 6.3% 4.6%
x264 [info]: i16 v,h,dc,p: 69% 19% 4% 8%
x264 [info]: i8 v,h,dc,ddl,ddr,vr,hd,vl,hu: 13% 27% 19% 6% 6% 5% 8% 6% 11%
x264 [info]: i4 v,h,dc,ddl,ddr,vr,hd,vl,hu: 22% 20% 19% 6% 7% 6% 6% 6% 6%
x264 [info]: i8c dc,h,v,p: 37% 40% 16% 6%
x264 [info]: Weighted P-Frames: Y:1.5% UV:1.0%
x264 [info]: ref P L0: 57.9% 4.4% 20.7% 13.6% 3.4% 0.0%
x264 [info]: ref B L0: 81.1% 12.9% 6.0%
x264 [info]: ref B L1: 91.7% 8.3%
x264 [info]: SSIM Mean Y:0.9969203 (25.115db)
x264 [info]: PSNR Mean Y:51.400 U:54.469 V:54.701 Avg:51.923 Global:51.162 kb/s:4064.73

encoded 114392 frames, 8.01 fps, 4064.73 kb/s


Год выпуска: 2010
Страна: Россия
Жанр: полнометражный мультфильм, комедия, приключения, семейный
Продолжительность: 01:16:32
Перевод: Не требуется
Режиссер:
Сергей Глезин
Роли озвучивали:
Дмитрий Быковский, Валерий Соловьев, Олег Куликович, Сергей Маковецкий, Анна Геллер, Дмитрий Высоцкий, Константин Бронзит, Мария Цветкова, Елена Шульман, Лия Медведева, Игорь Шибанов, Анатолий Петров
Описание:
Легендарная Шамаханская царица, которая сводила с ума многих царей и простых смертных, положила свой глаз и на Киевского князя. Тот заболел любовью странной по ней. Но чтобы доставить в целости и сохранности эту чудо-богиню в Киев-Град, срочно из отпуска вызывают всех троих, уже знакомых нам, богатырей: Алёшу Поповича, Добрыню Никитича и Илью Муромца. Теперь троица должна решить, как быть дальше? Вроде бы и слухи о царице ходят нелестные, и князя жаль.

Доп. информация: -=Раздача ведется в промежуток с 7:00 по 19:00 по Московскому времени=-

Качество: Blu-ray Rip
Формат: MKV
Видео кодек: H.264
Аудио кодек: DTS
Видео: MPEG-4 AVC (H264) / 4098 kbps / 1920х1080 / 24,000 fps / High Profile 4.1 / Bit/(Pixel*Frame) 0.082
Аудио: DTS 3/2 (L,C,R,l,r) + LFE ch / 48 kHz / 24 bit / ~1536.00 kbps avg

Семпл "Три богатыря и Шамаханская Царица" (2010)

I:\Animation\Три богатыря\Три богатыря и Шамаханская Царица (2010) 1920x1080 BDRip by -=mallaigne=-.mkv
General
Unique ID : 254365097349728361026079927320759987728 (0xBF5CEF8F3B22D272B9AEEB6DD9876E10)
Complete name : I:\Animation\Три богатыря\Три богатыря и Шамаханская Царица (2010) 1920x1080 BDRip by -=mallaigne=-.mkv
Format : Matroska
Format version : Version 2
File size : 3.00 GiB
Duration : 1h 16mn
Overall bit rate : 5 609 Kbps
Movie name : ripped by -=mallaigne=-
Encoded date : UTC 2012-02-23 12:16:45
Writing application : mkvmerge v5.3.0 ('I could have danced') built on Feb 9 2012 10:38:07
Writing library : libebml v1.2.3 + libmatroska v1.3.0
Video #1
ID : 1
Format : AVC
Format/Info : Advanced Video Codec
Format profile : High@L4.1
Format settings, CABAC : Yes
Format settings, ReFrames : 4 frames
Codec ID : V_MPEG4/ISO/AVC
Duration : 1h 16mn
Bit rate : 4 098 Kbps
Width : 1 920 pixels
Height : 1 080 pixels
Display aspect ratio : 16:9
Frame rate : 24.000 fps
Color space : YUV
Chroma subsampling : 4:2:0
Bit depth : 8 bits
Scan type : Progressive
Bits/(Pixel*Frame) : 0.082
Stream size : 2.13 GiB (71%)
Writing library : x264 core 120 r2164 da19765
Encoding settings : cabac=1 / ref=4 / deblock=1:-1:-1 / analyse=0x3:0x113 / me=umh / subme=11 / psy=1 / psy_rd=0.50:0.00 / mixed_ref=1 / me_range=32 / chroma_me=1 / trellis=2 / 8x8dct=1 / cqm=0 / deadzone=21,11 / fast_pskip=0 / chroma_qp_offset=-2 / threads=12 / sliced_threads=0 / nr=0 / decimate=0 / interlaced=0 / bluray_compat=0 / constrained_intra=0 / bframes=10 / b_pyramid=2 / b_adapt=2 / b_bias=0 / direct=3 / weightb=1 / open_gop=0 / weightp=2 / keyint=240 / keyint_min=23 / scenecut=40 / intra_refresh=0 / rc_lookahead=40 / rc=2pass / mbtree=1 / bitrate=4098 / ratetol=1.0 / qcomp=0.70 / qpmin=0 / qpmax=69 / qpstep=4 / cplxblur=20.0 / qblur=0.5 / ip_ratio=1.40 / aq=1:0.60
Language : Russian
Default : Yes
Forced : No
Color primaries : BT.709-5, BT.1361, IEC 61966-2-4, SMPTE RP177
Transfer characteristics : BT.709-5, BT.1361
Matrix coefficients : BT.709-5, BT.1361, IEC 61966-2-4 709, SMPTE RP177
Audio #2
ID : 2
Format : DTS
Format/Info : Digital Theater Systems
Codec ID : A_DTS
Duration : 1h 16mn
Bit rate mode : Constant
Bit rate : 1 510 Kbps
Channel(s) : 6 channels
Channel positions : Front: L C R, Side: L R, LFE
Sampling rate : 48.0 KHz
Bit depth : 24 bits
Compression mode : Lossy
Stream size : 826 MiB (27%)
Language : Russian
Default : Yes
Forced : No
x264 [info]: frame I:1089 Avg QP: 9.50 size:336953 PSNR Mean Y:55.98 U:59.83 V:60.01 Avg:56.84 Global:56.12
x264 [info]: frame P:33479 Avg QP:15.05 size: 40416 PSNR Mean Y:54.29 U:58.29 V:58.44 Avg:55.04 Global:53.30
x264 [info]: frame B:75641 Avg QP:19.03 size: 8360 PSNR Mean Y:52.81 U:56.83 V:57.00 Avg:53.54 Global:52.73
x264 [info]: consecutive B-frames: 8.6% 5.7% 13.7% 39.5% 12.0% 13.2% 2.2% 2.0% 1.1% 0.8% 1.2%
x264 [info]: mb I I16..4: 23.6% 27.6% 48.8%
x264 [info]: mb P I16..4: 2.7% 5.2% 3.9% P16..4: 18.9% 8.4% 3.8% 0.0% 0.0% skip:57.0%
x264 [info]: mb B I16..4: 0.7% 0.6% 0.4% B16..8: 16.6% 3.6% 0.8% direct: 1.1% skip:76.2% L0:50.5% L1:43.3% BI: 6.2%
x264 [info]: 8x8 transform intra:39.8% inter:31.8%
x264 [info]: direct mvs spatial:95.0% temporal:5.0%
x264 [info]: coded y,uvDC,uvAC intra: 56.8% 61.0% 46.9% inter: 5.0% 7.8% 5.2%
x264 [info]: i16 v,h,dc,p: 42% 24% 17% 16%
x264 [info]: i8 v,h,dc,ddl,ddr,vr,hd,vl,hu: 19% 19% 27% 5% 5% 5% 5% 6% 9%
x264 [info]: i4 v,h,dc,ddl,ddr,vr,hd,vl,hu: 26% 19% 25% 5% 6% 5% 5% 5% 5%
x264 [info]: i8c dc,h,v,p: 33% 40% 18% 9%
x264 [info]: Weighted P-Frames: Y:1.5% UV:1.2%
x264 [info]: ref P L0: 61.8% 3.5% 19.3% 12.9% 2.5% 0.0%
x264 [info]: ref B L0: 82.9% 11.7% 5.4%
x264 [info]: ref B L1: 91.2% 8.8%
x264 [info]: SSIM Mean Y:0.9970643 (25.323db)
x264 [info]: PSNR Mean Y:53.290 U:57.303 V:57.464 Avg:54.029 Global:52.917 kb/s:4098.23

encoded 110209 frames, 7.90 fps, 4098.23 kb/s
info [Профиль]  [ЛС] 

FuriouSAngeL

Пол: Пол:Муж

Стаж: 5 лет 5 месяцев

Сообщений: 1830

Германия
Рейтинг

post 24-Фев-2012 23:01 (спустя 8 часов) [-]0[+]

[Цитировать] 

Все мульты от анимационной студии Мельница просто супер kolob_117

_________________
info [Профиль]  [ЛС] 

Hendo

Пол: Пол:Муж

Стаж: 7 лет 2 месяца

Сообщений: 37

Украина
Рейтинг

post 25-Фев-2012 03:09 (спустя 4 часа) [-]0[+]

[Цитировать] 

Первые три супер...остальные УГ.
info [Профиль]  [ЛС] 
Показать сообщения:    
Ответить на тему

Текущее время: 08-Дек 02:20

Часовой пояс: GMT + 4



Вы не можете начинать темы
Вы не можете отвечать на сообщения
Вы не можете редактировать свои сообщения
Вы не можете удалять свои сообщения
Вы не можете голосовать в опросах
Вы не можете прикреплять файлы к сообщениям
Вы не можете скачивать файлы