Ошибка

Реутов ТВ (2 сезон, 13 серий из 13) [2011-2012 г., Юмор, WEB-DLRip]

Страницы:  1, 2  След.

Ответить на тему
 
Автор Сообщение

_Knyazev_

Пол: Пол:Муж

Стаж: 5 лет 2 месяца

Сообщений: 38

Россия
Рейтинг

post 19-Фев-2012 23:13 2[+]

[Цитировать] 

Реутов ТВ

Годы выпуска: 2011 - 2012
Страна: Россия
Жанр: ТВ-Шоу, Юмор
Выпуски: 1-13 из 13 (полный 2-ой сезон)
Продолжительность: ~ 25 минут каждая серия.
Перевод: не требуется
Режиссер: Телеканал 2x2
Ведущие:
  • Владимир Маркони (Анатолий Шмель)
  • Сергей Мезенцев (Илья Огурцов)

Описание: Реутов ТВ – новая программа ставшая популярной на канале 2x2 и на Youtube создателей проектов Подольск ТВ и Реутов ТВ. Сарказм, жесткий стёб над участниками и подражание провинциальному телевидению – отличительные характеристики этой программы.

Релиз группа: by Knyazev
Качество: WEBDL-Rip
Формат: AVI
Видео кодек: Xvid
Аудио кодек: MP3
Видео: 720x576, 25fps, 1881kbps
Аудио: 2ch, 128kbps, 44.1KHz
Бессменные корреспонденты телеканала «Реутов ТВ» снова в эфире! В субботу вы увидите новое беспрецедентное журналистское расследование. Что такое гомосексуализм? Можно ли им заразиться, просто выйдя на улицу? И самое главное: существует ли лекарство от этой чумы XX века?!

Код:

General
Complete name                            : D:\PeyToB_TB_S02\PeyToB_TB_s02e01.avi
Format                                   : AVI
Format/Info                              : Audio Video Interleave
File size                                : 307 MiB
Duration                                 : 21mn 15s
Overall bit rate                         : 2 021 Kbps
Writing application                      : Lavf52.94.0

Video
ID                                       : 0
Format                                   : xvid
Codec ID                                 : xvid
Duration                                 : 21mn 15s
Bit rate                                 : 1 881 Kbps
Width                                    : 720 pixels
Height                                   : 576 pixels
Display aspect ratio                     : 5:4
Frame rate                               : 25.000 fps
Standard                                 : PAL
Bits/(Pixel*Frame)                       : 0.181
Stream size                              : 286 MiB (93%)

Audio
ID                                       : 1
Format                                   : MPEG Audio
Format version                           : Version 1
Format profile                           : Layer 3
Mode                                     : Joint stereo
Mode extension                           : MS Stereo
Codec ID                                 : 55
Codec ID/Hint                            : MP3
Duration                                 : 21mn 15s
Bit rate mode                            : Constant
Bit rate                                 : 128 Kbps
Channel(s)                               : 2 channels
Sampling rate                            : 44.1 KHz
Compression mode                         : Lossy
Stream size                              : 19.5 MiB (6%)
Alignment                                : Aligned on interleaves
Interleave, duration                     : 26 ms (0.65 video frame)
Writing library                          : LAME3.98.4
21 декабря 2012 года наступит конец света. Каким он будет? Сколько беды принесет? На что рассчитывать среднестатистическому россиянину? Ответы на эти и другие вопросы ищите в новом журналистском расследовании «Реутов ТВ». ВНИМАНИЕ! Впервые в истории телевидения мы озвучим реальный способ, как спасти себя и своих близкий в момент всемирной катастрофы! Не пропустите!

Код:

General
Complete name                            : D:\PeyToB_TB_S02\PeyToB_TB_s02e02.avi
Format                                   : AVI
Format/Info                              : Audio Video Interleave
File size                                : 359 MiB
Duration                                 : 24mn 50s
Overall bit rate                         : 2 022 Kbps
Writing application                      : Lavf52.94.0

Video
ID                                       : 0
Format                                   : xvid
Codec ID                                 : xvid
Duration                                 : 24mn 50s
Bit rate                                 : 1 881 Kbps
Width                                    : 720 pixels
Height                                   : 576 pixels
Display aspect ratio                     : 5:4
Frame rate                               : 25.000 fps
Standard                                 : PAL
Bits/(Pixel*Frame)                       : 0.181
Stream size                              : 334 MiB (93%)

Audio
ID                                       : 1
Format                                   : MPEG Audio
Format version                           : Version 1
Format profile                           : Layer 3
Mode                                     : Joint stereo
Mode extension                           : MS Stereo
Codec ID                                 : 55
Codec ID/Hint                            : MP3
Duration                                 : 24mn 50s
Bit rate mode                            : Constant
Bit rate                                 : 128 Kbps
Channel(s)                               : 2 channels
Sampling rate                            : 44.1 KHz
Compression mode                         : Lossy
Stream size                              : 22.7 MiB (6%)
Alignment                                : Aligned on interleaves
Interleave, duration                     : 26 ms (0.65 video frame)
Writing library                          : LAME3.98.4
Социологическое исследование показало, что реутовский мужчины в большинстве случаев используют телевизор для просмотра порно! Что этому способствует? Кому это выгодно? Журналисты «Реутов ТВ» нашли ответы на эти, и другие, волнующие общественность, вопросы. ВНИМАНИЕ! ВЫПУСК СОДЕРЖИТ ЗАШКАЛИВАЮЩЕЕ КОЛИЧЕСТВО ПОРНОГРАФИИ! + БОНУС: интервью с настоящей порнозвездой!

Код:

General
Complete name                            : D:\PeyToB_TB_S02\PeyToB_TB_s02e03.avi
Format                                   : AVI
Format/Info                              : Audio Video Interleave
File size                                : 359 MiB
Duration                                 : 25mn 18s
Overall bit rate                         : 1 981 Kbps
Writing application                      : Lavf52.94.0

Video
ID                                       : 0
Format                                   : xvid
Codec ID                                 : xvid
Duration                                 : 25mn 18s
Bit rate                                 : 1 841 Kbps
Width                                    : 720 pixels
Height                                   : 576 pixels
Display aspect ratio                     : 5:4
Frame rate                               : 25.000 fps
Standard                                 : PAL
Bits/(Pixel*Frame)                       : 0.178
Stream size                              : 333 MiB (93%)

Audio
ID                                       : 1
Format                                   : MPEG Audio
Format version                           : Version 1
Format profile                           : Layer 3
Mode                                     : Joint stereo
Codec ID                                 : 55
Codec ID/Hint                            : MP3
Duration                                 : 25mn 18s
Bit rate mode                            : Constant
Bit rate                                 : 128 Kbps
Channel(s)                               : 2 channels
Sampling rate                            : 44.1 KHz
Compression mode                         : Lossy
Stream size                              : 23.2 MiB (6%)
Alignment                                : Aligned on interleaves
Interleave, duration                     : 26 ms (0.65 video frame)
Writing library                          : LAME3.98.4
В редакцию нашего телеканала пришли результаты исследования телерейтинга. Оказалось, что «Реутов ТВ» занимает последнюю строчку по популярности, среди других российский телеканалов! Огурцов и Шмель в ярости: как такой замечательный и профессиональный канал как «Реутов ТВ» мог занять последнее место? В этот раз журналисты решили найти самые действенные способы, чтобы повысить свой рейтинг, и свергнуть с телеолимпа Первый канал!

Код:

General
Complete name                            : D:\PeyToB_TB_S02\PeyToB_TB_s02e04.avi
Format                                   : AVI
Format/Info                              : Audio Video Interleave
File size                                : 373 MiB
Duration                                 : 25mn 57s
Overall bit rate                         : 2 010 Kbps
Writing application                      : Lavf52.94.0

Video
ID                                       : 0
Format                                   : xvid
Codec ID                                 : xvid
Duration                                 : 25mn 56s
Bit rate                                 : 1 870 Kbps
Width                                    : 720 pixels
Height                                   : 576 pixels
Display aspect ratio                     : 5:4
Frame rate                               : 25.000 fps
Standard                                 : PAL
Bits/(Pixel*Frame)                       : 0.180
Stream size                              : 347 MiB (93%)

Audio
ID                                       : 1
Format                                   : MPEG Audio
Format version                           : Version 1
Format profile                           : Layer 3
Mode                                     : Joint stereo
Mode extension                           : MS Stereo
Codec ID                                 : 55
Codec ID/Hint                            : MP3
Duration                                 : 25mn 57s
Bit rate mode                            : Constant
Bit rate                                 : 128 Kbps
Channel(s)                               : 2 channels
Sampling rate                            : 44.1 KHz
Compression mode                         : Lossy
Stream size                              : 23.8 MiB (6%)
Alignment                                : Aligned on interleaves
Interleave, duration                     : 26 ms (0.65 video frame)
Помимо реутовчан, в нашей стране живет немало россиян. Но с каждым годом их становится все меньше и меньше! В чем причина утечки населения? Почему земля-матушка русская стала немила нашему человеку? Чем затянуть проклятый вентиль иммиграции? И наконец, почему в России так мало патриотизма? Илья Огурцов и Анатолий Шмель найдут ответы на все наболевшие вопросы, волнующие каждого русского патриота!

Код:

General
Complete name                            : D:\PeyToB_TB_S02\PeyToB_TB_s02e05.avi
Format                                   : AVI
Format/Info                              : Audio Video Interleave
File size                                : 342 MiB
Duration                                 : 23mn 37s
Overall bit rate                         : 2 023 Kbps
Writing application                      : Lavf52.94.0

Video
ID                                       : 0
Format                                   : xvid
Codec ID                                 : xvid
Duration                                 : 23mn 37s
Bit rate                                 : 1 882 Kbps
Width                                    : 720 pixels
Height                                   : 576 pixels
Display aspect ratio                     : 5:4
Frame rate                               : 25.000 fps
Standard                                 : PAL
Bits/(Pixel*Frame)                       : 0.182
Stream size                              : 318 MiB (93%)

Audio
ID                                       : 1
Format                                   : MPEG Audio
Format version                           : Version 1
Format profile                           : Layer 3
Mode                                     : Joint stereo
Mode extension                           : MS Stereo
Codec ID                                 : 55
Codec ID/Hint                            : MP3
Duration                                 : 23mn 37s
Bit rate mode                            : Constant
Bit rate                                 : 128 Kbps
Channel(s)                               : 2 channels
Sampling rate                            : 44.1 KHz
Compression mode                         : Lossy
Stream size                              : 21.6 MiB (6%)
Alignment                                : Aligned on interleaves
Interleave, duration                     : 26 ms (0.65 video frame)
Writing library                          : LAME3.98.4
На протяжении истории нашей страны, россияне всякий раз увлекались заразой пришедшей к нам с Запада. То рок-н-ролл, то революция, то валютная проституция. Но сегодняшнего врага россиян не встретишь на улице. Он незаметно спрятался в углу квартиры каждого из нас! И имя ему – телевизор! В этот раз корреспонденты «Реутов ТВ» попытаются найти ответы на вопросы, тревожащие любого здравомыслящего гражданина нашей родины: Как выжить в объятиях телевизора? Откуда растут корни телезависимости? Где добрая и светлая сторона отечественного телеэфира? И наконец, как рядовому россиянину слезть с этой отравленной телеиглы? Смотрите новое эксклюзивное расследование самого честного телеканала страны!

Код:

General
Complete name                            : D:\PeyToB_TB_S02\PeyToB_TB_s02e06.avi
Format                                   : AVI
Format/Info                              : Audio Video Interleave
File size                                : 389 MiB
Duration                                 : 27mn 0s
Overall bit rate                         : 2 012 Kbps
Writing application                      : Lavf52.94.0

Video
ID                                       : 0
Format                                   : xvid
Codec ID                                 : xvid
Duration                                 : 27mn 0s
Bit rate                                 : 1 872 Kbps
Width                                    : 720 pixels
Height                                   : 576 pixels
Display aspect ratio                     : 5:4
Frame rate                               : 25.000 fps
Standard                                 : PAL
Bits/(Pixel*Frame)                       : 0.181
Stream size                              : 362 MiB (93%)

Audio
ID                                       : 1
Format                                   : MPEG Audio
Format version                           : Version 1
Format profile                           : Layer 3
Mode                                     : Joint stereo
Codec ID                                 : 55
Codec ID/Hint                            : MP3
Duration                                 : 27mn 0s
Bit rate mode                            : Constant
Bit rate                                 : 128 Kbps
Channel(s)                               : 2 channels
Sampling rate                            : 44.1 KHz
Compression mode                         : Lossy
Stream size                              : 24.7 MiB (6%)
Alignment                                : Aligned on interleaves
Interleave, duration                     : 26 ms (0.65 video frame)
Writing library                          : LAME3.98.4
Агрессия – ее жертвой в наше время может стать каждый. По статистике, просто выйдя на улицу родного города, вы подвергаете свою жизнь ежедневному неоправданному риску! У вас могут отобрать деньги, сорвать с вас одежду, напоить до полусмерти и просто убить за цвет кожи! В чем причина безжалостной агрессии, и как себя защитить от нее? В этом выпуске корреспонденты «Реутов ТВ»: возьмут уроки самообороны у лучших единоборцев страны, чтобы рассказать россиянам, как защитить свою жизнь; побеседуют с сотрудниками охранных организаций, и узнают, как ухаживать за телохранителем, чтобы поддерживать его в исключительной физической форме; а также возьмут интервью у настоящего гопника! Не пропустите! ОСТОРОЖНО! ЗАШКАЛИВАЮЩЕЕ КОЛИЧЕСТВО НАСИЛИЯ!

Код:

General
Complete name                            : D:\PeyToB_TB_S02\PeyToB_TB_s02e07.avi
Format                                   : AVI
Format/Info                              : Audio Video Interleave
File size                                : 381 MiB
Duration                                 : 26mn 22s
Overall bit rate                         : 2 021 Kbps
Writing application                      : Lavf52.94.0

Video
ID                                       : 0
Format                                   : xvid
Codec ID                                 : xvid
Duration                                 : 26mn 22s
Bit rate                                 : 1 881 Kbps
Width                                    : 720 pixels
Height                                   : 576 pixels
Display aspect ratio                     : 5:4
Frame rate                               : 25.000 fps
Standard                                 : PAL
Bits/(Pixel*Frame)                       : 0.181
Stream size                              : 355 MiB (93%)

Audio
ID                                       : 1
Format                                   : MPEG Audio
Format version                           : Version 1
Format profile                           : Layer 3
Mode                                     : Joint stereo
Mode extension                           : MS Stereo
Codec ID                                 : 55
Codec ID/Hint                            : MP3
Duration                                 : 26mn 22s
Bit rate mode                            : Constant
Bit rate                                 : 128 Kbps
Channel(s)                               : 2 channels
Sampling rate                            : 44.1 KHz
Compression mode                         : Lossy
Stream size                              : 24.2 MiB (6%)
Alignment                                : Aligned on interleaves
Interleave, duration                     : 26 ms (0.65 video frame)
Writing library                          : LAME3.98.4
ВНИМАНИЕ! Не пропустите специальное обращение к телезрителям! На нашем канале появилась свободная вакансия журналиста! Хотите работать в команде профессионалов? Тогда это видеообращение для вас! В этот раз Илья Огурцов и Анатолий Шмель расскажут, и даже продемонстрируют, все плюсы работы на «Реутов ТВ»! В рамках выпуска смотрите самые скандальные интервью, вырезанные из предыдущих выпусков в рамках цензуры и банальной этики. Имена выпуска: Дмитрий Дюжев, Алан Чумак, Иван Ургант, Почемучка, Кэри-Хироюки Тагава (это который играл Шан Цунга в Смертельной битве) и настоящий ПЬЕР КАРДЕН! Не пропустите новый выпуск!

Код:

General
Complete name                            : D:\PeyToB_TB_S02\PeyToB_TB_s02e08.avi
Format                                   : AVI
Format/Info                              : Audio Video Interleave
File size                                : 361 MiB
Duration                                 : 25mn 1s
Overall bit rate                         : 2 018 Kbps
Writing application                      : Lavf52.94.0

Video
ID                                       : 0
Format                                   : xvid
Codec ID                                 : xvid
Duration                                 : 25mn 1s
Bit rate                                 : 1 877 Kbps
Width                                    : 720 pixels
Height                                   : 576 pixels
Display aspect ratio                     : 5:4
Frame rate                               : 25.000 fps
Standard                                 : PAL
Bits/(Pixel*Frame)                       : 0.181
Stream size                              : 336 MiB (93%)

Audio
ID                                       : 1
Format                                   : MPEG Audio
Format version                           : Version 1
Format profile                           : Layer 3
Mode                                     : Joint stereo
Mode extension                           : MS Stereo
Codec ID                                 : 55
Codec ID/Hint                            : MP3
Duration                                 : 25mn 1s
Bit rate mode                            : Constant
Bit rate                                 : 128 Kbps
Channel(s)                               : 2 channels
Sampling rate                            : 44.1 KHz
Compression mode                         : Lossy
Stream size                              : 22.9 MiB (6%)
Alignment                                : Aligned on interleaves
Interleave, duration                     : 26 ms (0.65 video frame)
Writing library                          : LAME3.98.4
Спустя полгода после увольнения с телевидения, Илья и Анатолий пришли к единому выводу – пришло время двигаться дальше. Ребята отправляются на поиски работы своей мечты в единственный город нашей страны, где, как известно, делать ничего не надо, а деньги текут рекой – в Москву! Смотрите в новом выпуске: Бывшие корреспонденты «Реутов ТВ» побывают в кадровом агентстве и пройдут кастинг на радио вместе с Ольгой Шелест и Ритой Митрофановой. Шмель попробует себя в искусстве гламурной фотографии, в его объектив попадут только самые сексуальные девушки и их отдельные части тела! Огурцов же, в роли настоящего диск-жокея «Огурца», зажжёт толпу на крупнейшей в России драм-анд-басс дискотеке! Удастся ли ребятам дунуть в отверстие жизненных возможностей свистульки судьбы? Ответ в новом выпуске! ВНИМАНИЕ! ЗАШКАЛИВАЮЩЕЕ КОЛИЧЕСТВО ГАСТАРБАЙТЕРОВ В КАДРЕ!

Код:

General
Complete name                            : D:\PeyToB_TB_s02e09.avi
Format                                   : AVI
Format/Info                              : Audio Video Interleave
File size                                : 385 MiB
Duration                                 : 26mn 38s
Overall bit rate                         : 2 022 Kbps
Writing application                      : Lavf52.94.0

Video
ID                                       : 0
Format                                   : xvid
Codec ID                                 : xvid
Duration                                 : 26mn 38s
Bit rate                                 : 1 881 Kbps
Width                                    : 720 pixels
Height                                   : 576 pixels
Display aspect ratio                     : 5:4
Frame rate                               : 25.000 fps
Standard                                 : PAL
Bits/(Pixel*Frame)                       : 0.181
Stream size                              : 359 MiB (93%)

Audio
ID                                       : 1
Format                                   : MPEG Audio
Format version                           : Version 1
Format profile                           : Layer 3
Mode                                     : Joint stereo
Mode extension                           : MS Stereo
Codec ID                                 : 55
Codec ID/Hint                            : MP3
Duration                                 : 26mn 38s
Bit rate mode                            : Constant
Bit rate                                 : 128 Kbps
Channel(s)                               : 2 channels
Sampling rate                            : 44.1 KHz
Compression mode                         : Lossy
Stream size                              : 24.4 MiB (6%)
Alignment                                : Aligned on interleaves
Interleave, duration                     : 26 ms (0.65 video frame)
Writing library                          : LAME3.98.4
В наши дни Интернет стал привычной средой обитания, где каждый может найти отдых для души, развлечения для тела и даже завести настоящих виртуальных друзей! Но так ли хорош Интернет? Чтобы выяснить это, корреспонденты «Реутов ТВ» протянули кабель в редакцию телеканала, и открыли свой собственный сайт, чтобы узнать мнение живого пользователя глобальной сети! Итог эксперимента неутешителен: выяснилось, что Интернет – ДРЯНЬ! Блуждая по цифровым просторам, Илья Огурцов и Анатолий Шмель не нашли ни одного приличного слова! В чем причина неприлично низкого качества Интернета? Как подружить глобальную сеть с толерантностью и обучить грамотности? ВСЯ ПРАВДА ОБ ИНТЕРНЕТЕ В НОВОМ ВЫПУСКЕ! НЕ ПРОПУСТИТЕ!

Код:

General
Complete name                            : D:\PeyToB_TB_S02\PeyToB_TB_s02e10.avi
Format                                   : AVI
Format/Info                              : Audio Video Interleave
File size                                : 347 MiB
Duration                                 : 23mn 59s
Overall bit rate                         : 2 021 Kbps
Writing application                      : Lavf52.94.0

Video
ID                                       : 0
Format                                   : xvid
Codec ID                                 : xvid
Duration                                 : 23mn 59s
Bit rate                                 : 1 881 Kbps
Width                                    : 720 pixels
Height                                   : 576 pixels
Display aspect ratio                     : 5:4
Frame rate                               : 25.000 fps
Standard                                 : PAL
Bits/(Pixel*Frame)                       : 0.181
Stream size                              : 323 MiB (93%)

Audio
ID                                       : 1
Format                                   : MPEG Audio
Format version                           : Version 1
Format profile                           : Layer 3
Mode                                     : Joint stereo
Mode extension                           : MS Stereo
Codec ID                                 : 55
Codec ID/Hint                            : MP3
Duration                                 : 23mn 59s
Bit rate mode                            : Constant
Bit rate                                 : 128 Kbps
Channel(s)                               : 2 channels
Sampling rate                            : 44.1 KHz
Compression mode                         : Lossy
Stream size                              : 22.0 MiB (6%)
Alignment                                : Aligned on interleaves
Interleave, duration                     : 26 ms (0.65 video frame)
Алкоголь - это страшный яд, который порабощает умы и резко повышает рождаемость населения. В новом расследовании о том, как избавиться от пагубной привычки закладывать за воротник, вы увидите ужасные последствия алкогольной зависимости. Настоящий журналист и гражданин Анатолий Шмель испытал на себе разрушительную силу алкоголя: пропал на полгода и сорвал интервью для федерального канала, на котором с 7и лет мечтал работать Илья Огурцов. Простит ли Илья друга? Сможет ли Анатолий вернуться к прежней жизни? Что помогает некоторым людям годами воздерживаться от выпивки? Ищите ответы в новом выпуске "Реутовского взгляда"!

Код:

General
Complete name                            : D:\PeyToB_TB_S02\PeyToB_TB_s02e11.avi
Format                                   : AVI
Format/Info                              : Audio Video Interleave
File size                                : 373 MiB
Duration                                 : 25mn 48s
Overall bit rate                         : 2 022 Kbps
Writing application                      : Lavf52.94.0

Video
ID                                       : 0
Format                                   : xvid
Codec ID                                 : xvid
Duration                                 : 25mn 48s
Bit rate                                 : 1 881 Kbps
Width                                    : 720 pixels
Height                                   : 576 pixels
Display aspect ratio                     : 5:4
Frame rate                               : 25.000 fps
Standard                                 : PAL
Bits/(Pixel*Frame)                       : 0.181
Stream size                              : 347 MiB (93%)

Audio
ID                                       : 1
Format                                   : MPEG Audio
Format version                           : Version 1
Format profile                           : Layer 3
Mode                                     : Joint stereo
Mode extension                           : MS Stereo
Codec ID                                 : 55
Codec ID/Hint                            : MP3
Duration                                 : 25mn 48s
Bit rate mode                            : Constant
Bit rate                                 : 128 Kbps
Channel(s)                               : 2 channels
Sampling rate                            : 44.1 KHz
Compression mode                         : Lossy
Stream size                              : 23.6 MiB (6%)
Alignment                                : Aligned on interleaves
Interleave, duration                     : 26 ms (0.65 video frame)
Writing library                          : LAME3.98.4
Почему Россияне не смеются даже на концертах любимых юмористов? Может быть, причина хмурых лиц наших сограждан в том, что они не ходят к смехотерапевтам? Или это воздействие вредного излучения? Как сделать лица россиян сияющими от счастья? В поисках смеха и улыбки, Илья Огурцов и Анатолий Шмель выяснят, что кроется за угрюмостью российских граждан. Смотрите в новом выпуске "Реутовский взгляд. Расследования".

Код:

General
Complete name                            : D:\PeyToB_TB_S02\PeyToB_TB_s02e12.avi
Format                                   : AVI
Format/Info                              : Audio Video Interleave
File size                                : 347 MiB
Duration                                 : 24mn 9s
Overall bit rate                         : 2 008 Kbps
Writing application                      : Lavf52.94.0

Video
ID                                       : 0
Format                                   : xvid
Codec ID                                 : xvid
Duration                                 : 24mn 9s
Bit rate                                 : 1 868 Kbps
Width                                    : 720 pixels
Height                                   : 576 pixels
Display aspect ratio                     : 5:4
Frame rate                               : 25.000 fps
Standard                                 : PAL
Bits/(Pixel*Frame)                       : 0.180
Stream size                              : 323 MiB (93%)

Audio
ID                                       : 1
Format                                   : MPEG Audio
Format version                           : Version 1
Format profile                           : Layer 3
Mode                                     : Joint stereo
Mode extension                           : MS Stereo
Codec ID                                 : 55
Codec ID/Hint                            : MP3
Duration                                 : 24mn 9s
Bit rate mode                            : Constant
Bit rate                                 : 128 Kbps
Channel(s)                               : 2 channels
Sampling rate                            : 44.1 KHz
Compression mode                         : Lossy
Stream size                              : 22.1 MiB (6%)
Alignment                                : Aligned on interleaves
Interleave, duration                     : 26 ms (0.65 video frame)
Writing library                          : LAME3.98.4
В наше время стало все труднее встретить на улицах российских городов живое человеческое общение. Целыми днями россияне чатятся, шерятся и комментят всякие глупости в своих персональных компьютерах! Почему люди сидят в социальных сетях и не ходят кататься на качелях в парке, не посещают библиотеки, выставки? В чем причина такого затворничества? Какие опасности таят в себе хитрые алгоритмы социальных сетей? Ищите ответ в новом расследовании "Реутов ТВ". Смотрите в выпуске: конференция блогеров, турнир любителей настольных игр, настоящий социальный рекламный ролик от Реутов ТВ и самый свежий анекдот от Анатолия Шмеля про Павла Дурова и Марка Цукерберга! Не пропустите!

Код:

General
Complete name                            : D:\PeyToB_TB_S02\PeyToB_TB_s02e13.avi
Format                                   : AVI
Format/Info                              : Audio Video Interleave
File size                                : 360 MiB
Duration                                 : 25mn 16s
Overall bit rate                         : 1 992 Kbps
Writing application                      : Lavf52.94.0

Video
ID                                       : 0
Format                                   : xvid
Codec ID                                 : xvid
Duration                                 : 25mn 16s
Bit rate                                 : 1 852 Kbps
Width                                    : 720 pixels
Height                                   : 576 pixels
Display aspect ratio                     : 5:4
Frame rate                               : 25.000 fps
Standard                                 : PAL
Bits/(Pixel*Frame)                       : 0.179
Stream size                              : 335 MiB (93%)

Audio
ID                                       : 1
Format                                   : MPEG Audio
Format version                           : Version 1
Format profile                           : Layer 3
Mode                                     : Joint stereo
Mode extension                           : MS Stereo
Codec ID                                 : 55
Codec ID/Hint                            : MP3
Duration                                 : 25mn 16s
Bit rate mode                            : Constant
Bit rate                                 : 128 Kbps
Channel(s)                               : 2 channels
Sampling rate                            : 44.1 KHz
Compression mode                         : Lossy
Stream size                              : 23.1 MiB (6%)
Alignment                                : Aligned on interleaves
Interleave, duration                     : 26 ms (0.65 video frame)
Writing library                          : LAME3.98.4
info [Профиль]  [ЛС] 

AstraZak

Пол: Пол:Муж

Стаж: 6 лет 11 месяцев

Сообщений: 187

Предупреждений: 1

Россия
Рейтинг

post 20-Фев-2012 09:51 (спустя 10 часов) [-]0[+]

[Цитировать] 

Молодец, тока искал, зашел на тапок и ты выложил.
info [Профиль]  [ЛС] 

_Knyazev_

Пол: Пол:Муж

Стаж: 5 лет 2 месяца

Сообщений: 38

Россия
Рейтинг

post 20-Фев-2012 10:06 (спустя 14 минут) [-]0[+]

[Цитировать] 

Спасибо Улыбаюсь

Ещё осталось 4 серии и будет полный сезон (если верить сайту телеканала 2х2)
10 - «Почему Интернет такой плохой?» - 25.02.2012
11 - «Как нам избавиться от алкоголя?» - 03.03.2012
12 - «Почему у россиян хмурые лица?» - 10.03.2012
13 - «Кто нас ловит в социальные сети?» - 17.03.2012
Новые выпуски появятся в раздаче на следующий день, после их показа по ТВ Улыбаюсь

Ещё в течении 2 часов я выложу полный 1-й сезон Реутов ТВ (14 выпусков), сейчас их конвертирую в формат Xvid (чтобы можно было смотреть на бытовых DVD/USB плеерах).

P.S: Отдельное спасибо модератору Alex Ander за одобрение раздачи! Улыбаюсь
info [Профиль]  [ЛС] 

LuisCerro

Пол: Пол:Муж

Стаж: 6 лет 4 месяца

Сообщений: 14

Россия
Рейтинг

post 20-Фев-2012 16:21 (спустя 6 часов) [-]0[+]

[Цитировать] 

Спасибо за релиз.
info [Профиль]  [ЛС] 

romius30

Пол: Пол:Муж

Стаж: 7 лет 1 месяц

Сообщений: 174

Украина
Рейтинг

post 20-Фев-2012 16:24 (спустя 2 минуты) [-]0[+]

[Цитировать] 

СПАСИБО БОЛЬШОЕ!) kolob_128

_________________
Процессор - Intel Core i5-3470 3.2GHz
Материнская плата - Asus P8Z68-V PRO/GEN3
Видеокарта - MSI GTX970 Gaming 4G
Оперативная память - Corsair DDR3-1600 8192MB PC3-12800 (Kit of 2x4098) Black
Жесткий диск - Western Digital Caviar Black 500GB 7200rpm 64MB
БП - Chieftec CTG-600-80P
info [Профиль]  [ЛС] 

_Knyazev_

Пол: Пол:Муж

Стаж: 5 лет 2 месяца

Сообщений: 38

Россия
Рейтинг

post 20-Фев-2012 17:14 (спустя 50 минут) [-]0[+]

[Цитировать] 

10-серия будет мега-угарной Смеюсь
посмотрите анонс предстоящей серии: http://youtu.be/ljfI4raGIQg

Смеюсь
info [Профиль]  [ЛС] 

_Knyazev_

Пол: Пол:Муж

Стаж: 5 лет 2 месяца

Сообщений: 38

Россия
Рейтинг

post 26-Фев-2012 13:10 (спустя 5 дней) [-]0[+]

[Цитировать] 

Добавил 10-ую серию в раздачу!
info [Профиль]  [ЛС] 

Sammo Hung

Пол: Пол:Муж

Стаж: 6 лет 11 месяцев

Сообщений: 714

Предупреждений: 3

СССР
Рейтинг

post 26-Фев-2012 18:49 (спустя 5 часов) [-]0[+]

[Цитировать] 

8 сидо и качаю часа 3 - и 10 ую серию
info [Профиль]  [ЛС] 

pyzko

Пол: Пол:Муж

Стаж: 6 лет 8 месяцев

Сообщений: 14

Рейтинг

post 04-Мар-2012 14:51 (спустя 6 дней) [-]0[+]

[Цитировать] 

11я серия будет?
info [Профиль]  [ЛС] 

_Knyazev_

Пол: Пол:Муж

Стаж: 5 лет 2 месяца

Сообщений: 38

Россия
Рейтинг

post 04-Мар-2012 17:25 (спустя 2 часа 33 минуты) [-]0[+]

[Цитировать] 

pyzko писал(а):

11я серия будет?
Конечно будет) уже ;-)

Добавлена 11 серия!
info [Профиль]  [ЛС] 

pyzko

Пол: Пол:Муж

Стаж: 6 лет 8 месяцев

Сообщений: 14

Рейтинг

post 04-Мар-2012 17:35 (спустя 10 минут) [-]0[+]

[Цитировать] 

спс
info [Профиль]  [ЛС] 

_Knyazev_

Пол: Пол:Муж

Стаж: 5 лет 2 месяца

Сообщений: 38

Россия
Рейтинг

post 10-Мар-2012 09:48 (спустя 5 дней) [-]0[+]

[Цитировать] 

Добавлена 12 серия!
info [Профиль]  [ЛС] 

zombiekawaii

Стаж: 6 лет 11 месяцев

Сообщений: 222

Рейтинг

post 10-Мар-2012 17:54 (спустя 8 часов) [-]0[+]

[Цитировать] 

К нам на факультет приходили дня три назад. Сергей хотел взять у меня интервью, но понял, что я его узнал, и пошёл искать новые жертвы. Забавный он!
info [Профиль]  [ЛС] 

StaySic

Пол: Пол:Муж

Стаж: 7 лет 3 месяца

Сообщений: 174

Россия
Рейтинг

post 10-Мар-2012 22:33 (спустя 4 часа) [-]-1[+]

[Цитировать] 

да что же это такое, куда модеры смотрят, которые раздачи проверяют ?! )

WEB-DLRip - это контент с AppleStore

WEBRip - это как раз то, что в этой раздаче, т.е. видео с YouTube

_________________
-= You'Re JusT a CoPy oF An ImiTaTioN ... =-
info [Профиль]  [ЛС] 

_Knyazev_

Пол: Пол:Муж

Стаж: 5 лет 2 месяца

Сообщений: 38

Россия
Рейтинг

post 10-Мар-2012 23:00 (спустя 26 минут) [-]0[+]

[Цитировать] 

видео с Youtube? уверены?
вы ошибаетесь.

Все выпуски я выкачиваю с офф. сайта программы, а затем их конвертирую в формат Xvid.
info [Профиль]  [ЛС] 

StaySic

Пол: Пол:Муж

Стаж: 7 лет 3 месяца

Сообщений: 174

Россия
Рейтинг

post 11-Мар-2012 00:03 (спустя 1 час 3 минуты) [-]-1[+]

[Цитировать] 

_Knyazev_ писал(а):

видео с Youtube? уверены?
вы ошибаетесь.

Все выпуски я выкачиваю с офф. сайта программы, а затем их конвертирую в формат Xvid.
смысл тот же, это WEBRip, но никак не WEB-DLRip! почитайте про формат качества этот. WEB-DLRip это контент AppleStore ...

_________________
-= You'Re JusT a CoPy oF An ImiTaTioN ... =-
info [Профиль]  [ЛС] 

_Knyazev_

Пол: Пол:Муж

Стаж: 5 лет 2 месяца

Сообщений: 38

Россия
Рейтинг

post 11-Мар-2012 00:50 (спустя 47 минут) [-]0[+]

[Цитировать] 

WEB-DLRip - Рип, сделанный с интернет-трансляции.

А WEB-DLRip запатентован компанией Apple? Я думаю, что нет.
info [Профиль]  [ЛС] 

StaySic

Пол: Пол:Муж

Стаж: 7 лет 3 месяца

Сообщений: 174

Россия
Рейтинг

post 11-Мар-2012 03:05 (спустя 2 часа 15 минут) [-]-1[+]

[Цитировать] 

ну если судить по вашему, тогда с YouTube'a тоже WEB-DLRip получается ) ладно, дело ваше ...

_________________
-= You'Re JusT a CoPy oF An ImiTaTioN ... =-
info [Профиль]  [ЛС] 

_Knyazev_

Пол: Пол:Муж

Стаж: 5 лет 2 месяца

Сообщений: 38

Россия
Рейтинг

post 19-Мар-2012 05:58 (спустя 8 дней) [-]0[+]

[Цитировать] 

Добавил последнюю, 13-ую серию Реутов ТВ.
Всё. 2-ой сезон завершён. Ждём следующего)
info [Профиль]  [ЛС] 

Danny92

Пол: Пол:Муж

Стаж: 4 года 11 месяцев

Сообщений: 209

Россия
Рейтинг

post 19-Мар-2012 23:25 (спустя 17 часов) [-]-3[+]

[Цитировать] 

Имбицильная передача какая то)))
info [Профиль]  [ЛС] 

Ristarchik

Пол: Пол:Муж

Стаж: 5 лет 5 месяцев

Сообщений: 400

Россия
Рейтинг

post 19-Мар-2012 23:52 (спустя 26 минут) [-]0[+]

[Цитировать] 

хм, в конце 13 сказали про продолжение... это типо уже следующий сезон? или же ещё часть будет?

_________________
Всё, что вы видите, может быть неправдой! Даже если вы сплюнете три раза через правое плечо!!
Моя скромная раздачка
Мой M A L (MyAnimeList)
info [Профиль]  [ЛС] 

_Knyazev_

Пол: Пол:Муж

Стаж: 5 лет 2 месяца

Сообщений: 38

Россия
Рейтинг

post 20-Мар-2012 00:36 (спустя 43 минуты) [-]0[+]

[Цитировать] 

да, будет 3 сезон... но пока неизвестно когда... я думаю осенью он уже стартует)
info [Профиль]  [ЛС] 

Ristarchik

Пол: Пол:Муж

Стаж: 5 лет 5 месяцев

Сообщений: 400

Россия
Рейтинг

post 20-Мар-2012 20:11 (спустя 19 часов) [-]0[+]

[Цитировать] 

ок.... ждёмс kolob_146

_________________
Всё, что вы видите, может быть неправдой! Даже если вы сплюнете три раза через правое плечо!!
Моя скромная раздачка
Мой M A L (MyAnimeList)
info [Профиль]  [ЛС] 

Tolich

Пол: Пол:Муж

Стаж: 7 лет 8 месяцев

Сообщений: 110

Австралия
Рейтинг

post 23-Мар-2012 20:42 (спустя 3 дня) [-]0[+]

[Цитировать] 

первые серии просто шикарные! ржал до слез. Сделано великолепно и тонкостями, которые если замечаешь, просто радуешься и удивляешься как они додумались до этого Улыбаюсь)

Последние 3-4 не очень! но 13-ю не смотрел пока! Улыбаюсь

Ждем третий сезон!

_________________
info [Профиль]  [ЛС] 

Tolich

Пол: Пол:Муж

Стаж: 7 лет 8 месяцев

Сообщений: 110

Австралия
Рейтинг

post 19-Май-2012 18:59 (спустя 1 месяц 26 дней) [-]0[+]

[Цитировать] 

а когда будет 3 сезон?? Улыбаюсь

_________________
info [Профиль]  [ЛС] 
Показать сообщения:    
Ответить на тему

Текущее время: 04-Дек 18:18

Часовой пояс: GMT + 4



Вы не можете начинать темы
Вы не можете отвечать на сообщения
Вы не можете редактировать свои сообщения
Вы не можете удалять свои сообщения
Вы не можете голосовать в опросах
Вы не можете прикреплять файлы к сообщениям
Вы не можете скачивать файлы