Ошибка

Уральские пельмени. Год в сапогах [2012 г., Юмор, IPTVRip]

Ответить на тему
 
Автор Сообщение

Mephi1000fel

Пол: Пол:Муж

Стаж: 5 лет 2 месяца

Сообщений: 286

СССР
Рейтинг

post 19-Фев-2012 15:47 1[+]

[Цитировать] 

Уральские пельмени. Год в сапогах

Год выпуска: 2012
Страна: Россия
Жанр: Юмор
Продолжительность: 01:09:41
В ролях:
  • Вячеслав Мясников
  • Андрей Рожков
  • Дмитрий Соколов
  • Юлия Матюхина-Михалкова
  • Александр Попов
  • Сергей Исаев
  • Максим Ярица
  • Дмитрий Брекоткин
  • Сергей Калугин
  • Сергей Ершов
  • Сергей Нетиевский

Описание: Всё, что вы хотели знать о мужчинах, но боялись спросить! Не пропусти веселые вариации на тему «Упал-проржался!».
- в казарме
- кому повысить зарплату?
- организация дня рождения жены генерала
- песня для тех, кто служил
- съёмки фильма о войне
- модернизация армии (замена "ура")
- у мужа в 12 часов заканчивается кодировка от алкоголизма
- музыкальная рота
- генерал и контрактник
- сказка "Аленький цветочек"
- разговор об армии
- финальная песня "Гимн ВДВ" (в исполнении группы "Голубые береты")

Качество: IPTVRip
Формат: AVI
Видео кодек: XviD
Аудио кодек: MPEG Audio
Видео: 704x400 (1.76:1), 25 fps, XviD build 64, 1499 kbps avg, 0.21 bit/pixel
Аудио: 48 kHz, MPEG Layer 3, 1 ch, 96.00 kbps avg

Код:

Общее
Полное имя                       : F:\Pelmeni.God.v.sapogah.avi
Формат                           : AVI
Формат/Информация                : Audio Video Interleave
Размер файла                     : 800 Мбайт
Продолжительность                : 1 ч. 9 м.
Общий поток                      : 1605 Кбит/сек
Библиотека кодирования           : VirtualDub build 32842/release

Видео
Идентификатор                    : 0
Формат                           : MPEG-4 Visual
Профиль формата                  : Advanced Simple@L5
Параметр BVOP формата            : 2
Параметр QPel формата            : Нет
Параметр GMC формата             : Без точки перехода
Параметр матрицы формата         : Default (MPEG)
Идентификатор кодека             : XVID
Идентификатор кодека/Подсказка   : XviD
Продолжительность                : 1 ч. 9 м.
Битрейт                          : 1499 Кбит/сек
Ширина                           : 704 пикселя
Высота                           : 400 пикселей
Соотношение сторон               : 16:9
Частота кадров                   : 25,000 кадров/сек
Цветовое пространство            : YUV
Субдискретизация насыщенности    : 4:2:0
Битовая глубина                  : 8 бит
Тип развёртки                    : Прогрессивная
Метод сжатия                     : С потерями
Бит/(Пиксели*Кадры)              : 0.213
Размер потока                    : 747 Мбайт (93%)
Библиотека кодирования           : XviD 64

Аудио
Идентификатор                    : 1
Формат                           : MPEG Audio
Версия формата                   : Version 1
Профиль формата                  : Layer 3
Идентификатор кодека             : 55
Идентификатор кодека/Подсказка   : MP3
Продолжительность                : 1 ч. 9 м.
Вид битрейта                     : Постоянный
Битрейт                          : 96,0 Кбит/сек
Каналы                           : 1 канал
Частота                          : 48,0 КГц
Метод сжатия                     : С потерями
Размер потока                    : 47,9 Мбайт (6%)
Выравнивание                     : Разделение по промежуткам
Продолжительность промежутка     : 40  мс. (1,00 видеокадр)
Время предзагрузки промежутка    : 500  мс.


info [Профиль]  [ЛС] 
Показать сообщения:    
Ответить на тему

Текущее время: 06-Дек 22:02

Часовой пояс: GMT + 4



Вы не можете начинать темы
Вы не можете отвечать на сообщения
Вы не можете редактировать свои сообщения
Вы не можете удалять свои сообщения
Вы не можете голосовать в опросах
Вы не можете прикреплять файлы к сообщениям
Вы не можете скачивать файлы