Ошибка

Война Богов: Бессмертные / Immortals (Тарсем Синх / Tarsem Singh) [2011 г., фэнтези, боевик, драма, BDRip-AVC] Dub + Orig + Sub rus, eng

Ответить на тему
 
Автор Сообщение

L

Пол: Пол:Муж

Стаж: 6 лет 7 месяцев

Сообщений: 10781

Украина
Рейтинг

post 18-Фев-2012 23:49 1[+]

[Цитировать] 


Война Богов: Бессмертные / Immortals
«Богам нужен герой»

Название: Война Богов: Бессмертные
Оригинальное название: Immortals
Год выхода: 2011
Жанр: фэнтези, боевик, драма
Выпущено: США
Продолжительность: 1:50:22
Перевод: Профессиональный (дублированный)
Режиссер: Тарсем Синх
В ролях: Генри Кавилл, Стивен Дорфф, Люк Эванс, Изабель Лукас, Келлан Латс, Фрида Пинто, Микки Рурк, Джон Хёрт, Джозеф Морган, Энн Дэй-Джонс
О фильме: Одержимый жаждой власти царь Гиперион хочет уничтожить род людской и низвергнуть богов. С помощью Эпирского Лука, сделанного руками бога войны Ареса, он освобождает Титанов от тысячелетнего заточения в горах Тартара. Боги бессильны противостоять безумному царю. Единственная надежда на спасение - герой Тесей, который вступает в неравную войну с Титанами. Боги Олимпа во главе с самим Зевсом, пророчица Федра и хитрый раб Ставрос помогают герою в смертельной битве с демонами. Тесей должен победить, или боги Олимпа будут низвержены, а Эллада обречена на погибель...

5.912 | | | 6.5 /10

Раздача от:
Автор рипа: L

Качество: BDRip-AVC
Исходник: IMMORTALS_2D_BLUEBIRD
Контейнер: MKV
Видео: H.264 / 1152х622 / 2865 Kbps / High@L4.1
Аудио:
  • 48 kHz, AC3, 3/2 (L,C,R,l,r) + LFE ch, ~448.00 kbps avg - профессиональный (дублированный)
  • 48 kHz, AC3, 3/2 (L,C,R,l,r) + LFE ch, ~448.00 kbps avg - оригинал
Субтитры:
  • русские - srt
  • английские - srt




Общее
Уникальный идентификатор : 252919556659340132597934894942141500908 (0xBE4688E6A1512926BCE67AC7535B4DEC)
Полное имя : D:\L\Vojna.Bogov.Bessmertnye.2011.BDRip.x.264.AC3.RG.25.Kadr[by.L].mkv
Формат : Matroska
Версия формата : Version 2
Размер файла : 2,90 Гбайт
Продолжительность : 1 ч. 50 м.
Общий поток : 3762 Кбит/сек
Дата кодирования : UTC 2012-02-18 17:55:04
Программа кодирования : mkvmerge v3.2.0 ('Beginnings') built on Feb 12 2010 16:46:17
Библиотека кодирования : libebml v0.7.9 + libmatroska v0.8.1

Видео
Идентификатор : 1
Формат : AVC
Формат/Информация : Advanced Video Codec
Профиль формата : High@L4.1
Параметр CABAC формата : Да
Параметр ReFrames формата : 10 кадров
Идентификатор кодека : V_MPEG4/ISO/AVC
Продолжительность : 1 ч. 50 м.
Битрейт : 2865 Кбит/сек
Ширина : 1152 пикселя
Высота : 622 пикселя
Соотношение сторон : 1,852
Частота кадров : 23,976 кадра/сек
Цветовое пространство : YUV
Субдискретизация насыщенности : 4:2:0
Битовая глубина : 8 бит
Тип развёртки : Прогрессивная
Бит/(Пиксели*Кадры) : 0.167
Размер потока : 2,15 Гбайт (74%)
Библиотека кодирования : x264 core 116 r2044 392e762
Настройки программы : cabac=1 / ref=10 / deblock=1:-2:-1 / analyse=0x3:0x113 / me=umh / subme=10 / psy=1 / psy_rd=0.95:0.05 / mixed_ref=1 / me_range=32 / chroma_me=1 / trellis=2 / 8x8dct=1 / cqm=0 / deadzone=21,11 / fast_pskip=1 / chroma_qp_offset=-3 / threads=6 / sliced_threads=0 / nr=0 / decimate=1 / interlaced=0 / bluray_compat=0 / constrained_intra=0 / bframes=8 / b_pyramid=2 / b_adapt=1 / b_bias=0 / direct=1 / weightb=1 / open_gop=0 / weightp=2 / keyint=250 / keyint_min=23 / scenecut=40 / intra_refresh=0 / rc=2pass / mbtree=0 / bitrate=2865 / ratetol=1.0 / qcomp=0.70 / qpmin=10 / qpmax=61 / qpstep=4 / cplxblur=20.0 / qblur=0.5 / ip_ratio=1.40 / pb_ratio=1.30 / aq=2:0.70
Default : Да
Forced : Нет

Аудио #1
Идентификатор : 2
Формат : AC-3
Формат/Информация : Audio Coding 3
Расширение режима : CM (complete main)
Идентификатор кодека : A_AC3
Продолжительность : 1 ч. 50 м.
Вид битрейта : Постоянный
Битрейт : 448 Кбит/сек
Каналы : 6 каналов
Расположение каналов : Front: L C R, Side: L R, LFE
Частота : 48,0 КГц
Битовая глубина : 16 бит
Метод сжатия : С потерями
Размер потока : 354 Мбайт (12%)
Заголовок : Dub
Язык : Russian
Default : Да
Forced : Нет

Аудио #2
Идентификатор : 3
Формат : AC-3
Формат/Информация : Audio Coding 3
Расширение режима : CM (complete main)
Идентификатор кодека : A_AC3
Продолжительность : 1 ч. 50 м.
Вид битрейта : Постоянный
Битрейт : 448 Кбит/сек
Каналы : 6 каналов
Расположение каналов : Front: L C R, Side: L R, LFE
Частота : 48,0 КГц
Битовая глубина : 16 бит
Метод сжатия : С потерями
Размер потока : 354 Мбайт (12%)
Заголовок : Original
Язык : English
Default : Нет
Forced : Нет

Текст #1
Идентификатор : 4
Формат : UTF-8
Идентификатор кодека : S_TEXT/UTF8
Идентификатор кодека/Информация : UTF-8 Plain Text
Заголовок : Rus
Default : Да
Forced : Нет

Текст #2
Идентификатор : 5
Формат : UTF-8
Идентификатор кодека : S_TEXT/UTF8
Идентификатор кодека/Информация : UTF-8 Plain Text
Заголовок : Eng
Язык : English
Default : Нет
Forced : Нет
info [Профиль]  [ЛС] 

VaLDeR

Пол: Пол:Муж

Стаж: 5 лет 4 месяца

Сообщений: 122

Предупреждений: 1

Россия
Рейтинг

post 19-Фев-2012 12:30 (спустя 12 часов) [-]0[+]

[Цитировать] 

Как фильм???

_________________
info [Профиль]  [ЛС] 

Nathan Drake

Пол: Пол:Муж

Стаж: 7 лет 4 месяца

Сообщений: 356

Предупреждений: 1

Украина
Рейтинг

post 19-Фев-2012 14:10 (спустя 1 час 39 минут) [-]0[+]

[Цитировать] 

VaLDeR
Посмотреть можно не плохенький

_________________
porn is my life
info [Профиль]  [ЛС] 

spirit

Стаж: 6 лет 2 месяца

Сообщений: 251

Россия
Рейтинг

post 19-Фев-2012 14:36 (спустя 25 минут) [-]0[+]

[Цитировать] 

VaLDeR писал(а):

Как фильм???
Если судить по трейлеру - то шлак полный!
info [Профиль]  [ЛС] 

Tugarin

Пол: Пол:Муж

Стаж: 6 лет 2 месяца

Сообщений: 9

Россия
Рейтинг

post 19-Фев-2012 18:04 (спустя 3 часа) [-]0[+]

[Цитировать] 

Относительно красивый бред.
info [Профиль]  [ЛС] 

L

Пол: Пол:Муж

Стаж: 6 лет 7 месяцев

Сообщений: 10781

Украина
Рейтинг

post 20-Фев-2012 12:34 (спустя 18 часов) [-]0[+]

[Цитировать] 

Tugarin
+1
Как и все мифы Древней Греции

_________________
info [Профиль]  [ЛС] 

booa76

Пол: Пол:Муж

Стаж: 6 лет 7 месяцев

Сообщений: 43

Россия
Рейтинг

post 20-Фев-2012 21:01 (спустя 8 часов) [-]0[+]

[Цитировать] 

кто разбирается, понимает что это полный кал.
info [Профиль]  [ЛС] 

post 03-Мар-2012 18:02 (спустя 11 дней) [-]0[+]

Топик был перенесен из форума Rips в форум Зарубежное кино | Rips

Panky
 

post 03-Авг-2014 23:00 (спустя 2 года 5 месяцев) [-]0[+]

Топик был перенесен из форума Зарубежное кино | Rips в форум Прочее | Архив (Зарубежное кино)

L
 
Показать сообщения:    
Ответить на тему

Текущее время: 05-Дек 00:29

Часовой пояс: GMT + 4



Вы не можете начинать темы
Вы не можете отвечать на сообщения
Вы не можете редактировать свои сообщения
Вы не можете удалять свои сообщения
Вы не можете голосовать в опросах
Вы не можете прикреплять файлы к сообщениям
Вы не можете скачивать файлы