Ошибка

(Soundtrack) Трансформеры : Трилогия / Transformers: Trilogy - (2007-2011) , FLAC (tracks+cue), lossless

Ответить на тему
 
Автор Сообщение

TTagoHok

Пол: Пол:Муж

Стаж: 6 лет 10 месяцев

Сообщений: 379

Украина
Рейтинг

post 18-Фев-2012 15:30 0[+]

[Цитировать] 

OST Transformers Trilogy / OST Трансформеры




Страна: USA
Жанр: VA
Год выпуска:2007 - 2011
Формат: FLAC
Тип рипа: tracks+cue
Битрейт аудио: lossless
Продолжительность : 02:15:50


Продолжительность: 00:43:50

1. Linkin Park "What I've Done"
2. Smashing Pumpkins "Doomsday Clock"
3. Disturbed "This Moment"
4. Goo Goo Dolls "Before It's Too Late (Sam and Mikaela's Theme)"
5. The Used "Pretty Handsome Awkward"
6. HIM "Passion's Killing Floor"
7. Taking Back Sunday "What It Feels Like To Be A Ghost?"
8. Styles Of Beyond "Second To None"
9. Armor For Sleep "End Of The World"
10. Idiot Pilot "Retina and the Sky"
11. Julien-K "Technical Difficulties"
12. Mutemath "Transformers Theme"[/align]

Код:

EAC extraction logfile from 3. July 2007, 17:10 for CD
Various / Transformers: The Album
Used drive : MATSHITADVD-RAM UJ-840S Adapter: 1 ID: 0
Read mode : Secure with NO C2, accurate stream, disable cache
Read offset correction : 102
Overread into Lead-In and Lead-Out : No
Used output format : C:\Program Files\Exact Audio Copy\flac.exe (User Defined Encoder)
128 kBit/s
Additional command line options : -8 -A tukey(0.25) -A gauss(0.1875) -b 4096 -V -T "artist=%a" -T "title=%t" -T "album=%g" -T "date=%y" -T "tracknumber=%n" -T "genre=%m" %s --sector-align
Other options :
Fill up missing offset samples with silence : Yes
Delete leading and trailing silent blocks : No
Installed external ASPI interface
No errors occured
End of status report

Код:

REM GENRE Soundtrack
REM DATE 2007
REM DISCID 890A4E0C
REM COMMENT "ExactAudioCopy v0.95b4"
PERFORMER "Various"
TITLE "Transformers: The Album"
FILE "01 - What I've Done - Linkin Park - What I've Done - Linkin Park.wav" WAVE
  TRACK 01 AUDIO
    TITLE "What I've Done - Linkin Park"
    PERFORMER "What I've Done - Linkin Park"
    INDEX 01 00:00:00
FILE "02 - Doomsday Clock - Smashing Pumpkins - Doomsday Clock - Smashing Pumpkins.wav" WAVE
  TRACK 02 AUDIO
    TITLE "Doomsday Clock - Smashing Pumpkins"
    PERFORMER "Doomsday Clock - Smashing Pumpkins"
    INDEX 01 00:00:00
FILE "03 - This Moment - Disturbed - This Moment - Disturbed.wav" WAVE
  TRACK 03 AUDIO
    TITLE "This Moment - Disturbed"
    PERFORMER "This Moment - Disturbed"
    INDEX 01 00:00:00
FILE "04 - Before It's Too Late (Sam And Mikaela's Theme) - Goo Goo Dolls - Before It's Too Late (Sam And Mikaela's Theme) - Goo Goo Dolls.wav" WAVE
  TRACK 04 AUDIO
    TITLE "Before It's Too Late (Sam And Mikaela's Theme) - Goo Goo Dolls"
    PERFORMER "Before It's Too Late (Sam And Mikaela's Theme) - Goo Goo Dolls"
    INDEX 01 00:00:00
FILE "05 - Pretty Handsome Awkward - The Used - Pretty Handsome Awkward - The Used.wav" WAVE
  TRACK 05 AUDIO
    TITLE "Pretty Handsome Awkward - The Used"
    PERFORMER "Pretty Handsome Awkward - The Used"
    INDEX 01 00:00:00
FILE "06 - Passion's Killing Floor - Him - Passion's Killing Floor - Him.wav" WAVE
  TRACK 06 AUDIO
    TITLE "Passion's Killing Floor - Him"
    PERFORMER "Passion's Killing Floor - Him"
    INDEX 01 00:00:00
FILE "07 - What's It Feel Like To Be A Ghost  - Taking Back Sunday - What's It Feel Like To Be A Ghost  - Taking Back Sunday.wav" WAVE
  TRACK 07 AUDIO
    TITLE "What's It Feel Like To Be A Ghost? - Taking Back Sunday"
    PERFORMER "What's It Feel Like To Be A Ghost? - Taking Back Sunday"
    INDEX 01 00:00:00
  TRACK 08 AUDIO
    TITLE "Second To None - Styles Of Beyond (Featuring Mike Shinoda)"
    PERFORMER "Second To None - Styles Of Beyond (Featuring Mike Shinoda)"
    INDEX 00 03:42:48
FILE "08 - Second To None - Styles Of Beyond (Featuring Mike Shinoda) - Second To None - Styles Of Beyond (Featuring Mike Shinoda).wav" WAVE
    INDEX 01 00:00:00
FILE "09 - End Of The World - Armor For Sleep - End Of The World - Armor For Sleep.wav" WAVE
  TRACK 09 AUDIO
    TITLE "End Of The World - Armor For Sleep"
    PERFORMER "End Of The World - Armor For Sleep"
    INDEX 01 00:00:00
FILE "10 - Retina And The Sky - Idiot Pilot - Retina And The Sky - Idiot Pilot.wav" WAVE
  TRACK 10 AUDIO
    TITLE "Retina And The Sky - Idiot Pilot"
    PERFORMER "Retina And The Sky - Idiot Pilot"
    INDEX 01 00:00:00
FILE "11 - Technical Difficulties - Julien-K - Technical Difficulties - Julien-K.wav" WAVE
  TRACK 11 AUDIO
    TITLE "Technical Difficulties - Julien-K"
    PERFORMER "Technical Difficulties - Julien-K"
    INDEX 01 00:00:00
  TRACK 12 AUDIO
    TITLE "Transformers Theme - Muthmath"
    PERFORMER "Transformers Theme - Muthmath"
    INDEX 00 04:19:63
FILE "12 - Transformers Theme - Muthmath - Transformers Theme - Muthmath.wav" WAVE
    INDEX 01 00:00:00
Продолжительность: 00:51:35

01. New Divide - Linkin Park 4:28
02. 21 Guns - Green Day 5:17
03. Let It Go - Cavo 3:46
04. Capital M-E - Taking Back Sunday 2:48
05. Never Say Never - The Fray 4:19
06. Burn It To The Ground - Nickelback 3:29
07. Burning Down The House - The Used 3:39
08. Not Meant To Be - Theory Of A Deadman 3:34
09. Real World - The All-American Rejects 4:03
10. Dont Think I Love - Hoobastank 3:40
11. This Is It - Staind 3:44
12. Almost Easy - Avenged Sevenfold 3:54
13. Transformers Theme - Cheap Trick 3:54

Код:

Exact Audio Copy V0.99 prebeta 5 from 4. May 2009
EAC extraction logfile from 27. June 2009, 13:29
Various Artists / Transformers: Revenge Of The Fallen The Album
Used drive  : HL-DT-STDVDRAM GH20NS10   Adapter: 1  ID: 0
Read mode               : Secure
Utilize accurate stream : Yes
Defeat audio cache      : Yes
Make use of C2 pointers : No
Read offset correction                      : 667
Overread into Lead-In and Lead-Out          : No
Fill up missing offset samples with silence : Yes
Delete leading and trailing silent blocks   : No
Null samples used in CRC calculations       : Yes
Used interface                              : Native Win32 interface for Win NT & 2000
Gap handling                                : Appended to previous track
Used output format              : User Defined Encoder
Selected bitrate                : 1024 kBit/s
Quality                         : High
Add ID3 tag                     : No
Command line compressor         : J:\PortableApps\EACPortable\App\FLAC\flac.exe
Additional command line options : -V -8 -T "artist=%a" -T "title=%t" -T "album=%g" -T "date=%y" -T "tracknumber=%n" -T "genre=%m" %s
TOC of the extracted CD
     Track |   Start  |  Length  | Start sector | End sector
    ---------------------------------------------------------
        1  |  0:00.00 |  4:29.20 |         0    |    20194
        2  |  4:29.20 |  5:18.22 |     20195    |    44066
        3  |  9:47.42 |  3:47.07 |     44067    |    61098
        4  | 13:34.49 |  2:48.51 |     61099    |    73749
        5  | 16:23.25 |  4:19.17 |     73750    |    93191
        6  | 20:42.42 |  3:30.25 |     93192    |   108966
        7  | 24:12.67 |  3:39.51 |    108967    |   125442
        8  | 27:52.43 |  3:34.67 |    125443    |   141559
        9  | 31:27.35 |  4:04.14 |    141560    |   159873
       10  | 35:31.49 |  3:41.46 |    159874    |   176494
       11  | 39:13.20 |  3:45.23 |    176495    |   193392
       12  | 42:58.43 |  3:55.55 |    193393    |   211072
       13  | 46:54.23 |  5:05.51 |    211073    |   233998
Track  1
     Filename C:\Users\Jason\Desktop\Various Artists - 2009 - Transformers- Revenge Of The Fallen The Album [FLAC]\01 [Linkin Park] New Divide.wav
     Pre-gap length  0:00:02.00
     Peak level 100.0 %
     Track quality 100.0 %
     Test CRC 4AB92DC8
     Copy CRC 4AB92DC8
     Copy OK
Track  2
     Filename C:\Users\Jason\Desktop\Various Artists - 2009 - Transformers- Revenge Of The Fallen The Album [FLAC]\02 [Green Day] 21 Guns.wav
     Pre-gap length  0:00:00.49
     Peak level 92.1 %
     Track quality 100.0 %
     Test CRC D26EB943
     Copy CRC D26EB943
     Copy OK
Track  3
     Filename C:\Users\Jason\Desktop\Various Artists - 2009 - Transformers- Revenge Of The Fallen The Album [FLAC]\03 [Cavo] Let It Go.wav
     Pre-gap length  0:00:00.70
     Peak level 98.8 %
     Track quality 100.0 %
     Test CRC D063819B
     Copy CRC D063819B
     Copy OK
Track  4
     Filename C:\Users\Jason\Desktop\Various Artists - 2009 - Transformers- Revenge Of The Fallen The Album [FLAC]\04 [Taking Back Sunday] Capital M-E.wav
     Pre-gap length  0:00:00.43
     Peak level 98.8 %
     Track quality 99.9 %
     Test CRC 8B2E84E1
     Copy CRC 8B2E84E1
     Copy OK
Track  5
     Filename C:\Users\Jason\Desktop\Various Artists - 2009 - Transformers- Revenge Of The Fallen The Album [FLAC]\05 [The Fray] Never Say Never.wav
     Pre-gap length  0:00:00.24
     Peak level 98.8 %
     Track quality 100.0 %
     Test CRC 55571DC8
     Copy CRC 55571DC8
     Copy OK
Track  6
     Filename C:\Users\Jason\Desktop\Various Artists - 2009 - Transformers- Revenge Of The Fallen The Album [FLAC]\06 [Nickelback] Burn It To The Ground.wav
     Pre-gap length  0:00:00.04
     Peak level 98.8 %
     Track quality 100.0 %
     Test CRC 0A5BA64E
     Copy CRC 0A5BA64E
     Copy OK
Track  7
     Filename C:\Users\Jason\Desktop\Various Artists - 2009 - Transformers- Revenge Of The Fallen The Album [FLAC]\07 [The Used] Burning Down The House.wav
     Pre-gap length  0:00:00.60
     Peak level 99.9 %
     Track quality 100.0 %
     Test CRC 68652F59
     Copy CRC 68652F59
     Copy OK
Track  8
     Filename C:\Users\Jason\Desktop\Various Artists - 2009 - Transformers- Revenge Of The Fallen The Album [FLAC]\08 [Theory Of A Deadman] Not Meant To Be.wav
     Pre-gap length  0:00:00.23
     Peak level 98.8 %
     Track quality 100.0 %
     Test CRC 8E2272EE
     Copy CRC 8E2272EE
     Copy OK
Track  9
     Filename C:\Users\Jason\Desktop\Various Artists - 2009 - Transformers- Revenge Of The Fallen The Album [FLAC]\09 [The All-American Rejects] Real World.wav
     Pre-gap length  0:00:00.42
     Peak level 98.8 %
     Track quality 100.0 %
     Test CRC 3226EA3C
     Copy CRC 3226EA3C
     Copy OK
Track 10
     Filename C:\Users\Jason\Desktop\Various Artists - 2009 - Transformers- Revenge Of The Fallen The Album [FLAC]\10 [Hoobastank] I Don't Think I Love You.wav
     Pre-gap length  0:00:00.30
     Peak level 99.9 %
     Track quality 100.0 %
     Test CRC EDF53FC4
     Copy CRC EDF53FC4
     Copy OK
Track 11
     Filename C:\Users\Jason\Desktop\Various Artists - 2009 - Transformers- Revenge Of The Fallen The Album [FLAC]\11 [Staind] This Is It.wav
     Pre-gap length  0:00:01.42
     Peak level 98.8 %
     Track quality 100.0 %
     Test CRC 13A4FFCE
     Copy CRC 13A4FFCE
     Copy OK
Track 12
     Filename C:\Users\Jason\Desktop\Various Artists - 2009 - Transformers- Revenge Of The Fallen The Album [FLAC]\12 [Avenged Sevenfold] Almost Easy.wav
     Pre-gap length  0:00:00.39
     Peak level 99.9 %
     Track quality 100.0 %
     Test CRC F1F6C40C
     Copy CRC F1F6C40C
     Copy OK
Track 13
     Filename C:\Users\Jason\Desktop\Various Artists - 2009 - Transformers- Revenge Of The Fallen The Album [FLAC]\13 [Cheap Trick] Transformers- The Fallen Remix.wav
     Pre-gap length  0:00:01.20
     Peak level 98.8 %
     Track quality 100.0 %
     Test CRC 8B8F4F1D
     Copy CRC 8B8F4F1D
     Copy OK
No errors occurred
End of status report

Код:

REM GENRE Soundtrack
REM DATE 2009
REM DISCID C40C2F0D
REM COMMENT "ExactAudioCopy v0.99pb5"
PERFORMER "Various"
TITLE "Transformers: Revenge Of The Fallen The Album"
FILE "01 [New Divide - Linkin Park] New Divide - Linkin Park.wav" WAVE
  TRACK 01 AUDIO
    TITLE "New Divide - Linkin Park"
    PERFORMER "New Divide - Linkin Park"
    INDEX 01 00:00:00
  TRACK 02 AUDIO
    TITLE "21 Guns - Green Day"
    PERFORMER "21 Guns - Green Day"
    INDEX 00 04:28:46
FILE "02 [21 Guns - Green Day] 21 Guns - Green Day.wav" WAVE
    INDEX 01 00:00:00
  TRACK 03 AUDIO
    TITLE "Let It Go - Cavo"
    PERFORMER "Let It Go - Cavo"
    INDEX 00 05:17:27
FILE "03 [Let It Go - Cavo] Let It Go - Cavo.wav" WAVE
    INDEX 01 00:00:00
  TRACK 04 AUDIO
    TITLE "Capital M-E - Taking Back Sunday"
    PERFORMER "Capital M-E - Taking Back Sunday"
    INDEX 00 03:46:39
FILE "04 [Capital M-E - Taking Back Sunday] Capital M-E - Taking Back Sunday.wav" WAVE
    INDEX 01 00:00:00
  TRACK 05 AUDIO
    TITLE "Never Say Never - The Fray"
    PERFORMER "Never Say Never - The Fray"
    INDEX 00 02:48:27
FILE "05 [Never Say Never - The Fray] Never Say Never - The Fray.wav" WAVE
    INDEX 01 00:00:00
  TRACK 06 AUDIO
    TITLE "Burn It To The Ground - Nickelback"
    PERFORMER "Burn It To The Ground - Nickelback"
    INDEX 00 04:19:13
FILE "06 [Burn It To The Ground - Nickelback] Burn It To The Ground - Nickelback.wav" WAVE
    INDEX 01 00:00:00
  TRACK 07 AUDIO
    TITLE "Burning Down The House - The Used"
    PERFORMER "Burning Down The House - The Used"
    INDEX 00 03:29:40
FILE "07 [Burning Down The House - The Used] Burning Down The House - The Used.wav" WAVE
    INDEX 01 00:00:00
  TRACK 08 AUDIO
    TITLE "Not Meant To Be - Theory Of A Deadman"
    PERFORMER "Not Meant To Be - Theory Of A Deadman"
    INDEX 00 03:39:28
FILE "08 [Not Meant To Be - Theory Of A Deadman] Not Meant To Be - Theory Of A Deadman.wav" WAVE
    INDEX 01 00:00:00
  TRACK 09 AUDIO
    TITLE "Real World - The All-American Rejects"
    PERFORMER "Real World - The All-American Rejects"
    INDEX 00 03:34:25
FILE "09 [Real World - The All-American Rejects] Real World - The All-American Rejects.wav" WAVE
    INDEX 01 00:00:00
  TRACK 10 AUDIO
    TITLE "I Don't Think I Love You - Hoobastank"
    PERFORMER "I Don't Think I Love You - Hoobastank"
    INDEX 00 04:03:59
FILE "10 [I Don't Think I Love You - Hoobastank] I Don't Think I Love You - Hoobastank.wav" WAVE
    INDEX 01 00:00:00
  TRACK 11 AUDIO
    TITLE "This Is It - Staind"
    PERFORMER "This Is It - Staind"
    INDEX 00 03:40:04
FILE "11 [This Is It - Staind] This Is It - Staind.wav" WAVE
    INDEX 01 00:00:00
  TRACK 12 AUDIO
    TITLE "Almost Easy - Avenged Sevenfold"
    PERFORMER "Almost Easy - Avenged Sevenfold"
    INDEX 00 03:44:59
FILE "12 [Almost Easy - Avenged Sevenfold] Almost Easy - Avenged Sevenfold.wav" WAVE
    INDEX 01 00:00:00
  TRACK 13 AUDIO
    TITLE "Transformers: The Fallen Remix - Cheap Trick"
    PERFORMER "Transformers: The Fallen Remix - Cheap Trick"
    INDEX 00 03:54:35
FILE "13 [Transformers- The Fallen Remix - Cheap Trick] Transformers- The Fallen Remix - Cheap Trick.wav" WAVE
    INDEX 01 00:00:00
Продолжительность: 00:39:40

01. Linkin Park - Iridescent (04:01)
02. Paramore - Monster (03:20)
03. My Chemical Romance - The Only Hope For Me Is You (04:34)
04. Taking Back Sunday - Faith (When I Let You Down) (03:09)
05. Staind - The Bottom (04:22)
06. Art Of Dying - Get Thru This (02:43)
07. Goo Goo Dolls - All That You Are (03:13)
08. Theory Of A Deadman - Head Above Water (03:33)
09. Black Veil Brides - Set The World On Fire (03:41)
10. Skillet - Awake And Alive (03:30)
11. Mastodon - Just Got Paid (03:34)

Код:

Exact Audio Copy V0.99 prebeta 5 from 4. May 2009
EAC extraction logfile from 14. June 2011, 17:30
Various / Transformers: Dark Of The Moon - The Album
Used drive  : TSSTcorpDVD+-RW TS-L632H   Adapter: 0  ID: 0
Read mode               : Secure
Utilize accurate stream : Yes
Defeat audio cache      : Yes
Make use of C2 pointers : No
Read offset correction                      : 6
Overread into Lead-In and Lead-Out          : No
Fill up missing offset samples with silence : Yes
Delete leading and trailing silent blocks   : No
Null samples used in CRC calculations       : Yes
Used interface                              : Native Win32 interface for Win NT & 2000
Gap handling                                : Appended to previous track
Used output format              : User Defined Encoder
Selected bitrate                : 320 kBit/s
Quality                         : High
Add ID3 tag                     : No
Command line compressor         : C:\Program Files\Exact Audio Copy\FLAC\flac.exe
Additional command line options : --best --picture="E:\My Music\FLAC\folder.jpg" -P 4096 -V -T "artist=%a" -T "title=%t" -T "album=%g" -T "tracknumber=%n" %s
TOC of the extracted CD
     Track |   Start  |  Length  | Start sector | End sector
    ---------------------------------------------------------
        1  |  0:00.00 |  4:00.69 |         0    |    18068
        2  |  4:00.69 |  3:20.27 |     18069    |    33095
        3  |  7:21.21 |  4:34.13 |     33096    |    53658
        4  | 11:55.34 |  3:09.34 |     53659    |    67867
        5  | 15:04.68 |  4:21.43 |     67868    |    87485
        6  | 19:26.36 |  2:43.36 |     87486    |    99746
        7  | 22:09.72 |  3:13.29 |     99747    |   114250
        8  | 25:23.26 |  3:32.57 |    114251    |   130207
        9  | 28:56.08 |  3:41.12 |    130208    |   146794
       10  | 32:37.20 |  3:29.73 |    146795    |   162542
       11  | 36:07.18 |  3:34.27 |    162543    |   178619
Track  1
     Filename E:\My Music\FLAC\Various Artists\Transformers- Dark Of The Moon - The Album\01 - Iridescent.wav
     Pre-gap length  0:00:02.00
     Peak level 98.8 %
     Track quality 100.0 %
     Test CRC 8EBFB9CB
     Copy CRC 8EBFB9CB
     Track not present in AccurateRip database
     Copy OK
Track  2
     Filename E:\My Music\FLAC\Various Artists\Transformers- Dark Of The Moon - The Album\02 - Monster.wav
     Pre-gap length  0:00:00.32
     Peak level 93.9 %
     Track quality 100.0 %
     Test CRC E36500D0
     Copy CRC E36500D0
     Track not present in AccurateRip database
     Copy OK
Track  3
     Filename E:\My Music\FLAC\Various Artists\Transformers- Dark Of The Moon - The Album\03 - The Only Hope For Me Is You.wav
     Pre-gap length  0:00:00.21
     Peak level 92.3 %
     Track quality 100.0 %
     Test CRC A1B518A9
     Copy CRC A1B518A9
     Track not present in AccurateRip database
     Copy OK
Track  4
     Filename E:\My Music\FLAC\Various Artists\Transformers- Dark Of The Moon - The Album\04 - Faith (When I Let You Down).wav
     Pre-gap length  0:00:00.52
     Peak level 95.5 %
     Track quality 100.0 %
     Test CRC CB4B40F1
     Copy CRC CB4B40F1
     Track not present in AccurateRip database
     Copy OK
Track  5
     Filename E:\My Music\FLAC\Various Artists\Transformers- Dark Of The Moon - The Album\05 - The Bottom.wav
     Pre-gap length  0:00:00.30
     Peak level 92.7 %
     Track quality 100.0 %
     Test CRC C7F012E8
     Copy CRC C7F012E8
     Track not present in AccurateRip database
     Copy OK
Track  6
     Filename E:\My Music\FLAC\Various Artists\Transformers- Dark Of The Moon - The Album\06 - Get Thru This.wav
     Pre-gap length  0:00:00.33
     Peak level 98.2 %
     Track quality 100.0 %
     Test CRC 423CF50C
     Copy CRC 423CF50C
     Track not present in AccurateRip database
     Copy OK
Track  7
     Filename E:\My Music\FLAC\Various Artists\Transformers- Dark Of The Moon - The Album\07 - All That You Are.wav
     Pre-gap length  0:00:01.85
     Peak level 98.8 %
     Track quality 100.0 %
     Test CRC 37FAE61F
     Copy CRC 37FAE61F
     Track not present in AccurateRip database
     Copy OK
Track  8
     Filename E:\My Music\FLAC\Various Artists\Transformers- Dark Of The Moon - The Album\08 - Head Above Water.wav
     Pre-gap length  0:00:00.66
     Peak level 97.8 %
     Track quality 100.0 %
     Test CRC 2D8CAA2E
     Copy CRC 2D8CAA2E
     Track not present in AccurateRip database
     Copy OK
Track  9
     Filename E:\My Music\FLAC\Various Artists\Transformers- Dark Of The Moon - The Album\09 - Set The World On Fire.wav
     Pre-gap length  0:00:00.38
     Peak level 98.8 %
     Track quality 99.9 %
     Test CRC EE7BC223
     Copy CRC EE7BC223
     Track not present in AccurateRip database
     Copy OK
Track 10
     Filename E:\My Music\FLAC\Various Artists\Transformers- Dark Of The Moon - The Album\10 - Awake And Alive.wav
     Pre-gap length  0:00:00.88
     Peak level 93.4 %
     Track quality 100.0 %
     Test CRC 8BF022F4
     Copy CRC 8BF022F4
     Track not present in AccurateRip database
     Copy OK
Track 11
     Filename E:\My Music\FLAC\Various Artists\Transformers- Dark Of The Moon - The Album\11 - Just Got Paid.wav
     Pre-gap length  0:00:00.38
     Peak level 93.7 %
     Track quality 100.0 %
     Test CRC 33F3D385
     Copy CRC 33F3D385
     Track not present in AccurateRip database
     Copy OK
None of the tracks are present in the AccurateRip database
No errors occurred
End of status report

Код:

REM GENRE Soundtrack
REM DATE 2011
REM DISCID 95094D0B
REM COMMENT "ExactAudioCopy v0.99pb5"
PERFORMER "Various"
TITLE "Transformers: Dark Of The Moon"
FILE "01 - Iridescent.wav" WAVE
  TRACK 01 AUDIO
    TITLE "Iridescent"
    PERFORMER "Linkin Park"
    INDEX 01 00:00:00
  TRACK 02 AUDIO
    TITLE "Monster"
    PERFORMER "Paramore"
    INDEX 00 04:00:45
FILE "02 - Monster.wav" WAVE
    INDEX 01 00:00:00
  TRACK 03 AUDIO
    TITLE "The Only Hope For Me Is You"
    PERFORMER "My Chemical Romance"
    INDEX 00 03:20:11
FILE "03 - The Only Hope For Me Is You.wav" WAVE
    INDEX 01 00:00:00
  TRACK 04 AUDIO
    TITLE "Faith (When I Let You Down)"
    PERFORMER "Taking Back Sunday"
    INDEX 00 04:33:49
FILE "04 - Faith (When I Let You Down).wav" WAVE
    INDEX 01 00:00:00
  TRACK 05 AUDIO
    TITLE "The Bottom"
    PERFORMER "Staind"
    INDEX 00 03:09:11
FILE "05 - The Bottom.wav" WAVE
    INDEX 01 00:00:00
  TRACK 06 AUDIO
    TITLE "Get Thru This"
    PERFORMER "Art Of Dying"
    INDEX 00 04:21:18
FILE "06 - Get Thru This.wav" WAVE
    INDEX 01 00:00:00
  TRACK 07 AUDIO
    TITLE "All That You Are"
    PERFORMER "Goo Goo Dolls"
    INDEX 00 02:41:47
FILE "07 - All That You Are.wav" WAVE
    INDEX 01 00:00:00
  TRACK 08 AUDIO
    TITLE "Head Above Water"
    PERFORMER "Theory Of A Deadman"
    INDEX 00 03:12:54
FILE "08 - Head Above Water.wav" WAVE
    INDEX 01 00:00:00
  TRACK 09 AUDIO
    TITLE "Set The World On Fire"
    PERFORMER "Black Veil Brides"
    INDEX 00 03:32:28
FILE "09 - Set The World On Fire.wav" WAVE
    INDEX 01 00:00:00
  TRACK 10 AUDIO
    TITLE "Awake And Alive"
    PERFORMER "Skillet"
    INDEX 00 03:40:21
FILE "10 - Awake And Alive.wav" WAVE
    INDEX 01 00:00:00
  TRACK 11 AUDIO
    TITLE "Just Got Paid"
    PERFORMER "Mastodon"
    INDEX 00 03:29:44
FILE "11 - Just Got Paid.wav" WAVE
    INDEX 01 00:00:00
info [Профиль]  [ЛС] 

TheMrMafiozi

Пол: Пол:Муж

Стаж: 6 лет 9 месяцев

Сообщений: 859

СССР
Рейтинг

post 19-Фев-2012 23:11 (спустя 1 день 7 часов) [-]0[+]

[Цитировать] 

TTagoHok
1. Не надо выравнивать логи по центру
2. Надо добавить в оформление текст файлов .cue

_________________
観自在菩薩行深般若波羅蜜多時、照見五蘊皆空、度一切苦厄。舎利子
も自由にお使いく
言語の科
info [Профиль]  [ЛС] 

lampard960

Пол: Пол:Муж

Стаж: 4 года 11 месяцев

Сообщений: 619

Ангилья
Рейтинг

post 23-Фев-2012 21:54 (спустя 3 дня) [-]0[+]

[Цитировать] 

а че к первому треклисту нет постера.

_________________
info [Профиль]  [ЛС] 

TTagoHok

Пол: Пол:Муж

Стаж: 6 лет 10 месяцев

Сообщений: 379

Украина
Рейтинг

post 26-Фев-2012 17:34 (спустя 2 дня 19 часов) [-]0[+]

[Цитировать] 

lampard960 все на месте,это у вас что то не так

_________________
info [Профиль]  [ЛС] 
Показать сообщения:    
Ответить на тему

Текущее время: 04-Дек 10:11

Часовой пояс: GMT + 4



Вы не можете начинать темы
Вы не можете отвечать на сообщения
Вы не можете редактировать свои сообщения
Вы не можете удалять свои сообщения
Вы не можете голосовать в опросах
Вы не можете прикреплять файлы к сообщениям
Вы не можете скачивать файлы