Ошибка

Республика ШКИД (Геннадий Полока) [1966г.,драма, комедия, DVDRip ]

Ответить на тему
 
Автор Сообщение

Dimaldinio

Пол: Пол:Муж

Стаж: 6 лет 7 месяцев

Сообщений: 79

СССР
Рейтинг

post 13-Фев-2012 19:33 6[+]

[Цитировать] 


Республика ШКИД

pic="http://s018.radikal.ru/i506/1202/d3/a29c6518dbc8.jpg"
год выпуска : 1966
страна :
жанр : драма, комедия
продолжительность : 01:37:41
перевод : оригинальный
режисёр : Геннадий Полока
в ролях :

           

    Юрский С.Ю.  Перевалов В. П.  Подшивалов А. Н.  Рычков Ю.Е.  Кавалеров А. А.
описание :

Республикой ШКИД назвали свою Школу Имени Достоевского свободолюбивые воспитанники — бывшие беспризорники. Обезоруживающее доверие педагогов научило ребят достоинству, помогло не раствориться в беге смутного времени…
   
качество : DVDRip
формат : MPEG-4
видео кодек : Advanced Video Coding
видео : 720 x 400 (16:9), 25,000 fps, 1800 Кбит/сек
аудио кодек : AAC
аудио : Advanced Audio Codec, 224 Кбит/сек, 6 канал(ов), 48,0 КГц
Видео
Идентификатор : 1
Формат : AVC
Формат/Информация : Advanced Video Codec
Профиль формата : High@L3.1
Параметр CABAC формата : Да
Параметр ReFrames формата : 8 кадров
Идентификатор кодека : avc1
Идентификатор кодека/Информация : Advanced Video Coding
Продолжительность : 1 ч. 37 м.
Битрейт : 1800 Кбит/сек
Ширина : 720 пикселей
Высота : 400 пикселей
Соотношение сторон : 16:9
Режим частоты кадров : Постоянный
Частота кадров : 25,000 кадров/сек
Цветовое пространство : YUV
Субдискретизация насыщенности : 4:2:0
Битовая глубина : 8 бит
Тип развёртки : Прогрессивная
Бит/(Пиксели*Кадры) : 0.250
Размер потока : 1,22 Гбайт (89%)
Библиотека кодирования : x264 core 116 r2019 9cc407d

Аудио
Идентификатор : 2
Формат : AAC
Формат/Информация : Advanced Audio Codec
Профиль формата : LC
Идентификатор кодека : 40
Продолжительность : 1 ч. 37 м.
Вид битрейта : Постоянный
Битрейт : 224 Кбит/сек
Каналы : 6 каналов
Расположение каналов : Front: L C R, Side: L R, LFE
Частота : 48,0 КГц
Метод сжатия : С потерями
Размер потока : 156 Мбайт (11%)
  • Знаменитая «блатная» песня «У кошки четыре ноги, позади у неё длинный хвост» была написана композитором Сергеем Слонимским на стихи из повести именно для этого фильма.
  • В одной из телевизионных программ Полока рассказал, что большинство актёров, которые играли воспитанников Шкид, были, мягко говоря, не в ладах с законом. Так, актёр, который играл Лёньку Пантелеева, был наводчиком квартирных грабителей.
info [Профиль]  [ЛС] 

default1103

Пол: Пол:Муж

Стаж: 5 лет

Сообщений: 1

Россия
Рейтинг

post 13-Фев-2012 23:02 (спустя 3 часа) [-]4[+]

[Цитировать] 

офигенная книжка!
info [Профиль]  [ЛС] 

Miss Kristi

Пол: Пол:Жен

Стаж: 7 лет 1 месяц

Сообщений: 2

Россия
Рейтинг

post 17-Мар-2012 17:47 (спустя 1 месяц 3 дня) [-]1[+]

[Цитировать] 

default1103 писал(а):

офигенная книжка!
И книга и фильм kolob_171
info [Профиль]  [ЛС] 
Показать сообщения:    
Ответить на тему

Текущее время: 03-Дек 23:51

Часовой пояс: GMT + 4



Вы не можете начинать темы
Вы не можете отвечать на сообщения
Вы не можете редактировать свои сообщения
Вы не можете удалять свои сообщения
Вы не можете голосовать в опросах
Вы не можете прикреплять файлы к сообщениям
Вы не можете скачивать файлы