Ошибка

Призрак в доспехах 2.0 / Ghost in the Shell 2.0 [Movie] [2008] [фантастика, боевик, киберпанк] [BDRip] [1080p] [Авторский(JAP+SUB)]

Ответить на тему
 
Автор Сообщение

mallaigne

Пол: Пол:Муж

Стаж: 5 лет 1 месяц

Сообщений: 93

Предупреждений: 1

Россия
Рейтинг

post 08-Фев-2012 17:19 2[+]

[Цитировать] 

Призрак в доспехах 2.0 / Ghost in the Shell 2.0


Год выпуска: 2008 (ремастер фильма 1995 года)
Страна: Япония
Жанр: фантастика, боевик, киберпанк
Продолжительность: 01:23:21
Русская озвучка: Авторский (двухголосый закадровый) - Гланц и Королева
Режиссер:
  • Мамору Осии / Mamoru Oshii
Оригинальная озвучка:
  • Ацуко Танака (Мотоко Кусанаги), Акио Оцука (Бато), Иэмаса Каюми (Кукловод), Коити Ямадэра (Тогуса), Тамио Оки (Арамаки), Ютака Накано (Исикава), Тессё Гэнда (Накамура), Намаки Масакадзу (доктор Уиллис), Мицуру Миямото (Мидзуо Дайта), Маая Сакамото (молодая Мотоко), Синдзи Огава (дипломат), Сигэру Тиба (мусорщик), Кадзухиро Ямадзи (мусорщик), Масато Яманоути (иностранный министр), Юдзи Уэда
Описание:
К 2029 году благодаря повсеместно распространившимся компьютерным сетям и кибер-технологиям практически все люди вживили себе разнообразные нейронные имплантанты. Но кибер-технологии принесли и новую опасность для человека: стал возможным так называемый «взлом мозга» и ряд других преступлений, связанный непосредственно с ними.

Давно разыскиваемый хакер, которого прозвали Кукловодом, начинает вмешиваться в политику, и тогда «9-й Отдел» Министерства Общественной безопасности, оперотряд полиции, оснащённый по последнему слову техники, получает приказ расследовать это дело и остановить Кукловода. В погоне за ним возникает вопрос: что делает человека человеком и кто такой Кукловод в этом мире, где граница между человеком и машиной почти незаметна?
Информационные ссылки: AniDB || World Art || MAL
Доп. информация: Собственный рип
-=Раздача ведется в промежуток с 7:00 по 19:00 по Московскому времени=-
Качество: BDRip
Тип видео: без хардсаба
Формат: mkv
Видео: H264 / 9000 kbps / 1920х1080 (16:9) / 23,976 fps / High Profile 4.1 / Bit/(Pixel*Frame) 0.181
Аудио 1: Русский двухголосый закадровый / AC3 / 5.1 / 48 kHz / 640 kbps (в составе контейнера)
Аудио 2: Японский / DTS / 5.1 / 48 kHz / 1510 kbps (в составе контейнера)
Субтитры: Русские softsub (SRT) (в составе контейнера)
Сохранены оригинальные чаптеры

Скачать сэмпл "Призрак в доспехах 2.0 / Ghost in the Shell 2.0"
I:\Anime\Ghost In The Shell 2.0 [Призрак в доспехах 2.0] (1995) 1920x1080 BDRip by -=mallaigne=- RusJpnSubChpt.mkv
General
Unique ID : 171214440400079338755623511955672073999 (0x80CEB3A70DFD79E593614D11C137070F)
Complete name : I:\Anime\Ghost In The Shell 2.0 [Призрак в доспехах 2.0] (1995) 1920x1080 BDRip by -=mallaigne=- RusJpnSubChpt.mkv
Format : Matroska
Format version : Version 2
File size : 6.48 GiB
Duration : 1h 23mn
Overall bit rate : 11.1 Mbps
Encoded date : UTC 2012-02-08 12:34:57
Writing application : mkvmerge v5.2.1 ('A Far Off Place') built on Jan 2 2012 23:21:10
Writing library : libebml v1.2.3 + libmatroska v1.3.0
Attachment : Yes / Yes
Video #1
ID : 1
Format : AVC
Format/Info : Advanced Video Codec
Format profile : High@L4.1
Format settings, CABAC : Yes
Format settings, ReFrames : 4 frames
Codec ID : V_MPEG4/ISO/AVC
Duration : 1h 23mn
Bit rate : 9 009 Kbps
Width : 1 920 pixels
Height : 1 080 pixels
Display aspect ratio : 16:9
Frame rate : 23.976 fps
Color space : YUV
Chroma subsampling : 4:2:0
Bit depth : 8 bits
Scan type : Progressive
Bits/(Pixel*Frame) : 0.181
Stream size : 5.10 GiB (79%)
Writing library : x264 core 120 r2164 da19765
Encoding settings : cabac=1 / ref=4 / deblock=1:-2:-2 / analyse=0x3:0x113 / me=umh / subme=11 / psy=1 / psy_rd=0.60:0.00 / mixed_ref=1 / me_range=24 / chroma_me=1 / trellis=2 / 8x8dct=1 / cqm=0 / deadzone=21,11 / fast_pskip=0 / chroma_qp_offset=-2 / threads=12 / sliced_threads=0 / nr=0 / decimate=0 / interlaced=0 / bluray_compat=0 / constrained_intra=0 / bframes=7 / b_pyramid=2 / b_adapt=2 / b_bias=0 / direct=3 / weightb=1 / open_gop=0 / weightp=2 / keyint=240 / keyint_min=23 / scenecut=40 / intra_refresh=0 / rc=2pass / mbtree=0 / bitrate=9009 / ratetol=1.0 / qcomp=0.60 / qpmin=0 / qpmax=69 / qpstep=4 / cplxblur=20.0 / qblur=0.5 / ip_ratio=1.40 / pb_ratio=1.30 / aq=1:0.60
Language : Japanese
Default : Yes
Forced : No
Audio #2
ID : 2
Format : AC-3
Format/Info : Audio Coding 3
Mode extension : CM (complete main)
Codec ID : A_AC3
Duration : 1h 23mn
Bit rate mode : Constant
Bit rate : 640 Kbps
Channel(s) : 6 channels
Channel positions : Front: L C R, Side: L R, LFE
Sampling rate : 48.0 KHz
Bit depth : 16 bits
Compression mode : Lossy
Stream size : 382 MiB (6%)
Title : DVO AC3 6ch 640kbps (Гланц+)
Language : Russian
Default : Yes
Forced : No
Audio #3
ID : 3
Format : DTS
Format/Info : Digital Theater Systems
Codec ID : A_DTS
Duration : 1h 23mn
Bit rate mode : Constant
Bit rate : 1 510 Kbps
Channel(s) : 6 channels
Channel positions : Front: L C R, Side: L R, LFE
Sampling rate : 48.0 KHz
Bit depth : 24 bits
Compression mode : Lossy
Stream size : 900 MiB (14%)
Title : Original DTS 6ch 1510kbps
Language : Japanese
Default : No
Forced : No
Text #4
ID : 4
Format : UTF-8
Codec ID : S_TEXT/UTF8
Codec ID/Info : UTF-8 Plain Text
Language : Russian
Default : Yes
Forced : No
Menu
00:00:00.000 : en:Prologue
00:04:27.142 : en:Making of a cyborg
00:08:45.775 : en:The Foreign Minister's interpreter
00:13:28.725 : en:Garbage truck
00:24:19.249 : en:Strike force
00:26:05.814 : en:Simulated experience
00:27:41.118 : en:Diving
00:32:47.132 : en:Metropolis
00:36:05.663 : en:Doll
00:45:20.343 : en:The Puppet Master
00:53:53.689 : en:Conspiracy
00:59:26.646 : en:Tank
01:06:09.674 : en:Project 2501
01:13:51.469 : en:Epilogue
01:17:21.762 : en:Ending credits
x264 [info]: frame I:733 Avg QP:13.81 size:282527 PSNR Mean Y:50.53 U:52.96 V:52.80 Avg:51.16 Global:50.45
x264 [info]: frame P:30197 Avg QP:15.77 size: 95845 PSNR Mean Y:49.47 U:52.69 V:52.51 Avg:50.20 Global:48.59
x264 [info]: frame B:88998 Avg QP:18.21 size: 28176 PSNR Mean Y:47.45 U:50.80 V:50.45 Avg:48.24 Global:47.50
x264 [info]: consecutive B-frames: 3.6% 2.9% 3.5% 53.8% 11.1% 16.9% 4.3% 4.0%
x264 [info]: mb I I16..4: 6.3% 82.7% 10.9%
x264 [info]: mb P I16..4: 1.4% 20.5% 0.9% P16..4: 26.1% 31.2% 9.5% 0.0% 0.0% skip:10.4%
x264 [info]: mb B I16..4: 0.1% 1.2% 0.1% B16..8: 40.9% 18.6% 2.4% direct: 6.8% skip:30.0% L0:48.1% L1:42.3% BI: 9.6%
x264 [info]: 8x8 transform intra:88.5% inter:59.6%
x264 [info]: direct mvs spatial:98.7% temporal:1.3%
x264 [info]: coded y,uvDC,uvAC intra: 91.7% 91.9% 75.0% inter: 28.7% 34.6% 10.8%
x264 [info]: i16 v,h,dc,p: 12% 12% 4% 72%
x264 [info]: i8 v,h,dc,ddl,ddr,vr,hd,vl,hu: 10% 9% 16% 9% 11% 10% 11% 11% 13%
x264 [info]: i4 v,h,dc,ddl,ddr,vr,hd,vl,hu: 14% 14% 6% 8% 14% 13% 12% 9% 10%
x264 [info]: i8c dc,h,v,p: 53% 19% 13% 15%
x264 [info]: Weighted P-Frames: Y:10.8% UV:4.8%
x264 [info]: ref P L0: 46.2% 8.1% 30.3% 13.6% 1.7% 0.1%
x264 [info]: ref B L0: 85.4% 11.5% 3.2%
x264 [info]: ref B L1: 95.3% 4.7%
x264 [info]: SSIM Mean Y:0.9845654 (18.115db)
x264 [info]: PSNR Mean Y:47.981 U:51.289 V:50.982 Avg:48.755 Global:47.766 kb/s:8970.74

encoded 119928 frames, 3.91 fps, 8970.74 kb/s
info [Профиль]  [ЛС] 

Doomartulokan

Пол: Пол:Муж

Стаж: 7 лет 1 месяц

Сообщений: 765

Предупреждений: 1

Россия
Рейтинг

post 19-Мар-2012 21:13 (спустя 1 месяц 11 дней) [-]-1[+]

[Цитировать] 

Я так понимаю это ремейк ?
info [Профиль]  [ЛС] 

mandachevan

Стаж: 5 лет 4 месяца

Сообщений: 47

Рейтинг

post 19-Мар-2012 21:27 (спустя 14 минут) [-]0[+]

[Цитировать] 

некоторые сцены переделаны с использованием 3д анимации.
не могу сказать, что это пошло на пользу.

_________________
Регаемся в отличной и халявной Tribes Ascend
info [Профиль]  [ЛС] 

HalyaziuM

Пол: Пол:Муж

Стаж: 6 лет 7 месяцев

Сообщений: 45

СССР
Рейтинг

post 19-Мар-2012 21:42 (спустя 14 минут) [-]2[+]

[Цитировать] 

Оригинальна версия мне нравится больше. Перерисованные сцены заметно выбиваются из общего стиля ручной рисовки и только отвлекают от восприятия картины. Это простая и печальная дань моде.
info [Профиль]  [ЛС] 

mallaigne

Пол: Пол:Муж

Стаж: 5 лет 1 месяц

Сообщений: 93

Предупреждений: 1

Россия
Рейтинг

post 20-Мар-2012 05:38 (спустя 7 часов) [-]-1[+]

[Цитировать] 

HalyaziuM писал(а):

и только отвлекают от восприятия картины.
какой вы у нас "отвлекабельный" kolob_149

_________________
не умеешь качать - не берись, например!
info [Профиль]  [ЛС] 
Показать сообщения:    
Ответить на тему

Текущее время: 09-Дек 08:01

Часовой пояс: GMT + 4



Вы не можете начинать темы
Вы не можете отвечать на сообщения
Вы не можете редактировать свои сообщения
Вы не можете удалять свои сообщения
Вы не можете голосовать в опросах
Вы не можете прикреплять файлы к сообщениям
Вы не можете скачивать файлы