Ошибка

Discovery. Во вселенную со Стивеном Хокингом / Discovery. Into The Universe With Stephen Hawking (3 серии) [2010, Документальный, научно-познавательный, BDRip 720p]

Ответить на тему
 
Автор Сообщение

rimo

Пол: Пол:Муж

Стаж: 5 лет 4 месяца

Сообщений: 1752

Украина
Рейтинг

post 27-Янв-2012 13:20 6[+]

[Цитировать] 

Discovery. Во вселенную со Стивеном Хокингом / Discovery. Into The Universe With Stephen Hawking


Год выпуска: 2010
Страна: Великобритания
Жанр: Документальный, научно-познавательный
Продолжительность: 00:43:29 + 00:43:26 + 01:26:34
Перевод: Профессиональный (одноголосый)
Субтитры: отсутствуют
Режиссер:
Студия:
В ролях:
  • Стивен Хокинг

Описание: Знаменитый физик, профессор Стивен Хокинг, который в 30 лет оказался практически полностью парализован из-за прогрессирующей болезни, делится мыслями о самых интригующих загадках Вселенной, таких как инопланетная жизнь или путешествие во времени.
Взято у дел: DeLL
Качество: BDRip
Формат: MKV
Видео кодек: H.264
Аудио кодек: AC3
Видео: 1280x720 (16:9), 25.000 fps, x264 ~6000 kbps, 0.260 bit/pixel
Аудио#1: 48 kHz, AC3, 6 ch, CBR 224 kbps (384 kbps - episode 01) [Русский]
Аудио#2: 48 kHz, AC3, 6 ch, CBR 384 kbps [Английский]
1 - Инопланетяне (Aliens): По мнению Хокинга инопланетная жизнь существут в разных формах, начиная от простейших организмов, до развитых цивилизаций. Но мы должны избегать контактов с инопланетным разумом, т.к. это может привести к катастрофическим последствиям...

2 - Путешествие во времени (Time Travel): Хокинг утверждает, что путешествие в прошлое невозможно, так как противоречит основным законам природы (нарушает причинно-следсвенные связи). А вот путешествие в будущее теоретически возможно! Хокинг объясняет, а Discovery иллюстрирует несколько методов путешествия в будущее, основанных на разных физических законах.

3 - Рассказ обо всем (The Story of Everything): Смотрите, как возникла Вселенная, рождались звезды, черные дыры, жизнь — и чем всё закончится.
Общее
Уникальный идентификатор : 204052574707148397137209928708856921744 (0x998318ACBD1173EEAC0566A48636BE90)
Полное имя : E:\Into.The.Universe.with.Stephen.Hawking.BDRip.720p\Into.The.Universe.with.Stephen.Hawking.e01.Aliens.BDRip.720p.x264.mkv
Формат : Matroska
Версия формата : Version 2
Размер файла : 2,05 Гбайт
Продолжительность : 43 м.
Режим общего битрейта : Переменный
Общий поток : 6759 Кбит/сек
Дата кодирования : UTC 2010-10-24 12:43:19
Программа кодирования : mkvmerge v4.1.1 ('Bouncin' Back') сборка от Jul 3 2010 22:54:08
Библиотека кодирования : libebml v1.0.0 + libmatroska v1.0.0

Видео
Идентификатор : 1
Формат : AVC
Формат/Информация : Advanced Video Codec
Профиль формата : High@L4.1
Параметр CABAC формата : Да
Параметр ReFrames формата : 3 кадра
Идентификатор кодека : V_MPEG4/ISO/AVC
Продолжительность : 43 м.
Вид битрейта : Переменный
Битрейт : 6000 Кбит/сек
Максимальный битрейт : 14,0 Мбит/сек
Ширина : 1280 пикселей
Высота : 720 пикселей
Соотношение сторон : 16:9
Частота кадров : 25,000 кадров/сек
Цветовое пространство : YUV
Субдискретизация насыщенности : 4:2:0
Битовая глубина : 8 бит
Тип развёртки : Прогрессивная
Бит/(Пиксели*Кадры) : 0.260
Размер потока : 1,78 Гбайт (87%)
Библиотека кодирования : x264 core 98 r1649 c54c47d
Настройки программы : cabac=1 / ref=3 / deblock=1:0:0 / analyse=0x3:0x113 / me=esa / subme=7 / psy=1 / psy_rd=1.00:0.00 / mixed_ref=1 / me_range=16 / chroma_me=1 / trellis=1 / 8x8dct=1 / cqm=0 / deadzone=21,11 / fast_pskip=1 / chroma_qp_offset=-2 / threads=6 / sliced_threads=0 / slices=4 / nr=0 / decimate=1 / interlaced=0 / constrained_intra=0 / bframes=4 / b_pyramid=1 / b_adapt=2 / b_bias=0 / direct=1 / weightb=1 / weightp=0 / keyint=24 / keyint_min=2 / scenecut=40 / intra_refresh=0 / rc_lookahead=25 / rc=2pass / mbtree=1 / bitrate=6000 / ratetol=1.0 / qcomp=0.60 / qpmin=10 / qpmax=51 / qpstep=4 / cplxblur=20.0 / qblur=0.5 / vbv_maxrate=14000 / vbv_bufsize=14500 / ip_ratio=1.40 / aq=1:1.00 / nal_hrd=vbr
Язык : English
Default : Да
Forced : Нет
Основные цвета : BT.709-5, BT.1361, IEC 61966-2-4, SMPTE RP177
Характеристики трансфера : BT.709-5, BT.1361
Коэффициенты матрицы : BT.709-5, BT.1361, IEC 61966-2-4 709, SMPTE RP177

Аудио #1
Идентификатор : 2
Формат : AC-3
Формат/Информация : Audio Coding 3
Расширение режима : CM (complete main)
Режим смешивания : Header stripping
Идентификатор кодека : A_AC3
Продолжительность : 43 м.
Вид битрейта : Постоянный
Битрейт : 384 Кбит/сек
Каналы : 6 каналов
Расположение каналов : Front: L C R, Side: L R, LFE
Частота : 48,0 КГц
Битовая глубина : 16 бит
Метод сжатия : С потерями
Размер потока : 119 Мбайт (6%)
Заголовок : 384 Kbps AC3 5.1 Clean effects
Язык : Russian
Default : Да
Forced : Нет

Аудио #2
Идентификатор : 3
Формат : AC-3
Формат/Информация : Audio Coding 3
Расширение режима : CM (complete main)
Режим смешивания : Header stripping
Идентификатор кодека : A_AC3
Продолжительность : 43 м.
Вид битрейта : Постоянный
Битрейт : 384 Кбит/сек
Каналы : 6 каналов
Расположение каналов : Front: L C R, Side: L R, LFE
Частота : 48,0 КГц
Битовая глубина : 16 бит
Метод сжатия : С потерями
Размер потока : 119 Мбайт (6%)
Заголовок : 384 Kbps AC3 5.1 Clean effects
Язык : English
Default : Нет
Forced : Нет

Общее
Уникальный идентификатор : 235410226764152954112950275670399689918 (0xB11A5C4955D330CAB56ACE0550DEA4BE)
Полное имя : E:\Into.The.Universe.with.Stephen.Hawking.BDRip.720p\Into.The.Universe.with.Stephen.Hawking.e02.Time.Travel.BDRip.720p.x264.mkv
Формат : Matroska
Версия формата : Version 2
Размер файла : 2,00 Гбайт
Продолжительность : 43 м.
Режим общего битрейта : Переменный
Общий поток : 6603 Кбит/сек
Дата кодирования : UTC 2010-10-30 07:31:01
Программа кодирования : mkvmerge v4.1.1 ('Bouncin' Back') сборка от Jul 3 2010 22:54:08
Библиотека кодирования : libebml v1.0.0 + libmatroska v1.0.0

Видео
Идентификатор : 1
Формат : AVC
Формат/Информация : Advanced Video Codec
Профиль формата : High@L4.1
Параметр CABAC формата : Да
Параметр ReFrames формата : 3 кадра
Идентификатор кодека : V_MPEG4/ISO/AVC
Продолжительность : 43 м.
Вид битрейта : Переменный
Битрейт : 6000 Кбит/сек
Максимальный битрейт : 14,0 Мбит/сек
Ширина : 1280 пикселей
Высота : 720 пикселей
Соотношение сторон : 16:9
Частота кадров : 25,000 кадров/сек
Цветовое пространство : YUV
Субдискретизация насыщенности : 4:2:0
Битовая глубина : 8 бит
Тип развёртки : Прогрессивная
Бит/(Пиксели*Кадры) : 0.260
Размер потока : 1,78 Гбайт (89%)
Библиотека кодирования : x264 core 98 r1649 c54c47d
Настройки программы : cabac=1 / ref=3 / deblock=1:0:0 / analyse=0x3:0x113 / me=esa / subme=7 / psy=1 / psy_rd=1.00:0.00 / mixed_ref=1 / me_range=32 / chroma_me=1 / trellis=1 / 8x8dct=1 / cqm=0 / deadzone=21,11 / fast_pskip=1 / chroma_qp_offset=-2 / threads=6 / sliced_threads=0 / slices=4 / nr=0 / decimate=1 / interlaced=0 / constrained_intra=0 / bframes=4 / b_pyramid=1 / b_adapt=2 / b_bias=0 / direct=1 / weightb=1 / weightp=0 / keyint=24 / keyint_min=2 / scenecut=40 / intra_refresh=0 / rc_lookahead=25 / rc=2pass / mbtree=1 / bitrate=6000 / ratetol=1.0 / qcomp=0.60 / qpmin=10 / qpmax=51 / qpstep=4 / cplxblur=20.0 / qblur=0.5 / vbv_maxrate=14000 / vbv_bufsize=14500 / ip_ratio=1.40 / aq=1:1.00 / nal_hrd=vbr
Язык : English
Default : Да
Forced : Нет
Основные цвета : BT.709-5, BT.1361, IEC 61966-2-4, SMPTE RP177
Характеристики трансфера : BT.709-5, BT.1361
Коэффициенты матрицы : BT.709-5, BT.1361, IEC 61966-2-4 709, SMPTE RP177

Аудио #1
Идентификатор : 2
Формат : AC-3
Формат/Информация : Audio Coding 3
Расширение режима : CM (complete main)
Режим смешивания : Header stripping
Идентификатор кодека : A_AC3
Продолжительность : 43 м.
Вид битрейта : Постоянный
Битрейт : 224 Кбит/сек
Каналы : 6 каналов
Расположение каналов : Front: L C R, Side: L R, LFE
Частота : 48,0 КГц
Битовая глубина : 16 бит
Метод сжатия : С потерями
Размер потока : 69,6 Мбайт (3%)
Заголовок : 224 Kbps AC3 5.1 Clean effects
Язык : Russian
Default : Да
Forced : Нет

Аудио #2
Идентификатор : 3
Формат : AC-3
Формат/Информация : Audio Coding 3
Расширение режима : CM (complete main)
Идентификатор кодека : A_AC3
Продолжительность : 43 м.
Вид битрейта : Постоянный
Битрейт : 384 Кбит/сек
Каналы : 6 каналов
Расположение каналов : Front: L C R, Side: L R, LFE
Частота : 48,0 КГц
Битовая глубина : 16 бит
Метод сжатия : С потерями
Размер потока : 119 Мбайт (6%)
Заголовок : 384 Kbps AC3 5.1 Clean effects
Язык : English
Default : Нет
Forced : Нет

Общее
Уникальный идентификатор : 202564601830688204311182651451806837498 (0x986485F2A77CD1EA892E7A25F8A3EAFA)
Полное имя : E:\Into.The.Universe.with.Stephen.Hawking.BDRip.720p\Into.The.Universe.with.Stephen.Hawking.e03.The.Story.of.Everything.BDRip.720p.x264.mkv
Формат : Matroska
Версия формата : Version 2
Размер файла : 3,99 Гбайт
Продолжительность : 1 ч. 26 м.
Режим общего битрейта : Переменный
Общий поток : 6600 Кбит/сек
Дата кодирования : UTC 2010-11-17 12:52:31
Программа кодирования : mkvmerge v4.1.1 ('Bouncin' Back') built on Jul 3 2010 22:54:08
Библиотека кодирования : libebml v1.0.0 + libmatroska v1.0.0

Видео
Идентификатор : 1
Формат : AVC
Формат/Информация : Advanced Video Codec
Профиль формата : High@L4.1
Параметр CABAC формата : Да
Параметр ReFrames формата : 3 кадра
Идентификатор кодека : V_MPEG4/ISO/AVC
Продолжительность : 1 ч. 26 м.
Вид битрейта : Переменный
Битрейт : 6000 Кбит/сек
Максимальный битрейт : 14,0 Мбит/сек
Ширина : 1280 пикселей
Высота : 720 пикселей
Соотношение сторон : 16:9
Частота кадров : 25,000 кадров/сек
Цветовое пространство : YUV
Субдискретизация насыщенности : 4:2:0
Битовая глубина : 8 бит
Тип развёртки : Прогрессивная
Бит/(Пиксели*Кадры) : 0.260
Размер потока : 3,54 Гбайт (89%)
Библиотека кодирования : x264 core 98 r1649 c54c47d
Настройки программы : cabac=1 / ref=3 / deblock=1:0:0 / analyse=0x3:0x113 / me=esa / subme=7 / psy=1 / psy_rd=1.00:0.00 / mixed_ref=1 / me_range=32 / chroma_me=1 / trellis=1 / 8x8dct=1 / cqm=0 / deadzone=21,11 / fast_pskip=1 / chroma_qp_offset=-2 / threads=6 / sliced_threads=0 / slices=4 / nr=0 / decimate=1 / interlaced=0 / constrained_intra=0 / bframes=4 / b_pyramid=1 / b_adapt=2 / b_bias=0 / direct=1 / weightb=1 / weightp=0 / keyint=24 / keyint_min=2 / scenecut=40 / intra_refresh=0 / rc_lookahead=25 / rc=2pass / mbtree=1 / bitrate=6000 / ratetol=1.0 / qcomp=0.60 / qpmin=10 / qpmax=51 / qpstep=4 / cplxblur=20.0 / qblur=0.5 / vbv_maxrate=14000 / vbv_bufsize=14500 / ip_ratio=1.40 / aq=1:1.00 / nal_hrd=vbr
Язык : English
Default : Да
Forced : Нет
Основные цвета : BT.709-5, BT.1361, IEC 61966-2-4, SMPTE RP177
Характеристики трансфера : BT.709-5, BT.1361
Коэффициенты матрицы : BT.709-5, BT.1361, IEC 61966-2-4 709, SMPTE RP177

Аудио #1
Идентификатор : 2
Формат : AC-3
Формат/Информация : Audio Coding 3
Расширение режима : CM (complete main)
Идентификатор кодека : A_AC3
Продолжительность : 1 ч. 26 м.
Вид битрейта : Постоянный
Битрейт : 224 Кбит/сек
Каналы : 6 каналов
Расположение каналов : Front: L C R, Side: L R, LFE
Частота : 48,0 КГц
Битовая глубина : 16 бит
Метод сжатия : С потерями
Размер потока : 139 Мбайт (3%)
Заголовок : 224 Kbps AC3 5.1 Clean effects
Язык : Russian
Default : Да
Forced : Нет

Аудио #2
Идентификатор : 3
Формат : AC-3
Формат/Информация : Audio Coding 3
Расширение режима : CM (complete main)
Идентификатор кодека : A_AC3
Продолжительность : 1 ч. 26 м.
Вид битрейта : Постоянный
Битрейт : 384 Кбит/сек
Каналы : 6 каналов
Расположение каналов : Front: L C R, Side: L R, LFE
Частота : 48,0 КГц
Битовая глубина : 16 бит
Метод сжатия : С потерями
Размер потока : 238 Мбайт (6%)
Заголовок : 384 Kbps AC3 5.1 Clean effects
Язык : English
Default : Нет
Forced : Нет
info [Профиль]  [ЛС] 

AleksG1975

Пол: Пол:Муж

Стаж: 6 лет 8 месяцев

Сообщений: 88

Украина
Рейтинг

post 27-Янв-2012 21:52 (спустя 8 часов) [-]0[+]

[Цитировать] 

Мега раздача. Огромное СПАСИБО!!! Улыбаюсь

_________________
Aleks-G1975@yandex.com
info [Профиль]  [ЛС] 

rimo

Пол: Пол:Муж

Стаж: 5 лет 4 месяца

Сообщений: 1752

Украина
Рейтинг

post 27-Янв-2012 23:23 (спустя 1 час 30 минут) [-]0[+]

[Цитировать] 

Пожалуйста AleksG1975, приятного просмотра kolob_187
info [Профиль]  [ЛС] 

DimanLo

Пол: Пол:Муж

Стаж: 6 лет 10 месяцев

Сообщений: 125

Испания
Рейтинг

post 28-Янв-2012 07:44 (спустя 8 часов) [-]0[+]

[Цитировать] 

Благодарю Смеюсь

_________________
info [Профиль]  [ЛС] 

rimo

Пол: Пол:Муж

Стаж: 5 лет 4 месяца

Сообщений: 1752

Украина
Рейтинг

post 28-Янв-2012 17:30 (спустя 9 часов) [-]0[+]

[Цитировать] 

DimanLo kolob_182
info [Профиль]  [ЛС] 

rimo

Пол: Пол:Муж

Стаж: 5 лет 4 месяца

Сообщений: 1752

Украина
Рейтинг

post 01-Фев-2012 19:41 (спустя 4 дня) [-]0[+]

[Цитировать] 

позолотил
info [Профиль]  [ЛС] 

fallenAngel

Пол: Пол:Муж

Стаж: 6 лет 3 месяца

Сообщений: 96

Украина
Рейтинг

post 05-Фев-2012 04:07 (спустя 3 дня) [-]1[+]

[Цитировать] 

Очень интересная передача, хотя я думал что етой передачи будет побольше серий. Спасибо за релиз Улыбаюсь

_________________
info [Профиль]  [ЛС] 

rimo

Пол: Пол:Муж

Стаж: 5 лет 4 месяца

Сообщений: 1752

Украина
Рейтинг

post 06-Фев-2012 14:33 (спустя 1 день 10 часов) [-]0[+]

[Цитировать] 

fallenAngel всегда пожалуйста kolob_187
info [Профиль]  [ЛС] 

Пашенька

Пол: Пол:Муж

Стаж: 7 лет 7 месяцев

Сообщений: 68

Россия
Рейтинг

post 10-Авг-2012 00:50 (спустя 6 месяцев 3 дня) [-]0[+]

[Цитировать] 

Спасибо) Очень интересные у него размышления) А можете посоветовать что нибудь еще на подобную тему? Просто фильмов про космос полно, но уверен среди них много шлаковых)

_________________
info [Профиль]  [ЛС] 

rimo

Пол: Пол:Муж

Стаж: 5 лет 4 месяца

Сообщений: 1752

Украина
Рейтинг

post 10-Авг-2012 00:58 (спустя 8 минут) [-]0[+]

[Цитировать] 

Пашенька писал(а):

Спасибо) Очень интересные у него размышления) А можете посоветовать что нибудь еще на подобную тему? Просто фильмов про космос полно, но уверен среди них много шлаковых)
Путешествие на край вселенной. Семь чудес солнечной системы. Через червоточину / Сквозь кротовую нору с Морганом Фрименом (2 сезона), много чего есть. Но самые научно подкованные и интересные из них, вот этой студии http://tapochek.net/viewtopic.php?t=94319 , правда не везде есть перевод профессиональный.
info [Профиль]  [ЛС] 

Пашенька

Пол: Пол:Муж

Стаж: 7 лет 7 месяцев

Сообщений: 68

Россия
Рейтинг

post 10-Авг-2012 16:07 (спустя 15 часов) [-]0[+]

[Цитировать] 

Благодарю) kolob_117

_________________
info [Профиль]  [ЛС] 

FirstNN

Пол: Пол:Муж

Стаж: 6 лет 3 месяца

Сообщений: 20

Россия
Рейтинг

post 10-Авг-2012 16:19 (спустя 11 минут) [-]0[+]

[Цитировать] 

Огромное спасибо.
Отличная раздача.
info [Профиль]  [ЛС] 

rimo

Пол: Пол:Муж

Стаж: 5 лет 4 месяца

Сообщений: 1752

Украина
Рейтинг

post 11-Авг-2012 02:49 (спустя 10 часов) [-]0[+]

[Цитировать] 

Пашенька, FirstNN приятного просмотра kolob_182
info [Профиль]  [ЛС] 

Boryana

Пол: Пол:Муж

Стаж: 6 лет

Сообщений: 26

СССР
Рейтинг

post 12-Ноя-2012 19:59 (спустя 3 месяца 1 день) [-]0[+]

[Цитировать] 

Роскошная передача. Да и тип этот Хокинг, невероятные вещи творит! Собрал почти все его книги, сейчас потихоньку читаю!
info [Профиль]  [ЛС] 
Показать сообщения:    
Ответить на тему

Текущее время: 04-Дек 12:10

Часовой пояс: GMT + 4



Вы не можете начинать темы
Вы не можете отвечать на сообщения
Вы не можете редактировать свои сообщения
Вы не можете удалять свои сообщения
Вы не можете голосовать в опросах
Вы не можете прикреплять файлы к сообщениям
Вы не можете скачивать файлы