Ошибка

Иллюзионист / L'illusionniste [Сильвен Шомэ] [2010 г., Анимационный, приключения, BDrip 1080p]

Ответить на тему
 
Автор Сообщение

Johann Weyer

Пол: Пол:Муж

Стаж: 6 лет 8 месяцев

Сообщений: 510

Германия
Рейтинг

post 26-Янв-2012 20:55 5[+]

[Цитировать] 

Иллюзионист / L'illusionniste

Год выпуска: 2010
Страна: Франция, Великобритания
Жанр: Анимационный, приключения
Продолжительность: 1:19:52
Перевод: Профессиональный (двухголосый закадровый)

Режиссер: Сильвен Шомэ
В ролях: Жан-Клод Донда (The Illusionist / French Cinema Manager, озвучка), Эдит Ранкин (Alice, озвучка), Дункан МакНил (Additional Voices, озвучка), Рэймонд Мирнс (Additional Voices, озвучка), Джеймс Т. Мьюир (Additional Voices, озвучка), Том Ури (Additional Voices, озвучка), Пол Бэнди (Additional Voices, озвучка), Жак Тати (Monsieur Hulot, хроника, в титрах не указан)
Описание:
Действие мультфильма разворачивается в Шотландии, в конце 1950-х гг. Сюжет вращается вокруг злоключений фокусника, который попадает в закрытое сообщество и встречает девушку, которая убеждена, что он - настоящий волшебник
Доп. информация: IMDB: 7.8/10 Нет возрастных ограничений
Качество: BDRip 1080p
Формат: MKV
Видео кодек: AVC
Аудио кодек: AC3/DTS
Видео: 1920x1036 at 23.976 fps, 5902 kbps, 0.124 bit/pixel, MPEG-4 AVC
Аудио:
1. Russian - 48 kHz, 2 ch, 224.00 kbps, AC3 (Side: L R)
2. English - 48 kHz, 6 ch, 1536.00 kbps, DTS (Front: L C R, Side: L R, LFE)
+ Англ. сабы

Код:

General
Unique ID                                : 174922309659172424408811838949000678531 (0x8398CFB8A848A2B8A50630592E630C83)
Complete name                            : D:\Bebtu\Movies\ILZNst1o8omvo.mkv
Format                                   : Matroska
Format version                           : Version 2
File size                                : 4.38 GiB
Duration                                 : 1h 19mn
Overall bit rate mode                    : Variable
Overall bit rate                         : 7 843 Kbps
Encoded date                             : UTC 2011-04-20 09:58:53
Writing application                      : mkvmerge v4.6.0 ('Still Crazy After All These Years') сборка от Mar 10 2011 02:50:32
Writing library                          : libebml v1.2.0 + libmatroska v1.1.0

Video
ID                                       : 1
Format                                   : AVC
Format/Info                              : Advanced Video Codec
Format profile                           : High@L5.0
Format settings, CABAC                   : Yes
Format settings, ReFrames                : 12 frames
Codec ID                                 : V_MPEG4/ISO/AVC
Duration                                 : 1h 19mn
Bit rate                                 : 5 902 Kbps
Nominal bit rate                         : 4 080 Kbps
Width                                    : 1 920 pixels
Height                                   : 1 036 pixels
Display aspect ratio                     : 1.853
Frame rate                               : 23.976 fps
Color space                              : YUV
Chroma subsampling                       : 4:2:0
Bit depth                                : 8 bits
Scan type                                : Progressive
Bits/(Pixel*Frame)                       : 0.124
Stream size                              : 3.29 GiB (75%)
Title                                    : BDRip 1080p от FREEISLAND
Writing library                          : x264 core 114 r1924 08d04a4
Encoding settings                        : cabac=1 / ref=12 / deblock=1:1:1 / analyse=0x3:0x133 / me=umh / subme=7 / psy=1 / psy_rd=1.00:0.00 / mixed_ref=1 / me_range=48 / chroma_me=1 / trellis=2 / 8x8dct=1 / cqm=0 / deadzone=21,11 / fast_pskip=0 / chroma_qp_offset=-2 / threads=9 / sliced_threads=0 / nr=0 / decimate=1 / interlaced=0 / constrained_intra=0 / bframes=8 / b_pyramid=2 / b_adapt=1 / b_bias=0 / direct=1 / weightb=1 / open_gop=0 / weightp=2 / keyint=250 / keyint_min=23 / scenecut=40 / intra_refresh=0 / rc=2pass / mbtree=0 / bitrate=4080 / ratetol=1.0 / qcomp=1.00 / qpmin=2 / qpmax=51 / qpstep=2 / cplxblur=20.0 / qblur=0.5 / ip_ratio=1.40 / pb_ratio=1.30 / aq=1:1.00
Language                                 : English
Color primaries                          : BT.709-5, BT.1361, IEC 61966-2-4, SMPTE RP177
Transfer characteristics                 : BT.709-5, BT.1361
Matrix coefficients                      : BT.709-5, BT.1361, IEC 61966-2-4 709, SMPTE RP177

Audio #1
ID                                       : 2
Format                                   : AC-3
Format/Info                              : Audio Coding 3
Mode extension                           : CM (complete main)
Codec ID                                 : A_AC3
Duration                                 : 1h 19mn
Bit rate mode                            : Constant
Bit rate                                 : 224 Kbps
Channel(s)                               : 2 channels
Channel positions                        : Front: L R
Sampling rate                            : 48.0 KHz
Bit depth                                : 16 bits
Compression mode                         : Lossy
Delay relative to video                  : 14ms
Stream size                              : 128 MiB (3%)
Language                                 : Russian

Audio #2
ID                                       : 3
Format                                   : DTS
Format/Info                              : Digital Theater Systems
Format profile                           : MA / Core
Codec ID                                 : A_DTS
Duration                                 : 1h 19mn
Bit rate mode                            : Variable
Bit rate                                 : 1 561 Kbps / 1 510 Kbps
Channel(s)                               : 6 channels
Channel positions                        : Front: L C R, Side: L R, LFE
Sampling rate                            : 48.0 KHz
Bit depth                                : 24 bits
Compression mode                         : Lossless / Lossy
Language                                 : English

Text
ID                                       : 4
Format                                   : VobSub
Muxing mode                              : zlib
Codec ID                                 : S_VOBSUB
Codec ID/Info                            : The same subtitle format used on DVDs
Language                                 : English

Скриншоты:
http://i20.fastpic.ru/big/2011/0501/58/6958fd154e4973bf0b0b02708067f558.png http://i20.fastpic.ru/big/2011/0501/6e/fcb82f5d2eb3f6af2758cd838fa40e6e.png http://i20.fastpic.ru/big/2011/0501/8c/8e4be5436b9f44db3ba964a03c966f8c.png http://i20.fastpic.ru/big/2011/0501/41/57946ee59c332290d4ceb7238fc57441.png 
© Оформление by Edward Elric
info [Профиль]  [ЛС] 

Johann Weyer

Пол: Пол:Муж

Стаж: 6 лет 8 месяцев

Сообщений: 510

Германия
Рейтинг

post 17-Фев-2012 16:09 (спустя 21 день) [-]0[+]

[Цитировать] 





Updated:
info [Профиль]  [ЛС] 

FuriouSAngeL

Пол: Пол:Муж

Стаж: 5 лет 5 месяцев

Сообщений: 1830

Германия
Рейтинг

post 17-Фев-2012 21:45 (спустя 5 часов) [-]1[+]

[Цитировать] 

Невероятно жизненный и добрый! Тронул до глубины души kolob_102

_________________
info [Профиль]  [ЛС] 
Показать сообщения:    
Ответить на тему

Текущее время: 03-Дек 15:44

Часовой пояс: GMT + 4



Вы не можете начинать темы
Вы не можете отвечать на сообщения
Вы не можете редактировать свои сообщения
Вы не можете удалять свои сообщения
Вы не можете голосовать в опросах
Вы не можете прикреплять файлы к сообщениям
Вы не можете скачивать файлы