Ошибка

До окончания фрилича осталось:


Римские каникулы / Roman Holiday (Уильям Уайлер / William Wyler) [1953 г., Романтическая комедия, HDTVRip]

Ответить на тему
 
Автор Сообщение

Inspector Lapul'kins

Пол: Пол:Муж

Стаж: 6 лет 3 месяца

Сообщений: 128

Россия
Рейтинг

post 21-Янв-2012 22:25 1[+]

[Цитировать] 

Римские каникулы / Roman Holiday



Страна: США, Италия
Жанр: Романтическая комедия
Год выпуска: 1953
Продолжительность: 01:58:07

Перевод: Дубляж, многоголосный закадровый, двухголосный закадровый, одноголосый закадровый
Субтитры: Русские и английские

Режиссер: Уильям Уайлер / William Wyler

В ролях: Грегори Пек, Одри Хепберн, Эдди Альберт, Хартли Пауэр, Харкорт Уильямс, Маргарет Роулингс, Туллио Карминати, Паоло Карлини, Клаудио Эрмели, Паула Борбони

Описание: В Рим с официальным визитом прибывает юная принцесса Анна. Дни её расписаны по минутам — приемы, посещения фабрик, интервью… в общем, тоска! Она совсем девчонка, ей хочется свободы и она убегает из дворца на улицу, где гуляют, поют и целуются жители Вечного города.

Увы, незадолго до побега доктор сделал ей укол снотворного и принцесса засыпает на скамейке. А мимо проходит возвращающийся домой после вечера за карточным столом американский журналист Джо Брэдли. Рано утром по заданию редактора он должен быть на пресс-конференции у принцессы Анны, которую он в глаза никогда не видел…

Тип релиза: HDTVRip
Контейнер: MKV

Видео: x264, 960x720, 5 110 Kbps at 23.976 fps
Аудио #1: Russian: 48 kHz, AC3 5.1 @ 384 kbps |Многоголосный закадровый, Film Prestige|
Аудио #2: Russian: 48 kHz, AC3 2.0 @ 128 kbps |Советский дубляж (со вствками MVO Film Prestige)|
Аудио #3: Russian: 48 kHz, AC3 2.0 @ 192 kbps |Многоголосный закадровый, Мастер Тэйп / 5 канал|
Аудио #4: Russian: 48 kHz, AC3 2.0 @ 192 kbps |Двухголосный закадровый, НТВ+ / СТС|
Аудио #5: Russian: 48 kHz, AC3 2.0 @ 128 kbps |Двухголосный закадровый, New Dream Media|
Аудио #6: Russian: 48 kHz, AC3 2.0 @ 192 kbps |Двухголосный закадровый, Светла|
Аудио #7: Russian: 48 kHz, AC3 2.0 @ 192 kbps |Авторский закадровый, Михалев|
Аудио #8: English: 48 kHz, AC3 5.1 @ 384 kbps |Оригинал|

Код:

General
 Complete name : T:\1953 - Римские каникулы (Roman Holiday).1953.HDTVRip.720p.-DON.mkv
 Format : Matroska
 File size : 5.64 GiB
 Duration : 1h 58mn
 Overall bit rate : 6 834 Kbps
 Movie name : Roman Holiday (1953)
 Encoded date : UTC 2011-01-13 10:45:49
 Writing application : mkvmerge v4.4.0 ('Die Wiederkehr') сборка от Oct 31 2010 21:52:48
 Writing library : libebml v1.0.0 + libmatroska v1.0.0

Video
 ID : 1
 Format : AVC
 Format/Info : Advanced Video Codec
 Format profile : High@L4.1
 Format settings, CABAC : Yes
 Format settings, ReFrames : 12 frames
 Muxing mode : Container profile=Unknown@4.1
 Codec ID : V_MPEG4/ISO/AVC
 Duration : 1h 58mn
 Bit rate : 5 110 Kbps
 Width : 960 pixels
 Height : 720 pixels
 Display aspect ratio : 4:3
 Frame rate : 23.976 fps
 Color space : YUV
 Chroma subsampling : 4:2:0
 Bit depth : 8 bits
 Scan type : Progressive
 Bits/(Pixel*Frame) : 0.308
 Stream size : 4.05 GiB (72%)
 Title : HDTV 720p
 Writing library : x264 core 112 r1834+3 ef18685
 Encoding settings : cabac=1 / ref=12 / deblock=1:-3:-3 / analyse=0x3:0x133 / me=umh / subme=10 / psy=1 / fade_compensate=0.00 / psy_rd=1.05:0.00 / mixed_ref=1 / me_range=24 / chroma_me=0 / trellis=2 / 8x8dct=1 / cqm=0 / deadzone=21,11 / fast_pskip=0 / chroma_qp_offset=-2 / threads=36 / sliced_threads=0 / nr=0 / decimate=0 / interlaced=0 / constrained_intra=0 / fgo=0 / bframes=8 / b_pyramid=2 / b_adapt=2 / b_bias=0 / direct=3 / weightb=1 / open_gop=0 / weightp=2 / keyint=250 / keyint_min=23 / scenecut=40 / intra_refresh=0 / rc=2pass / mbtree=0 / bitrate=5110 / ratetol=1.0 / qcomp=0.80 / qpmin=0 / qpmax=51 / qpstep=4 / cplxblur=20.0 / qblur=0.5 / ip_ratio=1.30 / pb_ratio=1.20 / aq=1:0.75
 Language : English

Audio #1
 ID : 2
 Format : AC-3
 Format/Info : Audio Coding 3
 Mode extension : CM (complete main)
 Codec ID : A_AC3
 Duration : 1h 58mn
 Bit rate mode : Constant
 Bit rate : 384 Kbps
 Channel(s) : 5 channels
 Channel positions : Front: L C R, Side: L R
 Sampling rate : 48.0 KHz
 Bit depth : 16 bits
 Video delay : 13ms
 Stream size : 324 MiB (6%)
 Title : AC3 5.1 @ 384 kbps |Многоголосный закадровый, Film Prestige|
 Language : Russian

Audio #2
 ID : 3
 Format : AC-3
 Format/Info : Audio Coding 3
 Mode extension : CM (complete main)
 Codec ID : A_AC3
 Duration : 1h 58mn
 Bit rate mode : Constant
 Bit rate : 128 Kbps
 Channel(s) : 2 channels
 Channel positions : Front: L R
 Sampling rate : 48.0 KHz
 Bit depth : 16 bits
 Video delay : 17ms
 Stream size : 108 MiB (2%)
 Title : AC3 2.0 @ 128 kbps |Советский дубляж (со вствками MVO Film Prestige)|
 Language : Russian

Audio #3
 ID : 4
 Format : AC-3
 Format/Info : Audio Coding 3
 Mode extension : CM (complete main)
 Codec ID : A_AC3
 Duration : 1h 58mn
 Bit rate mode : Constant
 Bit rate : 192 Kbps
 Channel(s) : 2 channels
 Channel positions : Front: L R
 Sampling rate : 48.0 KHz
 Bit depth : 16 bits
 Video delay : 17ms
 Stream size : 162 MiB (3%)
 Title : AC3 2.0 @ 192 kbps |Многоголосный закадровый, Мастер Тэйп / 5 канал|
 Language : Russian

Audio #4
 ID : 5
 Format : AC-3
 Format/Info : Audio Coding 3
 Mode extension : CM (complete main)
 Codec ID : A_AC3
 Duration : 1h 58mn
 Bit rate mode : Constant
 Bit rate : 192 Kbps
 Channel(s) : 2 channels
 Channel positions : Front: L R
 Sampling rate : 48.0 KHz
 Bit depth : 16 bits
 Video delay : 17ms
 Stream size : 162 MiB (3%)
 Title : AC3 2.0 @ 192 kbps |Двухголосный закадровый, НТВ+ / СТС|
 Language : Russian

Audio #5
 ID : 6
 Format : AC-3
 Format/Info : Audio Coding 3
 Mode extension : CM (complete main)
 Codec ID : A_AC3
 Duration : 1h 58mn
 Bit rate mode : Constant
 Bit rate : 128 Kbps
 Channel(s) : 2 channels
 Channel positions : Front: L R
 Sampling rate : 48.0 KHz
 Bit depth : 16 bits
 Video delay : 17ms
 Stream size : 108 MiB (2%)
 Title : AC3 2.0 @ 128 kbps |Двухголосный закадровый, New Dream Media|
 Language : Russian

Audio #6
 ID : 7
 Format : AC-3
 Format/Info : Audio Coding 3
 Mode extension : CM (complete main)
 Codec ID : A_AC3
 Duration : 1h 58mn
 Bit rate mode : Constant
 Bit rate : 192 Kbps
 Channel(s) : 2 channels
 Channel positions : Front: L R
 Sampling rate : 48.0 KHz
 Bit depth : 16 bits
 Video delay : 17ms
 Stream size : 162 MiB (3%)
 Title : AC3 2.0 @ 192 kbps |Двухголосный закадровый, Светла|
 Language : Russian

Audio #7
 ID : 8
 Format : AC-3
 Format/Info : Audio Coding 3
 Format profile : Dolby Digital
 Mode extension : CM (complete main)
 Codec ID : A_AC3
 Duration : 1h 58mn
 Bit rate mode : Constant
 Bit rate : 192 Kbps
 Channel(s) : 2 channels
 Channel positions : Front: L R
 Sampling rate : 48.0 KHz
 Bit depth : 16 bits
 Video delay : 17ms
 Stream size : 162 MiB (3%)
 Title : AC3 2.0 @ 192 kbps |Авторский закадровый, Михалев|
 Language : Russian

Audio #8
 ID : 9
 Format : AC-3
 Format/Info : Audio Coding 3
 Mode extension : CM (complete main)
 Codec ID : A_AC3
 Duration : 1h 58mn
 Bit rate mode : Constant
 Bit rate : 384 Kbps
 Channel(s) : 5 channels
 Channel positions : Front: L C R, Side: L R
 Sampling rate : 48.0 KHz
 Bit depth : 16 bits
 Video delay : 13ms
 Stream size : 324 MiB (6%)
 Title : AC3 5.1 @ 384 kbps |Оригинал|
 Language : English

Text #1
 ID : 10
 Format : VobSub
 Codec ID : S_VOBSUB
 Codec ID/Info : The same subtitle format used on DVDs
 Language : Russian

Text #2
 ID : 11
 Format : UTF-8
 Codec ID : S_TEXT/UTF8
 Codec ID/Info : UTF-8 Plain Text
 Title : English
 Language : English

Menu
 00:00:00.000 : :Chapter 1
 00:01:38.081 : :Chapter 2
 00:07:17.581 : :Chapter 3
 00:13:23.747 : :Chapter 4
 00:18:30.581 : :Chapter 5
 00:24:23.581 : :Chapter 6
 00:30:40.914 : :Chapter 7
 00:40:09.748 : :Chapter 8
 00:49:39.448 : :Chapter 9
 00:54:59.081 : :Chapter 10
 01:01:07.581 : :Chapter 11
 01:05:16.248 : :Chapter 12
 01:12:45.581 : :Chapter 13
 01:17:11.415 : :Chapter 14
 01:22:14.915 : :Chapter 15
 01:32:01.915 : :Chapter 16
 01:40:01.448 : :Chapter 17
 01:48:02.248 : :Chapter 18
info [Профиль]  [ЛС] 

maxi26

Пол: Пол:Муж

Стаж: 6 лет 9 месяцев

Сообщений: 1

Россия
Рейтинг

post 22-Янв-2012 06:30 (спустя 8 часов) [-]0[+]

[Цитировать] 

Ах, какие у нее глаза
info [Профиль]  [ЛС] 

deHucka74rus

Пол: Пол:Муж

Стаж: 3 года 8 месяцев

Сообщений: 4

Россия
Рейтинг

post 24-Июл-2013 11:22 (спустя 1 год 6 месяцев) [-]1[+]

[Цитировать] 

встаньте на раздачу, хоть кто нибудь плиииииз
info [Профиль]  [ЛС] 
Показать сообщения:    
Ответить на тему

Текущее время: 10-Дек 16:51

Часовой пояс: GMT + 4



Вы не можете начинать темы
Вы не можете отвечать на сообщения
Вы не можете редактировать свои сообщения
Вы не можете удалять свои сообщения
Вы не можете голосовать в опросах
Вы не можете прикреплять файлы к сообщениям
Вы не можете скачивать файлы