Ошибка

Вторая мировая в HD цвете / World War II In HD Colour (13 из 13 серий) (Джордж Маршалл) [2009, Документальный, исторический DVDRip]

Ответить на тему
 
Автор Сообщение

rimo

Пол: Пол:Муж

Стаж: 5 лет 5 месяцев

Сообщений: 1752

Украина
Рейтинг

post 16-Янв-2012 01:32 3[+]

[Цитировать] 

Вторая мировая в HD цвете / World War II In HD Colour (13 из 13 серий)


Год выпуска: 2009
Страна: США
Жанр: Документальный, исторический
Продолжительность: 13 х ~00:51:27
Перевод: Профессиональный (одноголосый)
Субтитры: отсутствуют
Режиссер:
  • Джордж Маршалл
Оцвечивание и реставрация:
Текст читают:
  • Роман Антонович[Rus]
  • Роберт Пауэлл[Eng]
В ролях:
  • военные, историки и др.

Описание: Вошедший в документальный сериал материал может по праву считаться золотой коллекцией редчайших архивных съемок Второй мировой войны. Благодаря новейшим технологиям колоризации, события 1939-1945 годов предстанут на экране в цветном изображении. Воссоздать события тех лет также помогает сверхсовременная графика и технология радиолокационного картографирования земной поверхности. В документальный сериал вошли ранее секретные материалы, недавнее открытие доступа к которым сыграло решающую роль в заполнении многочисленных белых пятен в истории Второй мировой войны.
Релиз взят у:
Качество: DVDRip
Формат: AVI
Видео кодек: XviD
Аудио кодек: MP3
Видео: 608x352 (1.67:1), 25 fps, XviD MPEG-4 ~2016 kbps avg, 0.377 bit/pixel
Аудио#1: 48 kHz, MPEG Layer 3, 2 ch, ~128.00 kbps avg [Rus]
Аудио#2: 48 kHz, AC3, 2 ch, ~192.00 kbps [Eng]
Тех.данные серий незначительно различаются по разрешению
1. Гроза надвигается
Каким образом мировое соглашение, подписанное по окончании Первой мировой, привело к новому, еще более масштабному международному конфликту всего несколько лет спустя? Великая депрессия ослабила бдительность западано-европейских государств, в то время как в Германии, Италии, Японии и Испании стремительно набирали политический вес диктаторы-милитаристы...
2. Разжигание войны
Разработанная нацистами новая военная стратегия молниеносной войны «Блицкриг» застала врасплох Польшу, Великобританию и Францию. Гитлер захватил Францию всего за две недели, добившись тем самым того, что не удавалось Германии на протяжении четырех лет Первой мировой войны.
3. Наступление на Великобританию
В июле 1940 года Гитлер обратил свой взор на Великобританию. Он был уверен, что со дня на день англичане попросят мирных переговоров. Страна действительно находилась на грани поражения; ее военно-воздушные силы были измождены атаками немецкого Люфтваффе. Но тактические ошибки, допущенные командующим Люфтваффе Германом Герингом, дали англичанам шанс перегруппироваться. С помощью выдающихся дешифровальщиков и
специально обученных шпионов, а также при поддержке отрядов сопротивления на оккупированных территориях, Великобритания начала контратаку.
4. Нападение на Восточную Европу
Намерение Гитлера вторгнуться в СССР сначала повергло нацистских военноначальников в ужас. Советский союз был государством необъятных размеров и колоссальных ресурсов. Гитлер рассчитывал добиться успеха за счет неожиданности нападения и «молниеносной войны». Он прекрасно понимал, что если боевые действия затянутся, Германии наверняка грозит поражение…
5. Испепеляющее солнце Японии
7 декабря 1941 года Япония атаковала Перл Харбор и вступила во Вторую мировую войну. Вскоре она разгромила многочисленную британскую армию в Сингапуре и оставалась грозой Тихого океана до тех пор, пока в войну не вступили Соединенные штаты. С этого момента война приобрела инновационный характер. Так, линкор был отправлен на заслуженный отдых а на смену ему пришел стратегический авианосец.
6. Средиземноморье и Северная Африка
Муссолини всегда мечтал воссоздать великую римскую империю. Но военный стратег он был никакой. После неудавшихся наступлений в Северной Африке и Греции, его армия пустилась в бегство. Перед Гитлером встал вопрос: либо разворачивать свои войска и отправлять их в поддержку союзнику, либо бросить Муссолини на произвол судьбы. Гитлер решил протянуть ему руку помощи, что вскоре обернулось катастрофой для обоих диктаторов: Гитлер потерял сотни тысяч солдат, а Муссолини – свою жизнь.
7. Перелом
Как нацисты, так и участники антигитлеровской коалиции стремились нанести противнику решающий удар и положить конец войне. Британский маршал авиации сэр Артур Харрис полагал, что залог победы над врагом - стратегическая бомбардировка. Идея заключалась в том, чтобы сравнять с землей немецкие города и инфраструктуру. По его мнению, это должно было подорвать как боевой дух, так и боевые ресурсы Германии. Однако блестящий план обернулся трагедией Дрездена, когда от бомбардировок союзников пострадали десятки тысяч мирных жителей.
8. Советский паровой каток
К июлю 1943 года стал полностью ясен полный провал авантюры Гитлера на Востоке. После неудачи в нанесении нокаутирующих ударов под Сталинградом и Москвой, его армия была отдана на милость огромной советской военной машины. Имея огромные ресурсы, и, казалось безграничные людские ресурсы, Красная Армия медленно выдавливала немцев из России через Украину, Польшу, Балканы и Венгрию.
Это была война чудовищных масштабов, миллионные армии бросались друг на друга. Но это была также война сражавшихся небольшими группами партизан, людей, подобных Тито в Югославии, ведших партизанские отряды против немецко-фашистских войск.
9. Высадка союзников в Нормандии
Сегодня можно подумать, что высадка союзных войск в Нормандии была заведомо легкой победой над уже практически побежденной фашистской Германией. Операция по высадке войск в Нормандии была продумана с детальной точностью; для ее осуществления была даже разработана специальная техника. Если бы американцы не смогли удержаться на пляже Омаха, вся операция могла провалиться, и именно это чуть не произошло.
10. Кольцо сжимается
В 1944 году кольцо вокруг Германии начало смыкаться – с востока наступала Советская армия, а с запада - силы США и Британии. Впереди были Арнемская и Варшавская трагедии, и освобождение лагерей смерти.
11. Островная война
C декабря 1941 года в водах Тихого океана шли ожесточенные боевые действия против Японии. Только после победы у Марианских островов американцы уничтожили последний оплот японского тихоокеанского могущества. Кровопролитные бои велись и в джунглях, в том числе в Бирме, где, несмотря на ужасающие условия, союзники шаг за шагом отвоевывали занятые японцами территории.
12. Победа в Европе
Шокирующими и отчаянными были месяцы войны в Европе. Документальные кадры покажут, как британцы и американцы форсируют Рейн, как русские продираются через Польшу в саму Германию. Показаны кадры освобождения Бельзена и Бухенвальда, а так же весь ужас последних боев на улицах Берлина. Кульминацией истории явятся самоубийство Гитлера, раздел Германии между союзниками и Нюрнбергские процессы.
13. Победа в Тихом океане
К концу войны на Тихом океане японцы продолжали сражаться за каждый остров. В надежде заставить Японию сложить оружие американцы сбросили на Токио зажигательные бомбы, в результате чего погибли более 200,000 человек. И все равно японцы не сдавались. Тогда американский президент Труман принял решение пустить в ход новые атомные бомбы, - решение, которое обрекло на гибель города Хиросима и Нагасаки.
Общее
Полное имя : G:\Discovery Channel World War II In HD Color\Discovery.Channel.World.War.II.In.HD.Colour.01of13.The.Gathering.Storm.avi
Формат : AVI
Формат/Информация : Audio Video Interleave
Размер файла : 865 Мбайт
Продолжительность : 51 м.
Общий поток : 2350 Кбит/сек
Программа кодирования : VirtualDubMod 1.5.10.2 (build 2540/release)
Библиотека кодирования : VirtualDubMod build 2540/release

Видео
Идентификатор : 0
Формат : MPEG-4 Visual
Профиль формата : Advanced Simple@L5
Параметр BVOP формата : 1
Параметр QPel формата : Нет
Параметр GMC формата : Без точки перехода
Параметр матрицы формата : Выборочная
Идентификатор кодека : XVID
Идентификатор кодека/Подсказка : XviD
Продолжительность : 51 м.
Битрейт : 2016 Кбит/сек
Ширина : 608 пикселей
Высота : 352 пикселя
Соотношение сторон : 16:9
Частота кадров : 25,000 кадров/сек
Цветовое пространство : YUV
Субдискретизация насыщенности : 4:2:0
Битовая глубина : 8 бит
Тип развёртки : Прогрессивная
Метод сжатия : С потерями
Бит/(Пиксели*Кадры) : 0.377
Размер потока : 742 Мбайт (86%)
Библиотека кодирования : XviD 1.2.1 (UTC 2008-12-04)

Аудио #1
Идентификатор : 1
Формат : MPEG Audio
Версия формата : Version 1
Профиль формата : Layer 3
Режим : Joint stereo
Расширение режима : MS Stereo
Идентификатор кодека : 55
Идентификатор кодека/Подсказка : MP3
Продолжительность : 51 м.
Вид битрейта : Постоянный
Битрейт : 128 Кбит/сек
Каналы : 2 канала
Частота : 48,0 КГц
Метод сжатия : С потерями
Задержка видео : 1 с. 56 мс.
Размер потока : 46,9 Мбайт (5%)
Выравнивание : Разделение по промежуткам
Продолжительность промежутка : 40 мс. (1,00 видеокадр)
Время предзагрузки промежутка : 504 мс.
Язык : English

Аудио #2
Идентификатор : 2
Формат : AC-3
Формат/Информация : Audio Coding 3
Расширение режима : CM (complete main)
Идентификатор кодека : 2000
Продолжительность : 51 м.
Вид битрейта : Постоянный
Битрейт : 192 Кбит/сек
Каналы : 2 канала
Расположение каналов : Front: L R
Частота : 48,0 КГц
Битовая глубина : 16 бит
Метод сжатия : С потерями
Размер потока : 70,7 Мбайт (8%)
Выравнивание : Разделение по промежуткам
Продолжительность промежутка : 40 мс. (1,00 видеокадр)
Время предзагрузки промежутка : 500 мс.

Общее
Полное имя : G:\Discovery Channel World War II In HD Color\Discovery.Channel.World.War.II.In.HD.Colour.02of13.Lightning.War.avi
Формат : AVI
Формат/Информация : Audio Video Interleave
Размер файла : 865 Мбайт
Продолжительность : 51 м.
Общий поток : 2350 Кбит/сек
Программа кодирования : VirtualDubMod 1.5.10.2 (build 2540/release)
Библиотека кодирования : VirtualDubMod build 2540/release

Видео
Идентификатор : 0
Формат : MPEG-4 Visual
Профиль формата : Advanced Simple@L5
Параметр BVOP формата : 1
Параметр QPel формата : Нет
Параметр GMC формата : Без точки перехода
Параметр матрицы формата : Выборочная
Идентификатор кодека : XVID
Идентификатор кодека/Подсказка : XviD
Продолжительность : 51 м.
Битрейт : 2016 Кбит/сек
Ширина : 672 пикселя
Высота : 384 пикселя
Соотношение сторон : 16:9
Частота кадров : 25,000 кадров/сек
Цветовое пространство : YUV
Субдискретизация насыщенности : 4:2:0
Битовая глубина : 8 бит
Тип развёртки : Прогрессивная
Метод сжатия : С потерями
Бит/(Пиксели*Кадры) : 0.312
Размер потока : 742 Мбайт (86%)
Библиотека кодирования : XviD 1.2.1 (UTC 2008-12-04)

Аудио #1
Идентификатор : 1
Формат : MPEG Audio
Версия формата : Version 1
Профиль формата : Layer 3
Режим : Joint stereo
Расширение режима : MS Stereo
Идентификатор кодека : 55
Идентификатор кодека/Подсказка : MP3
Продолжительность : 51 м.
Вид битрейта : Постоянный
Битрейт : 128 Кбит/сек
Каналы : 2 канала
Частота : 48,0 КГц
Метод сжатия : С потерями
Задержка видео : 960 мс.
Размер потока : 46,9 Мбайт (5%)
Выравнивание : Разделение по промежуткам
Продолжительность промежутка : 40 мс. (1,00 видеокадр)
Время предзагрузки промежутка : 504 мс.
Язык : English

Аудио #2
Идентификатор : 2
Формат : AC-3
Формат/Информация : Audio Coding 3
Расширение режима : CM (complete main)
Идентификатор кодека : 2000
Продолжительность : 51 м.
Вид битрейта : Постоянный
Битрейт : 192 Кбит/сек
Каналы : 2 канала
Расположение каналов : Front: L R
Частота : 48,0 КГц
Битовая глубина : 16 бит
Метод сжатия : С потерями
Размер потока : 70,7 Мбайт (8%)
Выравнивание : Разделение по промежуткам
Продолжительность промежутка : 40 мс. (1,00 видеокадр)
Время предзагрузки промежутка : 500 мс.

Общее
Полное имя : G:\Discovery Channel World War II In HD Color\Discovery.Channel.World.War.II.In.HD.Colour.03of13.Britain.At.Bay.avi
Формат : AVI
Формат/Информация : Audio Video Interleave
Размер файла : 865 Мбайт
Продолжительность : 51 м.
Общий поток : 2350 Кбит/сек
Программа кодирования : VirtualDubMod 1.5.10.2 (build 2540/release)
Библиотека кодирования : VirtualDubMod build 2540/release

Видео
Идентификатор : 0
Формат : MPEG-4 Visual
Профиль формата : Advanced Simple@L5
Параметр BVOP формата : 1
Параметр QPel формата : Нет
Параметр GMC формата : Без точки перехода
Параметр матрицы формата : Выборочная
Идентификатор кодека : XVID
Идентификатор кодека/Подсказка : XviD
Продолжительность : 51 м.
Битрейт : 2016 Кбит/сек
Ширина : 608 пикселей
Высота : 352 пикселя
Соотношение сторон : 16:9
Частота кадров : 25,000 кадров/сек
Цветовое пространство : YUV
Субдискретизация насыщенности : 4:2:0
Битовая глубина : 8 бит
Тип развёртки : Прогрессивная
Метод сжатия : С потерями
Бит/(Пиксели*Кадры) : 0.377
Размер потока : 742 Мбайт (86%)
Библиотека кодирования : XviD 1.2.1 (UTC 2008-12-04)

Аудио #1
Идентификатор : 1
Формат : MPEG Audio
Версия формата : Version 1
Профиль формата : Layer 3
Режим : Joint stereo
Расширение режима : MS Stereo
Идентификатор кодека : 55
Идентификатор кодека/Подсказка : MP3
Продолжительность : 51 м.
Вид битрейта : Постоянный
Битрейт : 128 Кбит/сек
Каналы : 2 канала
Частота : 48,0 КГц
Метод сжатия : С потерями
Задержка видео : 672 мс.
Размер потока : 46,9 Мбайт (5%)
Выравнивание : Разделение по промежуткам
Продолжительность промежутка : 40 мс. (1,01 видеокадр)
Время предзагрузки промежутка : 504 мс.
Язык : English

Аудио #2
Идентификатор : 2
Формат : AC-3
Формат/Информация : Audio Coding 3
Расширение режима : CM (complete main)
Идентификатор кодека : 2000
Продолжительность : 51 м.
Вид битрейта : Постоянный
Битрейт : 192 Кбит/сек
Каналы : 2 канала
Расположение каналов : Front: L R
Частота : 48,0 КГц
Битовая глубина : 16 бит
Метод сжатия : С потерями
Размер потока : 70,7 Мбайт (8%)
Выравнивание : Разделение по промежуткам
Продолжительность промежутка : 40 мс. (1,00 видеокадр)
Время предзагрузки промежутка : 500 мс.

Общее
Полное имя : G:\Discovery Channel World War II In HD Color\Discovery.Channel.World.War.II.In.HD.Colour.04of13.Hitler.Strikes.East.avi
Формат : AVI
Формат/Информация : Audio Video Interleave
Размер файла : 866 Мбайт
Продолжительность : 51 м.
Общий поток : 2353 Кбит/сек
Программа кодирования : VirtualDubMod 1.5.10.2 (build 2540/release)
Библиотека кодирования : VirtualDubMod build 2540/release

Видео
Идентификатор : 0
Формат : MPEG-4 Visual
Профиль формата : Advanced Simple@L5
Параметр BVOP формата : 1
Параметр QPel формата : Нет
Параметр GMC формата : Без точки перехода
Параметр матрицы формата : Выборочная
Идентификатор кодека : XVID
Идентификатор кодека/Подсказка : XviD
Продолжительность : 51 м.
Битрейт : 2019 Кбит/сек
Ширина : 608 пикселей
Высота : 352 пикселя
Соотношение сторон : 16:9
Частота кадров : 25,000 кадров/сек
Цветовое пространство : YUV
Субдискретизация насыщенности : 4:2:0
Битовая глубина : 8 бит
Тип развёртки : Прогрессивная
Метод сжатия : С потерями
Бит/(Пиксели*Кадры) : 0.377
Размер потока : 743 Мбайт (86%)
Библиотека кодирования : XviD 1.2.1 (UTC 2008-12-04)

Аудио #1
Идентификатор : 1
Формат : MPEG Audio
Версия формата : Version 1
Профиль формата : Layer 3
Режим : Joint stereo
Расширение режима : MS Stereo
Идентификатор кодека : 55
Идентификатор кодека/Подсказка : MP3
Продолжительность : 51 м.
Вид битрейта : Постоянный
Битрейт : 128 Кбит/сек
Каналы : 2 канала
Частота : 48,0 КГц
Метод сжатия : С потерями
Задержка видео : 888 мс.
Размер потока : 46,9 Мбайт (5%)
Выравнивание : Разделение по промежуткам
Продолжительность промежутка : 40 мс. (1,01 видеокадр)
Время предзагрузки промежутка : 504 мс.
Язык : English

Аудио #2
Идентификатор : 2
Формат : AC-3
Формат/Информация : Audio Coding 3
Расширение режима : CM (complete main)
Идентификатор кодека : 2000
Продолжительность : 51 м.
Вид битрейта : Постоянный
Битрейт : 192 Кбит/сек
Каналы : 2 канала
Расположение каналов : Front: L R
Частота : 48,0 КГц
Битовая глубина : 16 бит
Метод сжатия : С потерями
Размер потока : 70,7 Мбайт (8%)
Выравнивание : Разделение по промежуткам
Продолжительность промежутка : 40 мс. (1,00 видеокадр)
Время предзагрузки промежутка : 500 мс.

Общее
Полное имя : G:\Discovery Channel World War II In HD Color\Discovery.Channel.World.War.II.In.HD.Colour.05of13.Red.Sun.Rampant.avi
Формат : AVI
Формат/Информация : Audio Video Interleave
Размер файла : 865 Мбайт
Продолжительность : 51 м.
Общий поток : 2350 Кбит/сек
Программа кодирования : VirtualDubMod 1.5.10.2 (build 2540/release)
Библиотека кодирования : VirtualDubMod build 2540/release

Видео
Идентификатор : 0
Формат : MPEG-4 Visual
Профиль формата : Advanced Simple@L5
Параметр BVOP формата : 1
Параметр QPel формата : Нет
Параметр GMC формата : Без точки перехода
Параметр матрицы формата : Выборочная
Идентификатор кодека : XVID
Идентификатор кодека/Подсказка : XviD
Продолжительность : 51 м.
Битрейт : 2016 Кбит/сек
Ширина : 672 пикселя
Высота : 384 пикселя
Соотношение сторон : 16:9
Частота кадров : 25,000 кадров/сек
Цветовое пространство : YUV
Субдискретизация насыщенности : 4:2:0
Битовая глубина : 8 бит
Тип развёртки : Прогрессивная
Метод сжатия : С потерями
Бит/(Пиксели*Кадры) : 0.313
Размер потока : 742 Мбайт (86%)
Библиотека кодирования : XviD 1.2.1 (UTC 2008-12-04)

Аудио #1
Идентификатор : 1
Формат : MPEG Audio
Версия формата : Version 1
Профиль формата : Layer 3
Режим : Joint stereo
Расширение режима : MS Stereo
Идентификатор кодека : 55
Идентификатор кодека/Подсказка : MP3
Продолжительность : 51 м.
Вид битрейта : Постоянный
Битрейт : 128 Кбит/сек
Каналы : 2 канала
Частота : 48,0 КГц
Метод сжатия : С потерями
Задержка видео : 888 мс.
Размер потока : 46,9 Мбайт (5%)
Выравнивание : Разделение по промежуткам
Продолжительность промежутка : 40 мс. (1,00 видеокадр)
Время предзагрузки промежутка : 504 мс.
Язык : English

Аудио #2
Идентификатор : 2
Формат : AC-3
Формат/Информация : Audio Coding 3
Расширение режима : CM (complete main)
Идентификатор кодека : 2000
Продолжительность : 51 м.
Вид битрейта : Постоянный
Битрейт : 192 Кбит/сек
Каналы : 2 канала
Расположение каналов : Front: L R
Частота : 48,0 КГц
Битовая глубина : 16 бит
Метод сжатия : С потерями
Размер потока : 70,7 Мбайт (8%)
Выравнивание : Разделение по промежуткам
Продолжительность промежутка : 40 мс. (1,00 видеокадр)
Время предзагрузки промежутка : 500 мс.

Общее
Полное имя : G:\Discovery Channel World War II In HD Color\Discovery.Channel.World.War.II.In.HD.Colour.06of13.The.Mediterranean.And.North.Africa.avi
Формат : AVI
Формат/Информация : Audio Video Interleave
Размер файла : 865 Мбайт
Продолжительность : 51 м.
Общий поток : 2350 Кбит/сек
Программа кодирования : VirtualDubMod 1.5.10.2 (build 2540/release)
Библиотека кодирования : VirtualDubMod build 2540/release

Видео
Идентификатор : 0
Формат : MPEG-4 Visual
Профиль формата : Advanced Simple@L5
Параметр BVOP формата : 1
Параметр QPel формата : Нет
Параметр GMC формата : Без точки перехода
Параметр матрицы формата : Выборочная
Идентификатор кодека : XVID
Идентификатор кодека/Подсказка : XviD
Продолжительность : 51 м.
Битрейт : 2016 Кбит/сек
Ширина : 608 пикселей
Высота : 352 пикселя
Соотношение сторон : 16:9
Частота кадров : 25,000 кадров/сек
Цветовое пространство : YUV
Субдискретизация насыщенности : 4:2:0
Битовая глубина : 8 бит
Тип развёртки : Прогрессивная
Метод сжатия : С потерями
Бит/(Пиксели*Кадры) : 0.377
Размер потока : 742 Мбайт (86%)
Библиотека кодирования : XviD 1.2.1 (UTC 2008-12-04)

Аудио #1
Идентификатор : 1
Формат : MPEG Audio
Версия формата : Version 1
Профиль формата : Layer 3
Режим : Joint stereo
Расширение режима : MS Stereo
Идентификатор кодека : 55
Идентификатор кодека/Подсказка : MP3
Продолжительность : 51 м.
Вид битрейта : Постоянный
Битрейт : 128 Кбит/сек
Каналы : 2 канала
Частота : 48,0 КГц
Метод сжатия : С потерями
Задержка видео : 480 мс.
Размер потока : 46,9 Мбайт (5%)
Выравнивание : Соединение по промежуткам
Продолжительность промежутка : 40 мс. (1,00 видеокадр)
Время предзагрузки промежутка : 504 мс.
Язык : English

Аудио #2
Идентификатор : 2
Формат : AC-3
Формат/Информация : Audio Coding 3
Расширение режима : CM (complete main)
Идентификатор кодека : 2000
Продолжительность : 51 м.
Вид битрейта : Постоянный
Битрейт : 192 Кбит/сек
Каналы : 2 канала
Расположение каналов : Front: L R
Частота : 48,0 КГц
Битовая глубина : 16 бит
Метод сжатия : С потерями
Размер потока : 70,7 Мбайт (8%)
Выравнивание : Разделение по промежуткам
Продолжительность промежутка : 40 мс. (1,00 видеокадр)
Время предзагрузки промежутка : 500 мс.

Общее
Полное имя : G:\Discovery Channel World War II In HD Color\Discovery.Channel.World.War.II.In.HD.Colour.07of13.Turning.The.Tide.XviD.avi
Формат : AVI
Формат/Информация : Audio Video Interleave
Размер файла : 865 Мбайт
Продолжительность : 51 м.
Общий поток : 2350 Кбит/сек
Программа кодирования : VirtualDubMod 1.5.10.2 (build 2540/release)
Библиотека кодирования : VirtualDubMod build 2540/release

Видео
Идентификатор : 0
Формат : MPEG-4 Visual
Профиль формата : Advanced Simple@L5
Параметр BVOP формата : 1
Параметр QPel формата : Нет
Параметр GMC формата : Без точки перехода
Параметр матрицы формата : Выборочная
Идентификатор кодека : XVID
Идентификатор кодека/Подсказка : XviD
Продолжительность : 51 м.
Битрейт : 2016 Кбит/сек
Ширина : 624 пикселя
Высота : 352 пикселя
Соотношение сторон : 16:9
Частота кадров : 25,000 кадров/сек
Цветовое пространство : YUV
Субдискретизация насыщенности : 4:2:0
Битовая глубина : 8 бит
Тип развёртки : Прогрессивная
Метод сжатия : С потерями
Бит/(Пиксели*Кадры) : 0.367
Размер потока : 742 Мбайт (86%)
Библиотека кодирования : XviD 1.2.1 (UTC 2008-12-04)

Аудио #1
Идентификатор : 1
Формат : MPEG Audio
Версия формата : Version 1
Профиль формата : Layer 3
Режим : Joint stereo
Расширение режима : MS Stereo
Идентификатор кодека : 55
Идентификатор кодека/Подсказка : MP3
Продолжительность : 51 м.
Вид битрейта : Постоянный
Битрейт : 128 Кбит/сек
Каналы : 2 канала
Частота : 48,0 КГц
Метод сжатия : С потерями
Размер потока : 46,9 Мбайт (5%)
Выравнивание : Соединение по промежуткам
Продолжительность промежутка : 40 мс. (1,01 видеокадр)
Время предзагрузки промежутка : 504 мс.
Язык : English

Аудио #2
Идентификатор : 2
Формат : AC-3
Формат/Информация : Audio Coding 3
Расширение режима : CM (complete main)
Идентификатор кодека : 2000
Продолжительность : 51 м.
Вид битрейта : Постоянный
Битрейт : 192 Кбит/сек
Каналы : 2 канала
Расположение каналов : Front: L R
Частота : 48,0 КГц
Битовая глубина : 16 бит
Метод сжатия : С потерями
Размер потока : 70,7 Мбайт (8%)
Выравнивание : Разделение по промежуткам
Продолжительность промежутка : 40 мс. (1,00 видеокадр)
Время предзагрузки промежутка : 500 мс.

Общее
Полное имя : G:\Discovery Channel World War II In HD Color\Discovery.Channel.World.War.II.In.HD.Colour.08of13.The.Soviet.Steamroller.avi
Формат : AVI
Формат/Информация : Audio Video Interleave
Размер файла : 888 Мбайт
Продолжительность : 51 м.
Общий поток : 2414 Кбит/сек
Программа кодирования : VirtualDubMod 1.5.10.2 (build 2540/release)
Библиотека кодирования : VirtualDubMod build 2540/release

Видео
Идентификатор : 0
Формат : MPEG-4 Visual
Профиль формата : Advanced Simple@L5
Параметр BVOP формата : 1
Параметр QPel формата : Нет
Параметр GMC формата : Без точки перехода
Параметр матрицы формата : Выборочная
Идентификатор кодека : XVID
Идентификатор кодека/Подсказка : XviD
Продолжительность : 51 м.
Битрейт : 2016 Кбит/сек
Ширина : 624 пикселя
Высота : 352 пикселя
Соотношение сторон : 16:9
Частота кадров : 25,000 кадров/сек
Цветовое пространство : YUV
Субдискретизация насыщенности : 4:2:0
Битовая глубина : 8 бит
Тип развёртки : Прогрессивная
Метод сжатия : С потерями
Бит/(Пиксели*Кадры) : 0.367
Размер потока : 742 Мбайт (84%)
Библиотека кодирования : XviD 1.2.1 (UTC 2008-12-04)

Аудио #1
Идентификатор : 1
Формат : MPEG Audio
Версия формата : Version 1
Профиль формата : Layer 3
Идентификатор кодека : 55
Идентификатор кодека/Подсказка : MP3
Продолжительность : 51 м.
Вид битрейта : Постоянный
Битрейт : 192 Кбит/сек
Каналы : 1 канал
Частота : 48,0 КГц
Метод сжатия : С потерями
Размер потока : 70,4 Мбайт (8%)
Выравнивание : Соединение по промежуткам
Продолжительность промежутка : 40 мс. (1,00 видеокадр)
Время предзагрузки промежутка : 504 мс.
Библиотека кодирования : LAME3.98r
Настройки программы : -m m -V 4 -q 2 -lowpass 20.5 -b 192
Язык : English

Аудио #2
Идентификатор : 2
Формат : AC-3
Формат/Информация : Audio Coding 3
Расширение режима : CM (complete main)
Идентификатор кодека : 2000
Продолжительность : 51 м.
Вид битрейта : Постоянный
Битрейт : 192 Кбит/сек
Каналы : 2 канала
Расположение каналов : Front: L R
Частота : 48,0 КГц
Битовая глубина : 16 бит
Метод сжатия : С потерями
Размер потока : 70,7 Мбайт (8%)
Выравнивание : Разделение по промежуткам
Продолжительность промежутка : 40 мс. (1,00 видеокадр)
Время предзагрузки промежутка : 500 мс.

Общее
Полное имя : G:\Discovery Channel World War II In HD Color\Discovery.Channel.World.War.II.In.HD.Colour.09of13.Overlord.avi
Формат : AVI
Формат/Информация : Audio Video Interleave
Размер файла : 865 Мбайт
Продолжительность : 51 м.
Общий поток : 2350 Кбит/сек
Программа кодирования : VirtualDubMod 1.5.10.2 (build 2540/release)
Библиотека кодирования : VirtualDubMod build 2540/release

Видео
Идентификатор : 0
Формат : MPEG-4 Visual
Профиль формата : Advanced Simple@L5
Параметр BVOP формата : 1
Параметр QPel формата : Нет
Параметр GMC формата : Без точки перехода
Параметр матрицы формата : Выборочная
Идентификатор кодека : XVID
Идентификатор кодека/Подсказка : XviD
Продолжительность : 51 м.
Битрейт : 2016 Кбит/сек
Ширина : 672 пикселя
Высота : 384 пикселя
Соотношение сторон : 16:9
Частота кадров : 25,000 кадров/сек
Цветовое пространство : YUV
Субдискретизация насыщенности : 4:2:0
Битовая глубина : 8 бит
Тип развёртки : Прогрессивная
Метод сжатия : С потерями
Бит/(Пиксели*Кадры) : 0.313
Размер потока : 742 Мбайт (86%)
Библиотека кодирования : XviD 1.2.1 (UTC 2008-12-04)

Аудио #1
Идентификатор : 1
Формат : MPEG Audio
Версия формата : Version 1
Профиль формата : Layer 3
Режим : Joint stereo
Расширение режима : MS Stereo
Идентификатор кодека : 55
Идентификатор кодека/Подсказка : MP3
Продолжительность : 51 м.
Вид битрейта : Постоянный
Битрейт : 128 Кбит/сек
Каналы : 2 канала
Частота : 48,0 КГц
Метод сжатия : С потерями
Задержка видео : 480 мс.
Размер потока : 46,9 Мбайт (5%)
Выравнивание : Соединение по промежуткам
Продолжительность промежутка : 40 мс. (1,00 видеокадр)
Время предзагрузки промежутка : 504 мс.
Язык : English

Аудио #2
Идентификатор : 2
Формат : AC-3
Формат/Информация : Audio Coding 3
Расширение режима : CM (complete main)
Идентификатор кодека : 2000
Продолжительность : 51 м.
Вид битрейта : Постоянный
Битрейт : 192 Кбит/сек
Каналы : 2 канала
Расположение каналов : Front: L R
Частота : 48,0 КГц
Битовая глубина : 16 бит
Метод сжатия : С потерями
Размер потока : 70,7 Мбайт (8%)
Выравнивание : Разделение по промежуткам
Продолжительность промежутка : 40 мс. (1,00 видеокадр)
Время предзагрузки промежутка : 500 мс.

Общее
Полное имя : G:\Discovery Channel World War II In HD Color\Discovery.Channel.World.War.II.In.HD.Colour.10of13.Closing.The.Ring.avi
Формат : AVI
Формат/Информация : Audio Video Interleave
Размер файла : 865 Мбайт
Продолжительность : 51 м.
Общий поток : 2350 Кбит/сек
Программа кодирования : VirtualDubMod 1.5.10.2 (build 2540/release)
Библиотека кодирования : VirtualDubMod build 2540/release

Видео
Идентификатор : 0
Формат : MPEG-4 Visual
Профиль формата : Advanced Simple@L5
Параметр BVOP формата : 1
Параметр QPel формата : Нет
Параметр GMC формата : Без точки перехода
Параметр матрицы формата : Выборочная
Идентификатор кодека : XVID
Идентификатор кодека/Подсказка : XviD
Продолжительность : 51 м.
Битрейт : 2016 Кбит/сек
Ширина : 624 пикселя
Высота : 352 пикселя
Соотношение сторон : 16:9
Частота кадров : 25,000 кадров/сек
Цветовое пространство : YUV
Субдискретизация насыщенности : 4:2:0
Битовая глубина : 8 бит
Тип развёртки : Прогрессивная
Метод сжатия : С потерями
Бит/(Пиксели*Кадры) : 0.367
Размер потока : 742 Мбайт (86%)
Библиотека кодирования : XviD 1.2.1 (UTC 2008-12-04)

Аудио #1
Идентификатор : 1
Формат : MPEG Audio
Версия формата : Version 1
Профиль формата : Layer 3
Режим : Joint stereo
Расширение режима : MS Stereo
Идентификатор кодека : 55
Идентификатор кодека/Подсказка : MP3
Продолжительность : 51 м.
Вид битрейта : Постоянный
Битрейт : 128 Кбит/сек
Каналы : 2 канала
Частота : 48,0 КГц
Метод сжатия : С потерями
Задержка видео : 888 мс.
Размер потока : 46,9 Мбайт (5%)
Выравнивание : Разделение по промежуткам
Продолжительность промежутка : 40 мс. (1,00 видеокадр)
Время предзагрузки промежутка : 504 мс.
Язык : English

Аудио #2
Идентификатор : 2
Формат : AC-3
Формат/Информация : Audio Coding 3
Расширение режима : CM (complete main)
Идентификатор кодека : 2000
Продолжительность : 51 м.
Вид битрейта : Постоянный
Битрейт : 192 Кбит/сек
Каналы : 2 канала
Расположение каналов : Front: L R
Частота : 48,0 КГц
Битовая глубина : 16 бит
Метод сжатия : С потерями
Размер потока : 70,7 Мбайт (8%)
Выравнивание : Разделение по промежуткам
Продолжительность промежутка : 40 мс. (1,00 видеокадр)
Время предзагрузки промежутка : 500 мс.

Общее
Полное имя : G:\Discovery Channel World War II In HD Color\Discovery.Channel.World.War.II.In.HD.Colour.11of13.The.Island.War.avi
Формат : AVI
Формат/Информация : Audio Video Interleave
Размер файла : 865 Мбайт
Продолжительность : 51 м.
Общий поток : 2350 Кбит/сек
Программа кодирования : VirtualDubMod 1.5.10.2 (build 2540/release)
Библиотека кодирования : VirtualDubMod build 2540/release

Видео
Идентификатор : 0
Формат : MPEG-4 Visual
Профиль формата : Advanced Simple@L5
Параметр BVOP формата : 1
Параметр QPel формата : Нет
Параметр GMC формата : Без точки перехода
Параметр матрицы формата : Выборочная
Идентификатор кодека : XVID
Идентификатор кодека/Подсказка : XviD
Продолжительность : 51 м.
Битрейт : 2016 Кбит/сек
Ширина : 704 пикселя
Высота : 400 пикселей
Соотношение сторон : 16:9
Частота кадров : 25,000 кадров/сек
Цветовое пространство : YUV
Субдискретизация насыщенности : 4:2:0
Битовая глубина : 8 бит
Тип развёртки : Прогрессивная
Метод сжатия : С потерями
Бит/(Пиксели*Кадры) : 0.286
Размер потока : 742 Мбайт (86%)
Библиотека кодирования : XviD 1.2.1 (UTC 2008-12-04)

Аудио #1
Идентификатор : 1
Формат : MPEG Audio
Версия формата : Version 1
Профиль формата : Layer 3
Режим : Joint stereo
Расширение режима : MS Stereo
Идентификатор кодека : 55
Идентификатор кодека/Подсказка : MP3
Продолжительность : 51 м.
Вид битрейта : Постоянный
Битрейт : 128 Кбит/сек
Каналы : 2 канала
Частота : 48,0 КГц
Метод сжатия : С потерями
Размер потока : 46,9 Мбайт (5%)
Выравнивание : Соединение по промежуткам
Продолжительность промежутка : 40 мс. (1,00 видеокадр)
Время предзагрузки промежутка : 504 мс.
Язык : English

Аудио #2
Идентификатор : 2
Формат : AC-3
Формат/Информация : Audio Coding 3
Расширение режима : CM (complete main)
Идентификатор кодека : 2000
Продолжительность : 51 м.
Вид битрейта : Постоянный
Битрейт : 192 Кбит/сек
Каналы : 2 канала
Расположение каналов : Front: L R
Частота : 48,0 КГц
Битовая глубина : 16 бит
Метод сжатия : С потерями
Размер потока : 70,7 Мбайт (8%)
Выравнивание : Разделение по промежуткам
Продолжительность промежутка : 40 мс. (1,00 видеокадр)
Время предзагрузки промежутка : 500 мс.

Общее
Полное имя : G:\Discovery Channel World War II In HD Color\Discovery.Channel.World.War.II.In.HD.Colour.12of13.Victory.In.Europe.avi
Формат : AVI
Формат/Информация : Audio Video Interleave
Размер файла : 865 Мбайт
Продолжительность : 51 м.
Общий поток : 2350 Кбит/сек
Программа кодирования : VirtualDubMod 1.5.10.2 (build 2540/release)
Библиотека кодирования : VirtualDubMod build 2540/release

Видео
Идентификатор : 0
Формат : MPEG-4 Visual
Профиль формата : Advanced Simple@L5
Параметр BVOP формата : 1
Параметр QPel формата : Нет
Параметр GMC формата : Без точки перехода
Параметр матрицы формата : Выборочная
Идентификатор кодека : XVID
Идентификатор кодека/Подсказка : XviD
Продолжительность : 51 м.
Битрейт : 2016 Кбит/сек
Ширина : 704 пикселя
Высота : 400 пикселей
Соотношение сторон : 16:9
Частота кадров : 25,000 кадров/сек
Цветовое пространство : YUV
Субдискретизация насыщенности : 4:2:0
Битовая глубина : 8 бит
Тип развёртки : Прогрессивная
Метод сжатия : С потерями
Бит/(Пиксели*Кадры) : 0.286
Размер потока : 742 Мбайт (86%)
Библиотека кодирования : XviD 1.2.1 (UTC 2008-12-04)

Аудио #1
Идентификатор : 1
Формат : MPEG Audio
Версия формата : Version 1
Профиль формата : Layer 3
Режим : Joint stereo
Расширение режима : MS Stereo
Идентификатор кодека : 55
Идентификатор кодека/Подсказка : MP3
Продолжительность : 51 м.
Вид битрейта : Постоянный
Битрейт : 128 Кбит/сек
Каналы : 2 канала
Частота : 48,0 КГц
Метод сжатия : С потерями
Размер потока : 47,0 Мбайт (5%)
Выравнивание : Соединение по промежуткам
Продолжительность промежутка : 40 мс. (1,00 видеокадр)
Время предзагрузки промежутка : 504 мс.
Библиотека кодирования : LAME3.97 (beta)
Язык : English

Аудио #2
Идентификатор : 2
Формат : AC-3
Формат/Информация : Audio Coding 3
Расширение режима : CM (complete main)
Идентификатор кодека : 2000
Продолжительность : 51 м.
Вид битрейта : Постоянный
Битрейт : 192 Кбит/сек
Каналы : 2 канала
Расположение каналов : Front: L R
Частота : 48,0 КГц
Битовая глубина : 16 бит
Метод сжатия : С потерями
Размер потока : 70,7 Мбайт (8%)
Выравнивание : Разделение по промежуткам
Продолжительность промежутка : 40 мс. (1,00 видеокадр)
Время предзагрузки промежутка : 500 мс.

Общее
Полное имя : G:\Discovery Channel World War II In HD Color\Discovery.Channel.World.War.II.In.HD.Colour.13of13.Victory.In.The.Pacific.avi
Формат : AVI
Формат/Информация : Audio Video Interleave
Размер файла : 865 Мбайт
Продолжительность : 51 м.
Общий поток : 2358 Кбит/сек
Программа кодирования : VirtualDubMod 1.5.10.2 (build 2540/release)
Библиотека кодирования : VirtualDubMod build 2540/release

Видео
Идентификатор : 0
Формат : MPEG-4 Visual
Профиль формата : Advanced Simple@L5
Параметр BVOP формата : 1
Параметр QPel формата : Нет
Параметр GMC формата : Без точки перехода
Параметр матрицы формата : Выборочная
Идентификатор кодека : XVID
Идентификатор кодека/Подсказка : XviD
Продолжительность : 51 м.
Битрейт : 2024 Кбит/сек
Ширина : 672 пикселя
Высота : 384 пикселя
Соотношение сторон : 16:9
Частота кадров : 25,000 кадров/сек
Цветовое пространство : YUV
Субдискретизация насыщенности : 4:2:0
Битовая глубина : 8 бит
Тип развёртки : Прогрессивная
Метод сжатия : С потерями
Бит/(Пиксели*Кадры) : 0.314
Размер потока : 743 Мбайт (86%)
Библиотека кодирования : XviD 1.2.1 (UTC 2008-12-04)

Аудио #1
Идентификатор : 1
Формат : MPEG Audio
Версия формата : Version 1
Профиль формата : Layer 3
Режим : Joint stereo
Расширение режима : MS Stereo
Идентификатор кодека : 55
Идентификатор кодека/Подсказка : MP3
Продолжительность : 51 м.
Вид битрейта : Постоянный
Битрейт : 128 Кбит/сек
Каналы : 2 канала
Частота : 48,0 КГц
Метод сжатия : С потерями
Задержка видео : 480 мс.
Размер потока : 46,9 Мбайт (5%)
Выравнивание : Соединение по промежуткам
Продолжительность промежутка : 40 мс. (1,00 видеокадр)
Время предзагрузки промежутка : 504 мс.
Язык : English

Аудио #2
Идентификатор : 2
Формат : AC-3
Формат/Информация : Audio Coding 3
Расширение режима : CM (complete main)
Идентификатор кодека : 2000
Продолжительность : 51 м.
Вид битрейта : Постоянный
Битрейт : 192 Кбит/сек
Каналы : 2 канала
Расположение каналов : Front: L R
Частота : 48,0 КГц
Битовая глубина : 16 бит
Метод сжатия : С потерями
Размер потока : 70,4 Мбайт (8%)
Выравнивание : Разделение по промежуткам
Продолжительность промежутка : 40 мс. (1,00 видеокадр)
Время предзагрузки промежутка : 500 мс.
info [Профиль]  [ЛС] 

Alexander1980

Пол: Пол:Муж

Стаж: 5 лет 1 месяц

Сообщений: 174

СССР
Рейтинг

post 16-Янв-2012 14:27 (спустя 12 часов) [-]-1[+]

[Цитировать] 

на такой шедевр можно ведь и позолотить!!!

_________________
info [Профиль]  [ЛС] 

Cepishmohnoril

Пол: Пол:Муж

Стаж: 4 года 11 месяцев

Сообщений: 1

Украина
Рейтинг

post 18-Янв-2012 02:25 (спустя 1 день 11 часов) [-]-1[+]

[Цитировать] 

...
info [Профиль]  [ЛС] 

MatisseTDK

Пол: Пол:Муж

Стаж: 4 года 11 месяцев

Сообщений: 24

Предупреждений: 1

Россия
Рейтинг

post 03-Фев-2012 00:37 (спустя 15 дней) [-]0[+]

[Цитировать] 

Спасибо деду за Победу! Кому-то прадеду, но смысл не меняется! Без этих великих людей нас бы не было!
info [Профиль]  [ЛС] 

rimo

Пол: Пол:Муж

Стаж: 5 лет 5 месяцев

Сообщений: 1752

Украина
Рейтинг

post 06-Июл-2012 15:06 (спустя 5 месяцев 3 дня) [-]0[+]

[Цитировать] 

Позолотил.
info [Профиль]  [ЛС] 

saabb

Пол: Пол:Муж

Стаж: 4 года 11 месяцев

Сообщений: 99

Россия
Рейтинг

post 31-Июл-2012 06:53 (спустя 24 дня) [-]0[+]

[Цитировать] 

спасибо
info [Профиль]  [ЛС] 

rotem15

Стаж: 4 года 11 месяцев

Сообщений: 52

Антарктида
Рейтинг

post 31-Июл-2012 06:55 (спустя 1 минута) [-]0[+]

[Цитировать] 

спасибо
info [Профиль]  [ЛС] 
Показать сообщения:    
Ответить на тему

Текущее время: 09-Дек 08:01

Часовой пояс: GMT + 4



Вы не можете начинать темы
Вы не можете отвечать на сообщения
Вы не можете редактировать свои сообщения
Вы не можете удалять свои сообщения
Вы не можете голосовать в опросах
Вы не можете прикреплять файлы к сообщениям
Вы не можете скачивать файлы