Ошибка

Иди и смотри (Элем Климов) [1985 г., Драма, DVDRip]

Ответить на тему
 
Автор Сообщение

JackZlo

Пол: Пол:Муж

Стаж: 6 лет 7 месяцев

Сообщений: 986

Предупреждений: 2

Россия
Рейтинг

post 06-Янв-2012 20:38 1[+]

[Цитировать] 

Иди и смотри
Страна: СССР
Жанр: Драма, военный
Год выпуска: 1985
Продолжительность: 2:16:35
Режиссёр: Элем Климов

В ролях: Алексей Кравченко, Ольга Миронова, Любомирас Лауцявичюс, Владас Багдонас, Юрс Лумисте, Виктор Лоренц, Казимир Рабецкий, Евгений Тиличеев, Александр Берда, Анатолий Сливников, Петр Меркурьев, Г.Вельц, Татьяна Шестакова, В.Васильев, Игорь Гневашев

Описание:
Картина основана на документальных фактах и обращается к «Хатынской повести» Адамовича. Авторами выбрано именно то место и те события, которые стали символом народной беды и страдания.
Флера — шестнадцатилетний мальчишка, откопавший среди обрывков колючей проволоки, ржавых пулеметных лент и простреленных касок карабин, и отправившийся в лес к партизанам. В начале фильма он совсем ребенок. В конце, пройдя через ужас карательной акции фашистов, становится взрослым, пугающе взрослым и даже — старым. Война исказила когда-то нежные, детские черты и превратила их в старческие морщины.


Семпл

IMDb User Rating: 8.10 (7 756)
kinopoisk.ru: 8.309 (719)

Исходник: 2 х DVD9 RUSCICO
General
Complete name : D:\Temp\Иди и смотри\Иди и смотри.avi
Format : AVI
Format/Info : Audio Video Interleave
Format profile : OpenDML
File size : 2.28 GiB
Duration : 2h 16mn
Overall bit rate : 2 388 Kbps
Writing application : VirtualDubMod 1.5.10.3 | www.virtualdub-fr.org || (build 2550/release)
Writing library : VirtualDubMod build 2550/release
Video
ID : 0
Format : MPEG-4 Visual
Format profile : Advanced Simple@L5
Format settings, BVOP : 2
Format settings, QPel : No
Format settings, GMC : No warppoints
Format settings, Matrix : Default (MPEG)
Codec ID : XVID
Codec ID/Hint : XviD
Duration : 2h 16mn
Bit rate : 1 992 Kbps
Width : 704 pixels
Height : 528 pixels
Display aspect ratio : 4:3
Frame rate : 25.000 fps
Color space : YUV
Chroma subsampling : 4:2:0
Bit depth : 8 bits
Scan type : Progressive
Compression mode : Lossy
Bits/(Pixel*Frame) : 0.214
Stream size : 1.90 GiB (83%)
Writing library : XviD 64
Audio
ID : 1
Format : AC-3
Format/Info : Audio Coding 3
Mode extension : CM (complete main)
Codec ID : 2000
Duration : 2h 16mn
Bit rate mode : Constant
Bit rate : 384 Kbps
Channel(s) : 6 channels
Channel positions : Front: L C R, Side: L R, LFE
Sampling rate : 48.0 KHz
Bit depth : 16 bits
Compression mode : Lossy
Stream size : 375 MiB (16%)
Alignment : Split accross interleaves
Interleave, duration : 40 ms (1.00 video frame)
Interleave, preload duration : 500 ms
Качество видео: DVDRip
Формат видео: AVI
Видео кодек: XviD
Аудио кодек: AC3
Видео: Xvid, 704x528, 25 fps, 1992 Kbps
Аудио: Dolby AC3, 48000Hz, 6ch, 384kbps

info [Профиль]  [ЛС] 

post 07-Янв-2012 15:26 (спустя 18 часов) [-]0[+]

Топик был перенесен из форума Анонсы в форум Видео (iPhone/iPod Touch/iPad)

ArShAvIn
 

gohara

Стаж: 6 лет 7 месяцев

Сообщений: 68

Предупреждений: 1

Аргентина
Рейтинг

post 07-Янв-2012 16:06 (спустя 19 часов) [-]1[+]

[Цитировать] 

Фильм тяжелючий. Помню нас в школе насильно водили смотреть его в кинотеатре, с тех пор очень не люблю этот фильм.
info [Профиль]  [ЛС] 

JackZlo

Пол: Пол:Муж

Стаж: 6 лет 7 месяцев

Сообщений: 986

Предупреждений: 2

Россия
Рейтинг

post 07-Янв-2012 16:25 (спустя 19 минут) [-]0[+]

[Цитировать] 

Это на сегодняшний день, по характеристикам, один из лучших релизов этого фильма. Он отличается от предыдущей раздачи (на этом треккере, да и вообще) всего ~500Мб, но зато звук 384кб/с (на многих других 128кб/с) и разрешение повыше 704x528 вместо 640х480. Ну и в 1 файле, вместо двух файлов. Разница, как говориться, налицо...

_________________
info [Профиль]  [ЛС] 

Turokt76

Пол: Пол:Муж

Стаж: 6 лет 10 месяцев

Сообщений: 599

Россия
Рейтинг

post 07-Янв-2012 16:38 (спустя 12 минут) [-]0[+]

[Цитировать] 

Тяжелый фильм , многие его сейчас не поймут.А вообще хоть раз , но стоит увидеть..
info [Профиль]  [ЛС] 

Mag1rib

Пол: Пол:Муж

Стаж: 6 лет 8 месяцев

Сообщений: 18

Финляндия
Рейтинг

post 07-Янв-2012 16:46 (спустя 8 минут) [-]0[+]

[Цитировать] 

Хорошее Кино

_________________
ViewSonic VX2739wm World's First 27" 1ms Monitor!
Asus P7P 55D Pro
Intel® Core™ i5-750 Processor(8M Cache, 2.66 GHz)
Zotac GTX 670 AMP! Edition
Kingston Ram 8 gb DDR3 1333 Mhz
info [Профиль]  [ЛС] 

logos1

Пол: Пол:Муж

Стаж: 7 лет 3 месяца

Сообщений: 9

Россия
Рейтинг

post 07-Янв-2012 16:56 (спустя 10 минут) [-]0[+]

[Цитировать] 

Забираю. Лучший фильм о ВОВ. Правда без пафоса.
info [Профиль]  [ЛС] 

post 06-Фев-2012 20:19 (спустя 30 дней) [-]1[+]

Топик был перенесен из форума Видео (iPhone/iPod Touch/iPad) в форум Советское кино (Rips)

Witcher
 
Показать сообщения:    
Ответить на тему

Текущее время: 03-Дек 21:46

Часовой пояс: GMT + 4



Вы не можете начинать темы
Вы не можете отвечать на сообщения
Вы не можете редактировать свои сообщения
Вы не можете удалять свои сообщения
Вы не можете голосовать в опросах
Вы не можете прикреплять файлы к сообщениям
Вы не можете скачивать файлы