Ошибка

Хоббит / The Hobbit(Артур Рэнкин, Жюль Бэсс)[1977г, мультфильм, фэнтези»,DVDRip]

Ответить на тему
 
Автор Сообщение

oliver86

Пол: Пол:Муж

Стаж: 4 года 11 месяцев

Сообщений: 32

Россия
Рейтинг

post 29-Дек-2011 09:37 3[+]

[Цитировать] 

Хоббит / The Hobbit

Год выпуска: 1977
Страна: Сша
Жанр: Мультфильм, фэнтези, экранизация повести "Хоббит, или туда и обратно"
Продолжительность:1:17:24
Перевод: Одноголосный(Профессиональный)
Режиссер: Артур Рэнкин, Жюль Бэсс
Сценарий: Ромео Мюллер, Дж. Р. Р. Толкин (роман)
В ролях: Орсон Бин, Джон Хьюстон, Уильям Конрад
Описание: Волшебная сказка известного английского писателя Д.Толкина "Хоббит, или Туда и обратно" рассказывает об увлекательном и опасном путешествии хоббита Бильбо Бэггинса и его друзей-гномов за сокровищами предков.
Качество: DVDRip
Формат: AVI
Видео кодек: DivX 3
Аудио кодек: MP3
Видео: DivX 3 528x384 23.98fps 1 109 Kbps
Аудио: MPEG Audio Layer 3 44100Hz stereo 128 Kbps(rus)
Общее
Полное имя : M:\Torent_up\hobit\Хоббит, или Туда и Обратно.avi
Формат : AVI
Формат/Информация : Audio Video Interleave
Размер файла : 690 Мбайт
Продолжительность : 1 ч. 17 м.
Общий поток : 1246 Кбит/сек
Библиотека кодирования : VirtualDub build 13870/release

Видео
Идентификатор : 0
Формат : MPEG-4 Visual
Идентификатор кодека : DIV3
Идентификатор кодека/Подсказка : DivX 3 Low
Продолжительность : 1 ч. 17 м.
Битрейт : 1109 Кбит/сек
Ширина : 528 пикселей
Высота : 384 пикселя
Соотношение сторон : 1,375
Частота кадров : 23,976 кадра/сек
Цветовое пространство : YUV
Субдискретизация насыщенности : 4:2:0
Битовая глубина : 8 бит
Метод сжатия : С потерями
Бит/(Пиксели*Кадры) : 0.228
Размер потока : 614 Мбайт (89%)

Аудио
Идентификатор : 1
Формат : MPEG Audio
Версия формата : Version 1
Профиль формата : Layer 3
Режим : Joint stereo
Расширение режима : MS Stereo
Идентификатор кодека : 55
Идентификатор кодека/Подсказка : MP3
Продолжительность : 1 ч. 17 м.
Вид битрейта : Постоянный
Битрейт : 128 Кбит/сек
Каналы : 2 канала
Частота : 44,1 КГц
Метод сжатия : С потерями
Размер потока : 70,7 Мбайт (10%)
Выравнивание : Разделение по промежуткам
Продолжительность промежутка : 42 мс. (1,00 видеокадр)
Время предзагрузки промежутка : 462 мс.
info [Профиль]  [ЛС] 

post 29-Дек-2011 13:35 (спустя 3 часа) [-]0[+]

Топик был перенесен из форума Анонсы в форум Зарубежные полнометражные мультфильмы

chingis
 

zone90

Пол: Пол:Муж

Стаж: 7 лет 3 месяца

Сообщений: 21

СССР
Рейтинг

post 29-Дек-2011 19:01 (спустя 9 часов) [-]0[+]

[Цитировать] 

а другие части есть?
info [Профиль]  [ЛС] 

Leonard

Пол: Пол:Муж

Стаж: 6 лет

Сообщений: 42

СССР
Рейтинг

post 29-Дек-2011 20:50 (спустя 1 час 48 минут) [-]0[+]

[Цитировать] 

хоббита вроде больше нет, но есть мультипликационная версия властелина колец
info [Профиль]  [ЛС] 

Combinne

Пол: Пол:Муж

Стаж: 5 лет 5 месяцев

Сообщений: 13

Россия
Рейтинг

post 07-Янв-2012 05:55 (спустя 8 дней) [-]0[+]

[Цитировать] 

zone90
В декабре 2012 будет фильм The hobbit
info [Профиль]  [ЛС] 
Показать сообщения:    
Ответить на тему

Текущее время: 08-Дек 02:17

Часовой пояс: GMT + 4



Вы не можете начинать темы
Вы не можете отвечать на сообщения
Вы не можете редактировать свои сообщения
Вы не можете удалять свои сообщения
Вы не можете голосовать в опросах
Вы не можете прикреплять файлы к сообщениям
Вы не можете скачивать файлы