Ошибка

(Score) Pirates of the Caribbean - 2007 - 2011 , FLAC (tracks+.cue)+covers, lossless

Ответить на тему
 
Автор Сообщение

Rock Star

Пол: Пол:Муж

Стаж: 8 лет 10 месяцев

Сообщений: 780

Рейтинг

post 25-Дек-2011 20:28 0[+]

[Цитировать] 

pic="http://s002.youpic.su/pictures/1324760400/2f4d12214cd6d7f8e8b2a182971473b6.png"
Жанр: Score Происхождение исполнителей: GE; MEX Годы издания носителей: 2007 - 2011
Страна-производитель носителей: US Тип релиза: tracks+.cue Аудио кодек: FLAC
Битрейт аудио: lossless Общая продолжительность: 5:12:55 Полиграфия: присутствует
Лейбл: Walt Disney Records Каталоговые номера: D000102400 | D001354702
1. Fog Bound
2. The Medallion Calls
3. The Black Pearl
4. Will and Elizabeth
5. Swords Crossed
6. Walk The Plank
7. Barbossa Is Hungry
8. Blood Ritual
9. Moonlight Serenade
10. To The Pirates' Cave!
11. Skull and Crossbones
12. Bootstrap's Bootstraps
13. Underwater March
14. One Last Shot
15. He's A Pirate

Код:

Exact Audio Copy V0.99 prebeta 5 from 4. May 2009

EAC extraction logfile from 13. October 2010, 10:47

Klaus Badelt / Pirates of the Caribbean: The Curse Of The Black Pearl

Used drive  : SlimtypeDVDRW SSM-8515S   Adapter: 1  ID: 0

Read mode               : Secure
Utilize accurate stream : Yes
Defeat audio cache      : Yes
Make use of C2 pointers : No

Read offset correction                      : 594
Overread into Lead-In and Lead-Out          : No
Fill up missing offset samples with silence : Yes
Delete leading and trailing silent blocks   : No
Null samples used in CRC calculations       : Yes
Used interface                              : Native Win32 interface for Win NT & 2000
Gap handling                                : Appended to previous track

Used output format              : User Defined Encoder
Selected bitrate                : 768 kBit/s
Quality                         : High
Add ID3 tag                     : No
Command line compressor         : C:\Program Files\Exact Audio Copy\FLAC\FLAC.EXE
Additional command line options : -6 -V -T "ARTIST=%a" -T "TITLE=%t" -T "ALBUM=%g" -T "DATE=%y" -T "TRACKNUMBER=%n" -T "GENRE=%m" -T "COMMENT=%e" %s -o %d

TOC of the extracted CD

     Track |   Start  |  Length  | Start sector | End sector
    ---------------------------------------------------------
        1  |  0:00.00 |  2:16.36 |         0    |    10235
        2  |  2:16.36 |  1:52.38 |     10236    |    18673
        3  |  4:08.74 |  2:16.21 |     18674    |    28894
        4  |  6:25.20 |  2:08.10 |     28895    |    38504
        5  |  8:33.30 |  3:15.53 |     38505    |    53182
        6  | 11:49.08 |  1:58.46 |     53183    |    62078
        7  | 13:47.54 |  4:06.09 |     62079    |    80537
        8  | 17:53.63 |  3:32.55 |     80538    |    96492
        9  | 21:26.43 |  2:08.49 |     96493    |   106141
       10  | 23:35.17 |  3:30.41 |    106142    |   121932
       11  | 27:05.58 |  3:23.74 |    121933    |   137231
       12  | 30:29.57 |  2:38.44 |    137232    |   149125
       13  | 33:08.26 |  4:12.24 |    149126    |   168049
       14  | 37:20.50 |  4:46.02 |    168050    |   189501
       15  | 42:06.52 |  1:30.32 |    189502    |   196283

Track  1

     Filename F:\FLAC\Pirates box CD1\01. Fog Bound.wav

     Pre-gap length  0:00:02.00

     Peak level 97.7 %
     Track quality 99.9 %
     Test CRC 022DD94D
     Copy CRC 022DD94D
     Accurately ripped (confidence 10)  [A8A69740]
     Copy OK

Track  2

     Filename F:\FLAC\Pirates box CD1\02. The Medallion Calls.wav

     Peak level 97.7 %
     Track quality 100.0 %
     Test CRC 23B02948
     Copy CRC 23B02948
     Accurately ripped (confidence 10)  [E6047D9C]
     Copy OK

Track  3

     Filename F:\FLAC\Pirates box CD1\03. The Black Pearl.wav

     Peak level 97.7 %
     Track quality 100.0 %
     Test CRC 83F600CF
     Copy CRC 83F600CF
     Accurately ripped (confidence 10)  [76C6CFBB]
     Copy OK

Track  4

     Filename F:\FLAC\Pirates box CD1\04. Will And Elizabeth.wav

     Peak level 97.7 %
     Track quality 100.0 %
     Test CRC 2ACC49FD
     Copy CRC 2ACC49FD
     Accurately ripped (confidence 10)  [5B38BEFF]
     Copy OK

Track  5

     Filename F:\FLAC\Pirates box CD1\05. Swords Crossed.wav

     Peak level 97.7 %
     Track quality 100.0 %
     Test CRC 7B880206
     Copy CRC 7B880206
     Accurately ripped (confidence 10)  [60DF6577]
     Copy OK

Track  6

     Filename F:\FLAC\Pirates box CD1\06. Walk The Plank.wav

     Peak level 97.7 %
     Track quality 100.0 %
     Test CRC F6689F05
     Copy CRC F6689F05
     Accurately ripped (confidence 10)  [57DCFFED]
     Copy OK

Track  7

     Filename F:\FLAC\Pirates box CD1\07. Barbossa Is Hungry.wav

     Peak level 97.7 %
     Track quality 100.0 %
     Test CRC 1B37202B
     Copy CRC 1B37202B
     Accurately ripped (confidence 10)  [E9FFD7DD]
     Copy OK

Track  8

     Filename F:\FLAC\Pirates box CD1\08. Blood Ritual.wav

     Peak level 97.7 %
     Track quality 100.0 %
     Test CRC 701B139F
     Copy CRC 701B139F
     Accurately ripped (confidence 10)  [A23A832C]
     Copy OK

Track  9

     Filename F:\FLAC\Pirates box CD1\09. Moonlight Serenade.wav

     Peak level 97.7 %
     Track quality 100.0 %
     Test CRC CE7E476C
     Copy CRC CE7E476C
     Accurately ripped (confidence 10)  [0E0964E4]
     Copy OK

Track 10

     Filename F:\FLAC\Pirates box CD1\10. To The Pirates' Cave!.wav

     Peak level 97.7 %
     Track quality 100.0 %
     Test CRC 6BDFB448
     Copy CRC 6BDFB448
     Accurately ripped (confidence 10)  [28C2A547]
     Copy OK

Track 11

     Filename F:\FLAC\Pirates box CD1\11. Skull And Crossbones.wav

     Peak level 97.7 %
     Track quality 100.0 %
     Test CRC C3939835
     Copy CRC C3939835
     Accurately ripped (confidence 10)  [E0DEE676]
     Copy OK

Track 12

     Filename F:\FLAC\Pirates box CD1\12. Bootstrap's Bootstraps.wav

     Peak level 97.7 %
     Track quality 100.0 %
     Test CRC F22F30F4
     Copy CRC F22F30F4
     Accurately ripped (confidence 9)  [CA1C495A]
     Copy OK

Track 13

     Filename F:\FLAC\Pirates box CD1\13. Underwater March.wav

     Peak level 97.7 %
     Track quality 100.0 %
     Test CRC 91CA2A8E
     Copy CRC 91CA2A8E
     Accurately ripped (confidence 9)  [2ECD52E9]
     Copy OK

Track 14

     Filename F:\FLAC\Pirates box CD1\14. One Last Shot.wav

     Peak level 97.7 %
     Track quality 100.0 %
     Test CRC 77E6EB1F
     Copy CRC 77E6EB1F
     Accurately ripped (confidence 9)  [B084582E]
     Copy OK

Track 15

     Filename F:\FLAC\Pirates box CD1\15. He's A Pirate.wav

     Peak level 97.7 %
     Track quality 100.0 %
     Test CRC E3465368
     Copy CRC E3465368
     Accurately ripped (confidence 10)  [6D9429EE]
     Copy OK

All tracks accurately ripped

No errors occurred

End of status report

Код:

REM GENRE Soundtrack
REM DATE 2003
REM DISCID C60A390F
REM COMMENT "ExactAudioCopy v0.99pb5"
CATALOG ::01000104614
PERFORMER "Klaus Badelt"
TITLE "Pirates of the Caribbean: The Curse Of The Black Pearl"
FILE "01. Fog Bound.wav" WAVE
  TRACK 01 AUDIO
    TITLE "Fog Bound"
    PERFORMER "Klaus Badelt"
    ISRC 0@4002415000
    FLAGS DCP
    INDEX 01 00:00:00
FILE "02. The Medallion Calls.wav" WAVE
  TRACK 02 AUDIO
    TITLE "The Medallion Calls"
    PERFORMER "Klaus Badelt"
    ISRC 0@4001215000
    FLAGS DCP
    INDEX 01 00:00:00
FILE "03. The Black Pearl.wav" WAVE
  TRACK 03 AUDIO
    TITLE "The Black Pearl"
    PERFORMER "Klaus Badelt"
    ISRC 0@4001215000
    FLAGS DCP
    INDEX 01 00:00:00
FILE "04. Will And Elizabeth.wav" WAVE
  TRACK 04 AUDIO
    TITLE "Will And Elizabeth"
    PERFORMER "Klaus Badelt"
    ISRC 0@4001215000
    FLAGS DCP
    INDEX 01 00:00:00
FILE "05. Swords Crossed.wav" WAVE
  TRACK 05 AUDIO
    TITLE "Swords Crossed"
    PERFORMER "Klaus Badelt"
    ISRC 0@4001215000
    FLAGS DCP
    INDEX 01 00:00:00
FILE "06. Walk The Plank.wav" WAVE
  TRACK 06 AUDIO
    TITLE "Walk The Plank"
    PERFORMER "Klaus Badelt"
    ISRC 1@4000715083
    FLAGS DCP
    INDEX 01 00:00:00
FILE "07. Barbossa Is Hungry.wav" WAVE
  TRACK 07 AUDIO
    TITLE "Barbossa Is Hungry"
    PERFORMER "Klaus Badelt"
    ISRC 1@4000715083
    FLAGS DCP
    INDEX 01 00:00:00
FILE "08. Blood Ritual.wav" WAVE
  TRACK 08 AUDIO
    TITLE "Blood Ritual"
    PERFORMER "Klaus Badelt"
    ISRC 1@4000715083
    FLAGS DCP
    INDEX 01 00:00:00
FILE "09. Moonlight Serenade.wav" WAVE
  TRACK 09 AUDIO
    TITLE "Moonlight Serenade"
    PERFORMER "Klaus Badelt"
    ISRC 1@4000715083
    FLAGS DCP
    INDEX 01 00:00:00
FILE "10. To The Pirates' Cave!.wav" WAVE
  TRACK 10 AUDIO
    TITLE "To The Pirates' Cave!"
    PERFORMER "Klaus Badelt"
    ISRC 1@4000715083
    FLAGS DCP
    INDEX 01 00:00:00
FILE "11. Skull And Crossbones.wav" WAVE
  TRACK 11 AUDIO
    TITLE "Skull And Crossbones"
    PERFORMER "Klaus Badelt"
    ISRC 1@4000715083
    FLAGS DCP
    INDEX 01 00:00:00
FILE "12. Bootstrap's Bootstraps.wav" WAVE
  TRACK 12 AUDIO
    TITLE "Bootstrap's Bootstraps"
    PERFORMER "Klaus Badelt"
    ISRC 1@4000715083
    FLAGS DCP
    INDEX 01 00:00:00
FILE "13. Underwater March.wav" WAVE
  TRACK 13 AUDIO
    TITLE "Underwater March"
    PERFORMER "Klaus Badelt"
    ISRC 1@4000715083
    FLAGS DCP
    INDEX 01 00:00:00
FILE "14. One Last Shot.wav" WAVE
  TRACK 14 AUDIO
    TITLE "One Last Shot"
    PERFORMER "Klaus Badelt"
    ISRC 1@4000715083
    FLAGS DCP
    INDEX 01 00:00:00
FILE "15. He's A Pirate.wav" WAVE
  TRACK 15 AUDIO
    TITLE "He's A Pirate"
    PERFORMER "Klaus Badelt"
    ISRC 1@4000715083
    FLAGS DCP
    INDEX 01 00:00:00
1. Jack Sparrow
2. The Kraken
3. Davy Jones
4. I've Got My Eye On You
5. Dinner Is Served
6. Tia Dalma
7. Two Hornpipes (Tortuga)
8. A Family Affair
9. Wheel Of Fortune
10. You Look Good Jack
11. Hello Beastie
12. He's A Pirate - Tiësto Remix

Код:

Exact Audio Copy V0.99 prebeta 5 from 4. May 2009

EAC extraction logfile from 13. October 2010, 21:43

Hans Zimmer / Pirates of the Caribbean: Dead Man's Chest

Used drive  : SlimtypeDVDRW SSM-8515S   Adapter: 1  ID: 0

Read mode               : Secure
Utilize accurate stream : Yes
Defeat audio cache      : Yes
Make use of C2 pointers : No

Read offset correction                      : 594
Overread into Lead-In and Lead-Out          : No
Fill up missing offset samples with silence : Yes
Delete leading and trailing silent blocks   : No
Null samples used in CRC calculations       : Yes
Used interface                              : Native Win32 interface for Win NT & 2000
Gap handling                                : Appended to previous track

Used output format              : User Defined Encoder
Selected bitrate                : 768 kBit/s
Quality                         : High
Add ID3 tag                     : No
Command line compressor         : C:\Program Files\Exact Audio Copy\FLAC\FLAC.EXE
Additional command line options : -6 -V -T "ARTIST=%a" -T "TITLE=%t" -T "ALBUM=%g" -T "DATE=%y" -T "TRACKNUMBER=%n" -T "GENRE=%m" -T "COMMENT=%e" %s -o %d

TOC of the extracted CD

     Track |   Start  |  Length  | Start sector | End sector
    ---------------------------------------------------------
        1  |  0:00.00 |  6:06.15 |         0    |    27464
        2  |  6:06.15 |  6:55.22 |     27465    |    58611
        3  | 13:01.37 |  3:15.18 |     58612    |    73254
        4  | 16:16.55 |  2:25.35 |     73255    |    84164
        5  | 18:42.15 |  1:30.02 |     84165    |    90916
        6  | 20:12.17 |  3:57.73 |     90917    |   108764
        7  | 24:10.15 |  1:14.17 |    108765    |   114331
        8  | 25:24.32 |  3:34.20 |    114332    |   130401
        9  | 28:58.52 |  6:45.58 |    130402    |   160834
       10  | 35:44.35 |  5:34.25 |    160835    |   185909
       11  | 41:18.60 | 10:15.45 |    185910    |   232079
       12  | 51:34.30 |  7:02.42 |    232080    |   263771

Track  1

     Filename F:\FLAC\Pirates box CD2\01. Jack Sparrow.wav

     Pre-gap length  0:00:02.00

     Peak level 98.9 %
     Track quality 100.0 %
     Test CRC 7E0DDB95
     Copy CRC 7E0DDB95
     Accurately ripped (confidence 68)  [81078533]
     Copy OK

Track  2

     Filename F:\FLAC\Pirates box CD2\02. The Kraken.wav

     Pre-gap length  0:00:00.58

     Peak level 99.7 %
     Track quality 100.0 %
     Test CRC 3777BD14
     Copy CRC 3777BD14
     Accurately ripped (confidence 68)  [2213239F]
     Copy OK

Track  3

     Filename F:\FLAC\Pirates box CD2\03. Davy Jones.wav

     Pre-gap length  0:00:01.27

     Peak level 99.4 %
     Track quality 99.9 %
     Test CRC 359A12D1
     Copy CRC 359A12D1
     Accurately ripped (confidence 68)  [CA960A8E]
     Copy OK

Track  4

     Filename F:\FLAC\Pirates box CD2\04. I've Got My Eye On You.wav

     Peak level 99.4 %
     Track quality 99.9 %
     Test CRC 446E701B
     Copy CRC 446E701B
     Accurately ripped (confidence 68)  [5D0DCC7D]
     Copy OK

Track  5

     Filename F:\FLAC\Pirates box CD2\05. Dinner Is Served.wav

     Peak level 99.5 %
     Track quality 100.0 %
     Test CRC F5399233
     Copy CRC F5399233
     Accurately ripped (confidence 68)  [10F24A0D]
     Copy OK

Track  6

     Filename F:\FLAC\Pirates box CD2\06. Tia Dalma.wav

     Peak level 99.5 %
     Track quality 100.0 %
     Test CRC E849995A
     Copy CRC E849995A
     Accurately ripped (confidence 68)  [CB917BA1]
     Copy OK

Track  7

     Filename F:\FLAC\Pirates box CD2\07. Two Hornpipes (Tortuga).wav

     Pre-gap length  0:00:00.08

     Peak level 99.4 %
     Track quality 100.0 %
     Test CRC A02DFEDD
     Copy CRC A02DFEDD
     Accurately ripped (confidence 68)  [EC98B79A]
     Copy OK

Track  8

     Filename F:\FLAC\Pirates box CD2\08. A Family Affair.wav

     Peak level 99.5 %
     Track quality 100.0 %
     Test CRC DBF07445
     Copy CRC DBF07445
     Accurately ripped (confidence 67)  [FF6E10FE]
     Copy OK

Track  9

     Filename F:\FLAC\Pirates box CD2\09. Wheel Of Fortune.wav

     Peak level 99.5 %
     Track quality 99.9 %
     Test CRC 0A1506CC
     Copy CRC 0A1506CC
     Accurately ripped (confidence 67)  [6CAB47D3]
     Copy OK

Track 10

     Filename F:\FLAC\Pirates box CD2\10. You Look Good Jack.wav

     Pre-gap length  0:00:00.28

     Peak level 99.4 %
     Track quality 100.0 %
     Test CRC 09154222
     Copy CRC 09154222
     Accurately ripped (confidence 67)  [31599529]
     Copy OK

Track 11

     Filename F:\FLAC\Pirates box CD2\11. Hello Beastie.wav

     Peak level 99.7 %
     Track quality 100.0 %
     Test CRC 8A223114
     Copy CRC 8A223114
     Accurately ripped (confidence 68)  [245FD719]
     Copy OK

Track 12

     Filename F:\FLAC\Pirates box CD2\12. He's a Pirate (Tiesto Remix).wav

     Pre-gap length  0:00:02.48

     Peak level 80.2 %
     Track quality 100.0 %
     Test CRC 8DF7C08E
     Copy CRC 8DF7C08E
     Accurately ripped (confidence 63)  [1B5900D1]
     Copy OK

All tracks accurately ripped

No errors occurred

End of status report

Код:

REM GENRE Soundtrack
REM DATE 2006
REM DISCID A00DBC0C
REM COMMENT "ExactAudioCopy v0.99pb5"
CATALOG 12010638444=5
PERFORMER "Hans Zimmer"
TITLE "Pirates of the Caribbean: Dead Man's Chest"
FILE "01. Jack Sparrow.wav" WAVE
  TRACK 01 AUDIO
    TITLE "Jack Sparrow"
    PERFORMER "Hans Zimmer"
    ISRC 0@400251=000
    INDEX 01 00:00:00
  TRACK 02 AUDIO
    TITLE "The Kraken"
    PERFORMER "Hans Zimmer"
    ISRC 0@400131=000
    INDEX 00 06:05:32
FILE "02. The Kraken.wav" WAVE
    INDEX 01 00:00:00
  TRACK 03 AUDIO
    TITLE "Davy Jones"
    PERFORMER "Hans Zimmer"
    ISRC 0@400131=000
    INDEX 00 06:53:70
FILE "03. Davy Jones.wav" WAVE
    INDEX 01 00:00:00
FILE "04. I've Got My Eye On You.wav" WAVE
  TRACK 04 AUDIO
    TITLE "I've Got My Eye On You"
    PERFORMER "Hans Zimmer"
    ISRC 0`400011=130
    INDEX 01 00:00:00
FILE "05. Dinner Is Served.wav" WAVE
  TRACK 05 AUDIO
    TITLE "Dinner Is Served"
    PERFORMER "Hans Zimmer"
    ISRC 0`400011=130
    INDEX 01 00:00:00
FILE "06. Tia Dalma.wav" WAVE
  TRACK 06 AUDIO
    TITLE "Tia Dalma"
    PERFORMER "Hans Zimmer"
    ISRC 0`400011=130
    INDEX 01 00:00:00
  TRACK 07 AUDIO
    TITLE "Two Hornpipes (Tortuga)"
    PERFORMER "Hans Zimmer"
    ISRC 0`400011=130
    INDEX 00 03:57:65
FILE "07. Two Hornpipes (Tortuga).wav" WAVE
    INDEX 01 00:00:00
FILE "08. A Family Affair.wav" WAVE
  TRACK 08 AUDIO
    TITLE "A Family Affair"
    PERFORMER "Hans Zimmer"
    ISRC 0`400011=130
    INDEX 01 00:00:00
FILE "09. Wheel Of Fortune.wav" WAVE
  TRACK 09 AUDIO
    TITLE "Wheel Of Fortune"
    PERFORMER "Hans Zimmer"
    ISRC 0`400011=130
    INDEX 01 00:00:00
  TRACK 10 AUDIO
    TITLE "You Look Good Jack"
    PERFORMER "Hans Zimmer"
    ISRC 0`400011=130
    INDEX 00 06:45:30
FILE "10. You Look Good Jack.wav" WAVE
    INDEX 01 00:00:00
FILE "11. Hello Beastie.wav" WAVE
  TRACK 11 AUDIO
    TITLE "Hello Beastie"
    PERFORMER "Hans Zimmer"
    ISRC 0`400011=130
    INDEX 01 00:00:00
  TRACK 12 AUDIO
    TITLE "He's a Pirate (Tiesto Remix)"
    PERFORMER "Hans Zimmer"
    ISRC 0`400011=130
    INDEX 00 10:12:72
FILE "12. He's a Pirate (Tiesto Remix).wav" WAVE
    INDEX 01 00:00:00
1. Hoist the Colours
2. Singapore
3. At Wit's End
4. Multiple Jacks
5. Up Is Down
6. I See Dead People in Boats
7. The Brethren Court
8. Parlay
9. Calypso
10. What Shall We Die For
11. I Don't Think Now Is the Best Time
12. One Day
13. Drink Up Me Hearties

Код:

Exact Audio Copy V0.99 prebeta 5 from 4. May 2009

EAC extraction logfile from 14. October 2010, 0:02

Hans Zimmer / Pirates of the Caribbean: At World's End

Used drive  : SlimtypeDVDRW SSM-8515S   Adapter: 1  ID: 0

Read mode               : Secure
Utilize accurate stream : Yes
Defeat audio cache      : Yes
Make use of C2 pointers : No

Read offset correction                      : 594
Overread into Lead-In and Lead-Out          : No
Fill up missing offset samples with silence : Yes
Delete leading and trailing silent blocks   : No
Null samples used in CRC calculations       : Yes
Used interface                              : Native Win32 interface for Win NT & 2000
Gap handling                                : Appended to previous track

Used output format              : User Defined Encoder
Selected bitrate                : 768 kBit/s
Quality                         : High
Add ID3 tag                     : No
Command line compressor         : C:\Program Files\Exact Audio Copy\FLAC\FLAC.EXE
Additional command line options : -6 -V -T "ARTIST=%a" -T "TITLE=%t" -T "ALBUM=%g" -T "DATE=%y" -T "TRACKNUMBER=%n" -T "GENRE=%m" -T "COMMENT=%e" %s -o %d

TOC of the extracted CD

     Track |   Start  |  Length  | Start sector | End sector
    ---------------------------------------------------------
        1  |  0:00.00 |  1:31.06 |         0    |     6830
        2  |  1:31.06 |  3:40.65 |      6831    |    23395
        3  |  5:11.71 |  8:05.68 |     23396    |    59838
        4  | 13:17.64 |  3:51.63 |     59839    |    77226
        5  | 17:09.52 |  2:42.15 |     77227    |    89391
        6  | 19:51.67 |  7:09.14 |     89392    |   121580
        7  | 27:01.06 |  2:21.11 |    121581    |   132166
        8  | 29:22.17 |  2:10.27 |    132167    |   141943
        9  | 31:32.44 |  3:02.63 |    141944    |   155656
       10  | 34:35.32 |  2:02.59 |    155657    |   164865
       11  | 36:38.16 | 10:45.37 |    164866    |   213277
       12  | 47:23.53 |  4:01.42 |    213278    |   231394
       13  | 51:25.20 |  4:31.65 |    231395    |   251784

Track  1

     Filename F:\FLAC\Pirates Box CD3\01. Hoist The Colours.wav

     Pre-gap length  0:00:02.00

     Peak level 84.0 %
     Track quality 100.0 %
     Test CRC 2A92F7AE
     Copy CRC 2A92F7AE
     Accurately ripped (confidence 61)  [55DFA22A]
     Copy OK

Track  2

     Filename F:\FLAC\Pirates Box CD3\02. Singapore.wav

     Peak level 94.4 %
     Track quality 100.0 %
     Test CRC 65E1643D
     Copy CRC 65E1643D
     Accurately ripped (confidence 59)  [152B269A]
     Copy OK

Track  3

     Filename F:\FLAC\Pirates Box CD3\03. At Wit's End.wav

     Peak level 95.4 %
     Track quality 100.0 %
     Test CRC 94E85E55
     Copy CRC 94E85E55
     Accurately ripped (confidence 59)  [C1AF3C18]
     Copy OK

Track  4

     Filename F:\FLAC\Pirates Box CD3\04. Multiple Jacks.wav

     Peak level 94.3 %
     Track quality 100.0 %
     Test CRC B0C77088
     Copy CRC B0C77088
     Accurately ripped (confidence 59)  [67F28F27]
     Copy OK

Track  5

     Filename F:\FLAC\Pirates Box CD3\05. Up Is Down.wav

     Peak level 95.4 %
     Track quality 100.0 %
     Test CRC 95DD2203
     Copy CRC 95DD2203
     Accurately ripped (confidence 59)  [83684ADA]
     Copy OK

Track  6

     Filename F:\FLAC\Pirates Box CD3\06. I See Dead People in Boats.wav

     Peak level 95.4 %
     Track quality 100.0 %
     Test CRC E9BAF61E
     Copy CRC E9BAF61E
     Accurately ripped (confidence 59)  [7BE27070]
     Copy OK

Track  7

     Filename F:\FLAC\Pirates Box CD3\07. The Brethren Court.wav

     Peak level 51.9 %
     Track quality 100.0 %
     Test CRC 5A441F80
     Copy CRC 5A441F80
     Accurately ripped (confidence 59)  [7F336BF7]
     Copy OK

Track  8

     Filename F:\FLAC\Pirates Box CD3\08. Parlay.wav

     Peak level 95.4 %
     Track quality 100.0 %
     Test CRC 8314C67D
     Copy CRC 8314C67D
     Accurately ripped (confidence 59)  [136ECBC4]
     Copy OK

Track  9

     Filename F:\FLAC\Pirates Box CD3\09. Calypso.wav

     Peak level 90.1 %
     Track quality 100.0 %
     Test CRC 541783D1
     Copy CRC 541783D1
     Accurately ripped (confidence 58)  [A37BA870]
     Copy OK

Track 10

     Filename F:\FLAC\Pirates Box CD3\10. What Shall We Die For.wav

     Peak level 95.4 %
     Track quality 100.0 %
     Test CRC 75D09FBE
     Copy CRC 75D09FBE
     Accurately ripped (confidence 58)  [53AFC4C6]
     Copy OK

Track 11

     Filename F:\FLAC\Pirates Box CD3\11. I Don't Think Now Is the Best Time.wav

     Peak level 95.4 %
     Track quality 100.0 %
     Test CRC AC09C249
     Copy CRC AC09C249
     Accurately ripped (confidence 59)  [BD517FCF]
     Copy OK

Track 12

     Filename F:\FLAC\Pirates Box CD3\12. One Day.wav

     Peak level 94.3 %
     Track quality 100.0 %
     Test CRC 3C55FEAA
     Copy CRC 3C55FEAA
     Accurately ripped (confidence 59)  [D6334B76]
     Copy OK

Track 13

     Filename F:\FLAC\Pirates Box CD3\13. Drink Up Me Hearties.wav

     Peak level 94.3 %
     Track quality 100.0 %
     Test CRC EC77D238
     Copy CRC EC77D238
     Accurately ripped (confidence 60)  [A2151EFF]
     Copy OK

All tracks accurately ripped

No errors occurred

End of status report

Код:

REM GENRE Soundtrack
REM DATE 2007
REM DISCID AE0D1D0D
REM COMMENT "ExactAudioCopy v0.99pb5"
CATALOG 1301040823245
PERFORMER "Hans Zimmer"
TITLE "Pirates of the Caribbean: At World's End"
FILE "01. Hoist The Colours.wav" WAVE
  TRACK 01 AUDIO
    TITLE "Hoist The Colours"
    PERFORMER "Hans Zimmer"
    ISRC 0@400241?000
    INDEX 01 00:00:00
FILE "02. Singapore.wav" WAVE
  TRACK 02 AUDIO
    TITLE "Singapore"
    PERFORMER "Hans Zimmer"
    ISRC 0@400121?000
    INDEX 01 00:00:00
FILE "03. At Wit's End.wav" WAVE
  TRACK 03 AUDIO
    TITLE "At Wit's End"
    PERFORMER "Hans Zimmer"
    ISRC 0P400561?013
    INDEX 01 00:00:00
FILE "04. Multiple Jacks.wav" WAVE
  TRACK 04 AUDIO
    TITLE "Multiple Jacks"
    PERFORMER "Hans Zimmer"
    ISRC 0`400161?051
    INDEX 01 00:00:00
FILE "05. Up Is Down.wav" WAVE
  TRACK 05 AUDIO
    TITLE "Up Is Down"
    PERFORMER "Hans Zimmer"
    ISRC 0`400161?051
    INDEX 01 00:00:00
FILE "06. I See Dead People in Boats.wav" WAVE
  TRACK 06 AUDIO
    TITLE "I See Dead People in Boats"
    PERFORMER "Hans Zimmer"
    ISRC 0`400161?051
    INDEX 01 00:00:00
FILE "07. The Brethren Court.wav" WAVE
  TRACK 07 AUDIO
    TITLE "The Brethren Court"
    PERFORMER "Hans Zimmer"
    ISRC 0`400161?051
    INDEX 01 00:00:00
FILE "08. Parlay.wav" WAVE
  TRACK 08 AUDIO
    TITLE "Parlay"
    PERFORMER "Hans Zimmer"
    ISRC 0`400161?051
    INDEX 01 00:00:00
FILE "09. Calypso.wav" WAVE
  TRACK 09 AUDIO
    TITLE "Calypso"
    PERFORMER "Hans Zimmer"
    ISRC 0`400161?051
    INDEX 01 00:00:00
FILE "10. What Shall We Die For.wav" WAVE
  TRACK 10 AUDIO
    TITLE "What Shall We Die For"
    PERFORMER "Hans Zimmer"
    ISRC 0`400161?051
    INDEX 01 00:00:00
FILE "11. I Don't Think Now Is the Best Time.wav" WAVE
  TRACK 11 AUDIO
    TITLE "I Don't Think Now Is the Best Time"
    PERFORMER "Hans Zimmer"
    ISRC 0`400161?051
    INDEX 01 00:00:00
FILE "12. One Day.wav" WAVE
  TRACK 12 AUDIO
    TITLE "One Day"
    PERFORMER "Hans Zimmer"
    ISRC 0`400161?051
    INDEX 01 00:00:00
FILE "13. Drink Up Me Hearties.wav" WAVE
  TRACK 13 AUDIO
    TITLE "Drink Up Me Hearties"
    PERFORMER "Hans Zimmer"
    ISRC 0`400161?051
    INDEX 01 00:00:00
1. Pirates, Day One (Original Hans Zimmer Theme - The Curse of the Black Pearl)
2. Marry Me (Score Suite from At World's End)
3. The Heart Of Davy Jones (Score Suite from Dead Man's Chest)
4. Lord Cutler Beckett (Theme from Dead Man's Chest, Score Suite from At World's End)
5. Jack's Theme Bare Bones Demo (Hans Zimmer Piano Demo from Dead Man's Chest)
6. Hoist The Colours Suite (Score Suite from At World's End)
7. The Pirate Lord Of SingaporeScore (Suite from At World's End)
8. Just Good Business (Score Suite from At World's End)
9. He's a Pirate (Pete n' Red's Jolly Roger Mix)
10. He's a Pirate (Friscia & Lamboy Tribal Treasure Mix)
11. He's a Pirate (Pelo Verde Mix)
12. He's a Pirate (Chris Joss Ship Ahoy Tribal Mix)
13. Jack's Suite (Paul Oakenfold Mix)
14. Jack's Suite (The Crystal Method Mix)
15. Pirates Live Forever (Ryeland Allison Mix)

Код:

Exact Audio Copy V0.99 prebeta 5 from 4. May 2009

EAC extraction logfile from 14. October 2010, 4:05

Various / Pirates of the Caribbean: Remixed & Unreleased

Used drive  : SlimtypeDVDRW SSM-8515S   Adapter: 1  ID: 0

Read mode               : Secure
Utilize accurate stream : Yes
Defeat audio cache      : Yes
Make use of C2 pointers : No

Read offset correction                      : 594
Overread into Lead-In and Lead-Out          : No
Fill up missing offset samples with silence : Yes
Delete leading and trailing silent blocks   : No
Null samples used in CRC calculations       : Yes
Used interface                              : Native Win32 interface for Win NT & 2000
Gap handling                                : Appended to previous track

Used output format              : User Defined Encoder
Selected bitrate                : 768 kBit/s
Quality                         : High
Add ID3 tag                     : No
Command line compressor         : C:\Program Files\Exact Audio Copy\FLAC\FLAC.EXE
Additional command line options : -6 -V -T "ARTIST=%a" -T "TITLE=%t" -T "ALBUM=%g" -T "DATE=%y" -T "TRACKNUMBER=%n" -T "GENRE=%m" -T "COMMENT=%e" %s -o %d

TOC of the extracted CD

     Track |   Start  |  Length  | Start sector | End sector
    ---------------------------------------------------------
        1  |  0:00.00 |  3:46.20 |         0    |    16969
        2  |  3:46.20 | 11:37.28 |     16970    |    69272
        3  | 15:23.48 |  3:14.05 |     69273    |    83827
        4  | 18:37.53 |  8:47.33 |     83828    |   123385
        5  | 27:25.11 |  4:05.00 |    123386    |   141760
        6  | 31:30.11 |  5:43.45 |    141761    |   167530
        7  | 37:13.56 |  5:58.20 |    167531    |   194400
        8  | 43:12.01 |  5:56.12 |    194401    |   221112
        9  | 49:08.13 |  3:12.73 |    221113    |   235585
       10  | 52:21.11 |  4:38.30 |    235586    |   256465
       11  | 56:59.41 |  4:39.50 |    256466    |   277440
       12  | 61:39.16 |  4:03.05 |    277441    |   295670
       13  | 65:42.21 |  3:34.73 |    295671    |   311793
       14  | 69:17.19 |  3:48.17 |    311794    |   328910
       15  | 73:05.36 |  3:50.48 |    328911    |   346208

Track  1

     Filename F:\FLAC\Pirates Box CD4\01. Pirates, Day One, 4-56AM.wav

     Pre-gap length  0:00:02.00

     Peak level 95.4 %
     Track quality 100.0 %
     Test CRC BBB88FD4
     Copy CRC BBB88FD4
     Accurately ripped (confidence 18)  [34F3CC47]
     Copy OK

Track  2

     Filename F:\FLAC\Pirates Box CD4\02. Marry Me.wav

     Peak level 93.4 %
     Track quality 100.0 %
     Test CRC DA53E11A
     Copy CRC DA53E11A
     Accurately ripped (confidence 17)  [4EB41105]
     Copy OK

Track  3

     Filename F:\FLAC\Pirates Box CD4\03. The Heart of Davy Jones.wav

     Peak level 85.7 %
     Track quality 100.0 %
     Test CRC EB43C6D5
     Copy CRC EB43C6D5
     Accurately ripped (confidence 18)  [642E13EF]
     Copy OK

Track  4

     Filename F:\FLAC\Pirates Box CD4\04. Lord Cutler Beckett.wav

     Peak level 95.4 %
     Track quality 100.0 %
     Test CRC 068472FD
     Copy CRC 068472FD
     Accurately ripped (confidence 18)  [56424934]
     Copy OK

Track  5

     Filename F:\FLAC\Pirates Box CD4\05. Jack's Theme Bare Bones Demo.wav

     Peak level 66.9 %
     Track quality 100.0 %
     Test CRC 39226463
     Copy CRC 39226463
     Accurately ripped (confidence 18)  [ACC40394]
     Copy OK

Track  6

     Filename F:\FLAC\Pirates Box CD4\06. Hoist the Colours Suite.wav

     Peak level 95.4 %
     Track quality 100.0 %
     Test CRC C60A4D12
     Copy CRC C60A4D12
     Accurately ripped (confidence 18)  [E3D72F09]
     Copy OK

Track  7

     Filename F:\FLAC\Pirates Box CD4\07. The Pirate Lord of Singapore.wav

     Peak level 95.3 %
     Track quality 99.9 %
     Test CRC CF45FE8F
     Copy CRC CF45FE8F
     Accurately ripped (confidence 18)  [5C19146A]
     Copy OK

Track  8

     Filename F:\FLAC\Pirates Box CD4\08. Just Good Business.wav

     Peak level 92.2 %
     Track quality 100.0 %
     Test CRC 8F67CBE9
     Copy CRC 8F67CBE9
     Accurately ripped (confidence 18)  [9D16D70F]
     Copy OK

Track  9

     Filename F:\FLAC\Pirates Box CD4\09. He's a Pirate (Pete n' Red's Jolly Roger Mix).wav

     Peak level 63.7 %
     Track quality 100.0 %
     Test CRC E20D2362
     Copy CRC E20D2362
     Accurately ripped (confidence 17)  [909EDC4D]
     Copy OK

Track 10

     Filename F:\FLAC\Pirates Box CD4\10. He's a Pirate (Friscia & Lamboy Tribal Treasure Mix).wav

     Peak level 95.4 %
     Track quality 100.0 %
     Test CRC 1361AA4A
     Copy CRC 1361AA4A
     Accurately ripped (confidence 17)  [990ED847]
     Copy OK

Track 11

     Filename F:\FLAC\Pirates Box CD4\11. He's a Pirate (Pelo Verde Mix).wav

     Peak level 63.7 %
     Track quality 100.0 %
     Test CRC F3F8CFF3
     Copy CRC F3F8CFF3
     Accurately ripped (confidence 17)  [85662D94]
     Copy OK

Track 12

     Filename F:\FLAC\Pirates Box CD4\12. He's a Pirate (Chris Joss Ship Ahoy Tribal Mix).wav

     Peak level 63.7 %
     Track quality 99.9 %
     Test CRC 1620BE52
     Copy CRC 1620BE52
     Accurately ripped (confidence 17)  [336EA1E0]
     Copy OK

Track 13

     Filename F:\FLAC\Pirates Box CD4\13. Jack's Suite (Paul Oakenfold Mix).wav

     Peak level 67.5 %
     Track quality 100.0 %
     Test CRC 688765EB
     Copy CRC 688765EB
     Accurately ripped (confidence 17)  [7FC99039]
     Copy OK

Track 14

     Filename F:\FLAC\Pirates Box CD4\14. Jack's Suite (The Crystal Method Mix).wav

     Peak level 75.7 %
     Track quality 100.0 %
     Test CRC 3DB5DB3D
     Copy CRC 3DB5DB3D
     Accurately ripped (confidence 17)  [3480EEBD]
     Copy OK

Track 15

     Filename F:\FLAC\Pirates Box CD4\15. Pirates Live Forever (Ryeland Allison Mix).wav

     Peak level 92.2 %
     Track quality 100.0 %
     Test CRC 01C8CA04
     Copy CRC 01C8CA04
     Accurately ripped (confidence 18)  [DBAD6AC9]
     Copy OK

All tracks accurately ripped

No errors occurred

End of status report

Код:

REM GENRE Soundtrack
REM DATE 2007
REM DISCID DD12080F
REM COMMENT "ExactAudioCopy v0.99pb5"
CATALOG 15010322304?7
PERFORMER "Various"
TITLE "Pirates of the Caribbean: Remixed & Unreleased"
FILE "01. Pirates, Day One, 4-56AM.wav" WAVE
  TRACK 01 AUDIO
    TITLE "Pirates, Day One, 4:56AM"
    PERFORMER "Hans Zimmer"
    ISRC 5@4383020762
    INDEX 01 00:00:00
FILE "02. Marry Me.wav" WAVE
  TRACK 02 AUDIO
    TITLE "Marry Me"
    PERFORMER "Hans Zimmer"
    ISRC 5@4383020762
    INDEX 01 00:00:00
FILE "03. The Heart of Davy Jones.wav" WAVE
  TRACK 03 AUDIO
    TITLE "The Heart of Davy Jones"
    PERFORMER "Hans Zimmer"
    ISRC 0P4006821034
    INDEX 01 00:00:00
FILE "04. Lord Cutler Beckett.wav" WAVE
  TRACK 04 AUDIO
    TITLE "Lord Cutler Beckett"
    PERFORMER "Hans Zimmer"
    ISRC 0P4006821034
    INDEX 01 00:00:00
FILE "05. Jack's Theme Bare Bones Demo.wav" WAVE
  TRACK 05 AUDIO
    TITLE "Jack's Theme Bare Bones Demo"
    PERFORMER "Hans Zimmer"
    ISRC 0P4006821034
    INDEX 01 00:00:00
FILE "06. Hoist the Colours Suite.wav" WAVE
  TRACK 06 AUDIO
    TITLE "Hoist the Colours Suite "
    PERFORMER "Hans Zimmer"
    ISRC 0P4006821034
    INDEX 01 00:00:00
FILE "07. The Pirate Lord of Singapore.wav" WAVE
  TRACK 07 AUDIO
    TITLE "The Pirate Lord of Singapore"
    PERFORMER "Hans Zimmer"
    ISRC 0P4006821034
    INDEX 01 00:00:00
FILE "08. Just Good Business.wav" WAVE
  TRACK 08 AUDIO
    TITLE "Just Good Business"
    PERFORMER "Hans Zimmer"
    ISRC 0P4006821034
    INDEX 01 00:00:00
FILE "09. He's a Pirate (Pete n' Red's Jolly Roger Mix).wav" WAVE
  TRACK 09 AUDIO
    TITLE "He's a Pirate (Pete n' Red's Jolly Roger Mix)"
    PERFORMER "Klaus Badelt"
    ISRC 0P400681=034
    INDEX 01 00:00:00
FILE "10. He's a Pirate (Friscia & Lamboy Tribal Treasure Mix).wav" WAVE
  TRACK 10 AUDIO
    TITLE "He's a Pirate (Friscia & Lamboy Tribal Treasure Mix)"
    PERFORMER "Klaus Badelt"
    ISRC 0P4006821034
    INDEX 01 00:00:00
FILE "11. He's a Pirate (Pelo Verde Mix).wav" WAVE
  TRACK 11 AUDIO
    TITLE "He's a Pirate (Pelo Verde Mix)"
    PERFORMER "Klaus Badelt"
    ISRC 0P4006821034
    INDEX 01 00:00:00
FILE "12. He's a Pirate (Chris Joss Ship Ahoy Tribal Mix).wav" WAVE
  TRACK 12 AUDIO
    TITLE "He's a Pirate (Chris Joss Ship Ahoy Tribal Mix)"
    PERFORMER "Klaus Badelt"
    ISRC 0P400681=034
    INDEX 01 00:00:00
FILE "13. Jack's Suite (Paul Oakenfold Mix).wav" WAVE
  TRACK 13 AUDIO
    TITLE "Jack's Suite (Paul Oakenfold Mix)"
    PERFORMER "Hans Zimmer"
    ISRC 0P4006820034
    INDEX 01 00:00:00
FILE "14. Jack's Suite (The Crystal Method Mix).wav" WAVE
  TRACK 14 AUDIO
    TITLE "Jack's Suite (The Crystal Method Mix)"
    PERFORMER "Hans Zimmer"
    ISRC 0P4006820034
    INDEX 01 00:00:00
FILE "15. Pirates Live Forever (Ryeland Allison Mix).wav" WAVE
  TRACK 15 AUDIO
    TITLE "Pirates Live Forever (Ryeland Allison Mix)"
    PERFORMER "Hans Zimmer"
    ISRC 0P4006821034
    INDEX 01 00:00:00
01. Hans Zimmer - Guilty Of Being Innocent Of Being Jack Sparrow
02. Hans Zimmer - Angelica (Featuring Rodrigo Y Gabriela)
03. Hans Zimmer - Mutiny
04. Rodrigo Y Gabriela - The Pirate That Should Not Be
05. Hans Zimmer - Mermaids
06. Rodrigo Y Gabriela - South Of Heaven's Chanting Mermaids
07. Hans Zimmer - Palm Tree Escape (Featuring Rodrigo Y Gabriela)
08. Hans Zimmer - Blackbeard
09. Rodrigo Y Gabriela - Angry And Dead Again
10. Hans Zimmer - On Stranger Tides
11. Hans Zimmer - End Credits
12. Hans Zimmer - Guilty Of Being Innocent Of Being Jack Sparrow (Remixed By DJ Earworm)
13. Rodrigo Y Gabriela - Angelica (Grant Us Peace Remix) (Remixed By Ki:Theory)
14. Rodrigo Y Gabriela - The Pirate That Should Not Be (Remixed By Photek)
15. Hans Zimmer - Blackbeard (Remixed By Super Mash Bros & Thieves)
16. Rodrigo Y Gabriela - South Of Heaven's Chanting Mermaids (Remixed By Paper Diamond)
17. Rodrigo Y Gabriela - Palm Tree Escape (Remixed By Adam Freeland)
18. Rodrigo Y Gabriela - Angry And Dead Again (Remixed By Static Revenger)

Код:

X Lossless Decoder version 20110515 (133.1)

XLD extraction logfile from 2011-05-17 21:48:30 -0500

Various Artists / Pirates Of The Caribbean: On Stranger Tides

Used drive : MATSHITA DVD-R   UJ-868 (revision KB19)

Ripper mode             : CDParanoia III 10.2
Disable audio cache     : OK for the drive with a cache less than 2750KiB
Make use of C2 pointers : NO
Read offset correction  : 102
Max retry count         : 100
Gap status              : Analyzed, Appended

TOC of the extracted CD
     Track |   Start  |  Length  | Start sector | End sector
    ---------------------------------------------------------
        1  | 00:01:40 | 01:42:40 |       115    |     7804
        2  | 01:44:05 | 04:17:36 |      7805    |    27115
        3  | 06:01:41 | 02:48:68 |     27116    |    39783
        4  | 08:50:34 | 03:55:64 |     39784    |    57472
        5  | 12:46:23 | 08:05:04 |     57473    |    93851
        6  | 20:51:27 | 05:48:46 |     93852    |   119997
        7  | 26:39:73 | 03:06:18 |    119998    |   133965
        8  | 29:46:16 | 05:05:36 |    133966    |   156876
        9  | 34:51:52 | 05:33:52 |    156877    |   181903
       10  | 40:25:29 | 02:44:31 |    181904    |   194234
       11  | 43:09:60 | 01:59:70 |    194235    |   203229
       12  | 45:09:55 | 02:45:66 |    203230    |   215670
       13  | 47:55:46 | 03:08:62 |    215671    |   229832
       14  | 51:04:33 | 06:26:10 |    229833    |   258792
       15  | 57:30:43 | 05:26:69 |    258793    |   283311
       16  | 62:57:37 | 03:32:63 |    283312    |   299274
       17  | 66:30:25 | 05:27:74 |    299275    |   323873
       18  | 71:58:24 | 05:49:51 |    323874    |   350099

AccurateRip Summary
    Disc not found in AccurateRip DB.

All Tracks
    Album gain             : -4.95 dB
    Peak                   : 0.992188
    Statistics
        Read error                           : 0
        Skipped (treated as error)           : 0
        Edge jitter error (maybe fixed)      : 0
        Atom jitter error (maybe fixed)      : 0
        Drift error (maybe fixed)            : 0
        Dropped bytes error (maybe fixed)    : 0
        Duplicated bytes error (maybe fixed) : 0

Track 01
    Filename : /Users/dtesta/Desktop/tempMusic/Music/Compilations - 2011 - Pirates Of The Caribbean: On Stranger Tides [FLAC]/01 Guilty Of Being Innocent Of Being Jack Sparrow.flac
    Pre-gap length : 00:03:40

    Track gain             : -3.77 dB
    Peak                   : 0.991211
    CRC32 hash (test run)  : 7722E6D7
    CRC32 hash             : 7722E6D7
    CRC32 hash (skip zero) : 5AA12CC4
    AccurateRip signature  : 10C4A540
        ->Track not present in AccurateRip database.
    Statistics
        Read error                           : 0
        Skipped (treated as error)           : 0
        Edge jitter error (maybe fixed)      : 0
        Atom jitter error (maybe fixed)      : 0
        Drift error (maybe fixed)            : 0
        Dropped bytes error (maybe fixed)    : 0
        Duplicated bytes error (maybe fixed) : 0
        Inconsistency in error sectors       : 0

Track 02
    Filename : /Users/dtesta/Desktop/tempMusic/Music/Compilations - 2011 - Pirates Of The Caribbean: On Stranger Tides [FLAC]/02 Angelica (Featuring Rodrigo Y Gabriela).flac
    Pre-gap length : 00:02:01

    Track gain             : -1.89 dB
    Peak                   : 0.787415
    CRC32 hash (test run)  : EAE2146E
    CRC32 hash             : EAE2146E
    CRC32 hash (skip zero) : 42BF14D4
    AccurateRip signature  : FBB3E504
        ->Track not present in AccurateRip database.
    Statistics
        Read error                           : 0
        Skipped (treated as error)           : 0
        Edge jitter error (maybe fixed)      : 0
        Atom jitter error (maybe fixed)      : 0
        Drift error (maybe fixed)            : 0
        Dropped bytes error (maybe fixed)    : 0
        Duplicated bytes error (maybe fixed) : 0
        Inconsistency in error sectors       : 0

Track 03
    Filename : /Users/dtesta/Desktop/tempMusic/Music/Compilations - 2011 - Pirates Of The Caribbean: On Stranger Tides [FLAC]/03 Mutiny.flac
    Pre-gap length : 00:02:00

    Track gain             : -6.67 dB
    Peak                   : 0.966125
    CRC32 hash (test run)  : 70F05FDE
    CRC32 hash             : 70F05FDE
    CRC32 hash (skip zero) : 82103367
    AccurateRip signature  : 0B44A93E
        ->Track not present in AccurateRip database.
    Statistics
        Read error                           : 0
        Skipped (treated as error)           : 0
        Edge jitter error (maybe fixed)      : 0
        Atom jitter error (maybe fixed)      : 0
        Drift error (maybe fixed)            : 0
        Dropped bytes error (maybe fixed)    : 0
        Duplicated bytes error (maybe fixed) : 0
        Inconsistency in error sectors       : 0

Track 04
    Filename : /Users/dtesta/Desktop/tempMusic/Music/Compilations - 2011 - Pirates Of The Caribbean: On Stranger Tides [FLAC]/04 The Pirate That Should Not Be.flac
    Pre-gap length : 00:01:66

    Track gain             : -0.85 dB
    Peak                   : 0.545929
    CRC32 hash (test run)  : 3105ED54
    CRC32 hash             : 3105ED54
    CRC32 hash (skip zero) : 93224CF9
    AccurateRip signature  : 43CFB9AF
        ->Track not present in AccurateRip database.
    Statistics
        Read error                           : 0
        Skipped (treated as error)           : 0
        Edge jitter error (maybe fixed)      : 0
        Atom jitter error (maybe fixed)      : 0
        Drift error (maybe fixed)            : 0
        Dropped bytes error (maybe fixed)    : 0
        Duplicated bytes error (maybe fixed) : 0
        Inconsistency in error sectors       : 0

Track 05
    Filename : /Users/dtesta/Desktop/tempMusic/Music/Compilations - 2011 - Pirates Of The Caribbean: On Stranger Tides [FLAC]/05 Mermaids.flac
    Pre-gap length : 00:02:17

    Track gain             : -5.11 dB
    Peak                   : 0.966125
    CRC32 hash (test run)  : D04F9E58
    CRC32 hash             : D04F9E58
    CRC32 hash (skip zero) : 23924FC8
    AccurateRip signature  : 688CD8A6
        ->Track not present in AccurateRip database.
    Statistics
        Read error                           : 0
        Skipped (treated as error)           : 0
        Edge jitter error (maybe fixed)      : 0
        Atom jitter error (maybe fixed)      : 0
        Drift error (maybe fixed)            : 0
        Dropped bytes error (maybe fixed)    : 0
        Duplicated bytes error (maybe fixed) : 0
        Inconsistency in error sectors       : 0

Track 06
    Filename : /Users/dtesta/Desktop/tempMusic/Music/Compilations - 2011 - Pirates Of The Caribbean: On Stranger Tides [FLAC]/06 South Of Heaven's Chanting Mermaids.flac
    Pre-gap length : 00:01:43

    Track gain             : 2.34 dB
    Peak                   : 0.543976
    CRC32 hash (test run)  : BA7A921D
    CRC32 hash             : BA7A921D
    CRC32 hash (skip zero) : D3AE6A77
    AccurateRip signature  : 536F74AF
        ->Track not present in AccurateRip database.
    Statistics
        Read error                           : 0
        Skipped (treated as error)           : 0
        Edge jitter error (maybe fixed)      : 0
        Atom jitter error (maybe fixed)      : 0
        Drift error (maybe fixed)            : 0
        Dropped bytes error (maybe fixed)    : 0
        Duplicated bytes error (maybe fixed) : 0
        Inconsistency in error sectors       : 0

Track 07
    Filename : /Users/dtesta/Desktop/tempMusic/Music/Compilations - 2011 - Pirates Of The Caribbean: On Stranger Tides [FLAC]/07 Palm Tree Escape (Featuring Rodrigo Y Gabriela).flac
    Pre-gap length : 00:01:64

    Track gain             : -7.48 dB
    Peak                   : 0.966125
    CRC32 hash (test run)  : D92D689E
    CRC32 hash             : D92D689E
    CRC32 hash (skip zero) : 6083D0AE
    AccurateRip signature  : 95A07A96
        ->Track not present in AccurateRip database.
    Statistics
        Read error                           : 0
        Skipped (treated as error)           : 0
        Edge jitter error (maybe fixed)      : 0
        Atom jitter error (maybe fixed)      : 0
        Drift error (maybe fixed)            : 0
        Dropped bytes error (maybe fixed)    : 0
        Duplicated bytes error (maybe fixed) : 0
        Inconsistency in error sectors       : 0

Track 08
    Filename : /Users/dtesta/Desktop/tempMusic/Music/Compilations - 2011 - Pirates Of The Caribbean: On Stranger Tides [FLAC]/08 Blackbeard.flac
    Pre-gap length : 00:01:57

    Track gain             : -6.50 dB
    Peak                   : 0.992188
    CRC32 hash (test run)  : 46693D32
    CRC32 hash             : 46693D32
    CRC32 hash (skip zero) : 50B70099
    AccurateRip signature  : 8D9B7883
        ->Track not present in AccurateRip database.
    Statistics
        Read error                           : 0
        Skipped (treated as error)           : 0
        Edge jitter error (maybe fixed)      : 0
        Atom jitter error (maybe fixed)      : 0
        Drift error (maybe fixed)            : 0
        Dropped bytes error (maybe fixed)    : 0
        Duplicated bytes error (maybe fixed) : 0
        Inconsistency in error sectors       : 0

Track 09
    Filename : /Users/dtesta/Desktop/tempMusic/Music/Compilations - 2011 - Pirates Of The Caribbean: On Stranger Tides [FLAC]/09 Angry And Dead Again.flac
    Pre-gap length : 00:01:66

    Track gain             : -0.93 dB
    Peak                   : 0.648041
    CRC32 hash (test run)  : 4449D38B
    CRC32 hash             : 4449D38B
    CRC32 hash (skip zero) : 8A43822A
    AccurateRip signature  : 8EE57C4F
        ->Track not present in AccurateRip database.
    Statistics
        Read error                           : 0
        Skipped (treated as error)           : 0
        Edge jitter error (maybe fixed)      : 0
        Atom jitter error (maybe fixed)      : 0
        Drift error (maybe fixed)            : 0
        Dropped bytes error (maybe fixed)    : 0
        Duplicated bytes error (maybe fixed) : 0
        Inconsistency in error sectors       : 0

Track 10
    Filename : /Users/dtesta/Desktop/tempMusic/Music/Compilations - 2011 - Pirates Of The Caribbean: On Stranger Tides [FLAC]/10 On Stranger Tides.flac
    Pre-gap length : 00:01:32

    Track gain             : -6.88 dB
    Peak                   : 0.973480
    CRC32 hash (test run)  : 617A7B5F
    CRC32 hash             : 617A7B5F
    CRC32 hash (skip zero) : 39869DB7
    AccurateRip signature  : B76C114C
        ->Track not present in AccurateRip database.
    Statistics
        Read error                           : 0
        Skipped (treated as error)           : 0
        Edge jitter error (maybe fixed)      : 0
        Atom jitter error (maybe fixed)      : 0
        Drift error (maybe fixed)            : 0
        Dropped bytes error (maybe fixed)    : 0
        Duplicated bytes error (maybe fixed) : 0
        Inconsistency in error sectors       : 0

Track 11
    Filename : /Users/dtesta/Desktop/tempMusic/Music/Compilations - 2011 - Pirates Of The Caribbean: On Stranger Tides [FLAC]/11 End Credits.flac
    Pre-gap length : 00:01:66

    Track gain             : -7.15 dB
    Peak                   : 0.967712
    CRC32 hash (test run)  : A277D7B1
    CRC32 hash             : A277D7B1
    CRC32 hash (skip zero) : 148D3D1D
    AccurateRip signature  : 78A9C0DF
        ->Track not present in AccurateRip database.
    Statistics
        Read error                           : 0
        Skipped (treated as error)           : 0
        Edge jitter error (maybe fixed)      : 0
        Atom jitter error (maybe fixed)      : 0
        Drift error (maybe fixed)            : 0
        Dropped bytes error (maybe fixed)    : 0
        Duplicated bytes error (maybe fixed) : 0
        Inconsistency in error sectors       : 0

Track 12
    Filename : /Users/dtesta/Desktop/tempMusic/Music/Compilations - 2011 - Pirates Of The Caribbean: On Stranger Tides [FLAC]/12 Guilty Of Being Innocent Of Being Jack Sparrow (Remixed By DJ Earworm).flac
    Pre-gap length : 00:02:60

    Track gain             : -2.07 dB
    Peak                   : 0.911072
    CRC32 hash (test run)  : E2FA1B2E
    CRC32 hash             : E2FA1B2E
    CRC32 hash (skip zero) : B6A902A3
    AccurateRip signature  : 0AA72521
        ->Track not present in AccurateRip database.
    Statistics
        Read error                           : 0
        Skipped (treated as error)           : 0
        Edge jitter error (maybe fixed)      : 0
        Atom jitter error (maybe fixed)      : 0
        Drift error (maybe fixed)            : 0
        Dropped bytes error (maybe fixed)    : 0
        Duplicated bytes error (maybe fixed) : 0
        Inconsistency in error sectors       : 0

Track 13
    Filename : /Users/dtesta/Desktop/tempMusic/Music/Compilations - 2011 - Pirates Of The Caribbean: On Stranger Tides [FLAC]/13 Angelica (Grant Us Peace Remix) (Remixed By Ki:Theory).flac

    Track gain             : -5.22 dB
    Peak                   : 0.600281
    CRC32 hash (test run)  : 286AB2F6
    CRC32 hash             : 286AB2F6
    CRC32 hash (skip zero) : EFFA6644
    AccurateRip signature  : EFCB883F
        ->Track not present in AccurateRip database.
    Statistics
        Read error                           : 0
        Skipped (treated as error)           : 0
        Edge jitter error (maybe fixed)      : 0
        Atom jitter error (maybe fixed)      : 0
        Drift error (maybe fixed)            : 0
        Dropped bytes error (maybe fixed)    : 0
        Duplicated bytes error (maybe fixed) : 0
        Inconsistency in error sectors       : 0

Track 14
    Filename : /Users/dtesta/Desktop/tempMusic/Music/Compilations - 2011 - Pirates Of The Caribbean: On Stranger Tides [FLAC]/14 The Pirate That Should Not Be (Remixed By Photek).flac

    Track gain             : -3.65 dB
    Peak                   : 0.966095
    CRC32 hash (test run)  : 5008B16F
    CRC32 hash             : 5008B16F
    CRC32 hash (skip zero) : 7B1F70F5
    AccurateRip signature  : FD545274
        ->Track not present in AccurateRip database.
    Statistics
        Read error                           : 0
        Skipped (treated as error)           : 0
        Edge jitter error (maybe fixed)      : 0
        Atom jitter error (maybe fixed)      : 0
        Drift error (maybe fixed)            : 0
        Dropped bytes error (maybe fixed)    : 0
        Duplicated bytes error (maybe fixed) : 0
        Inconsistency in error sectors       : 0

Track 15
    Filename : /Users/dtesta/Desktop/tempMusic/Music/Compilations - 2011 - Pirates Of The Caribbean: On Stranger Tides [FLAC]/15 Blackbeard (Remixed By Super Mash Bros & Thieves).flac

    Track gain             : -2.60 dB
    Peak                   : 0.767548
    CRC32 hash (test run)  : DA4F0D01
    CRC32 hash             : DA4F0D01
    CRC32 hash (skip zero) : 4425D798
    AccurateRip signature  : 4467A398
        ->Track not present in AccurateRip database.
    Statistics
        Read error                           : 0
        Skipped (treated as error)           : 0
        Edge jitter error (maybe fixed)      : 0
        Atom jitter error (maybe fixed)      : 0
        Drift error (maybe fixed)            : 0
        Dropped bytes error (maybe fixed)    : 0
        Duplicated bytes error (maybe fixed) : 0
        Inconsistency in error sectors       : 0

Track 16
    Filename : /Users/dtesta/Desktop/tempMusic/Music/Compilations - 2011 - Pirates Of The Caribbean: On Stranger Tides [FLAC]/16 South Of Heaven's Chanting Mermaids (Remixed By Paper Diamond).flac
    Pre-gap length : 00:02:23

    Track gain             : -2.49 dB
    Peak                   : 0.754395
    CRC32 hash (test run)  : 5CB8642D
    CRC32 hash             : 5CB8642D
    CRC32 hash (skip zero) : 9ED8578C
    AccurateRip signature  : E2FB5BD0
        ->Track not present in AccurateRip database.
    Statistics
        Read error                           : 0
        Skipped (treated as error)           : 0
        Edge jitter error (maybe fixed)      : 0
        Atom jitter error (maybe fixed)      : 0
        Drift error (maybe fixed)            : 0
        Dropped bytes error (maybe fixed)    : 0
        Duplicated bytes error (maybe fixed) : 0
        Inconsistency in error sectors       : 0

Track 17
    Filename : /Users/dtesta/Desktop/tempMusic/Music/Compilations - 2011 - Pirates Of The Caribbean: On Stranger Tides [FLAC]/17 Palm Tree Escape (Remixed By Adam Freeland).flac

    Track gain             : -2.31 dB
    Peak                   : 0.966125
    CRC32 hash (test run)  : D5323810
    CRC32 hash             : D5323810
    CRC32 hash (skip zero) : 4AE7126B
    AccurateRip signature  : 54D04DB7
        ->Track not present in AccurateRip database.
    Statistics
        Read error                           : 0
        Skipped (treated as error)           : 0
        Edge jitter error (maybe fixed)      : 0
        Atom jitter error (maybe fixed)      : 0
        Drift error (maybe fixed)            : 0
        Dropped bytes error (maybe fixed)    : 0
        Duplicated bytes error (maybe fixed) : 0
        Inconsistency in error sectors       : 0

Track 18
    Filename : /Users/dtesta/Desktop/tempMusic/Music/Compilations - 2011 - Pirates Of The Caribbean: On Stranger Tides [FLAC]/18 Angry And Dead Again (Remixed By Static Revenger).flac
    Pre-gap length : 00:00:73

    Track gain             : -3.86 dB
    Peak                   : 0.636658
    CRC32 hash (test run)  : 67E3BB61
    CRC32 hash             : 67E3BB61
    CRC32 hash (skip zero) : 13104BF8
    AccurateRip signature  : 72E2E53D
        ->Track not present in AccurateRip database.
    Statistics
        Read error                           : 0
        Skipped (treated as error)           : 0
        Edge jitter error (maybe fixed)      : 0
        Atom jitter error (maybe fixed)      : 0
        Drift error (maybe fixed)            : 0
        Dropped bytes error (maybe fixed)    : 0
        Duplicated bytes error (maybe fixed) : 0
        Inconsistency in error sectors       : 0

No errors occurred

End of status report

Код:

TITLE "Pirates Of The Caribbean: On Stranger Tides"
CATALOG 0050087169169
REM GENRE "Soundtrack"
REM DATE "2011"
REM DISCNUMBER 1
REM TOTALDISCS 1
REM DISCID 09123B12
REM REPLAYGAIN_ALBUM_GAIN -4.95 dB
REM REPLAYGAIN_ALBUM_PEAK 0.992188
FILE "01 Guilty Of Being Innocent Of Being Jack Sparrow.wav" WAVE
  TRACK 01 AUDIO
    TITLE "Guilty Of Being Innocent Of Being Jack Sparrow"
    PERFORMER "Hans Zimmer"
    SONGWRITER "Hans Zimmer"
    REM REPLAYGAIN_TRACK_GAIN -3.77 dB
    REM REPLAYGAIN_TRACK_PEAK 0.991211
    INDEX 00 00:00:00
    INDEX 01 00:01:40
  TRACK 02 AUDIO
    TITLE "Angelica (Featuring Rodrigo Y Gabriela)"
    PERFORMER "Hans Zimmer"
    SONGWRITER "Hans Zimmer/Rodrigo Sanchez/Eduardo Cruz/Gabriela Quintero"
    ISRC USWD11156883
    REM REPLAYGAIN_TRACK_GAIN -1.89 dB
    REM REPLAYGAIN_TRACK_PEAK 0.787415
    INDEX 00 01:42:04
FILE "02 Angelica (Featuring Rodrigo Y Gabriela).wav" WAVE
    INDEX 01 00:00:00
  TRACK 03 AUDIO
    TITLE "Mutiny"
    PERFORMER "Hans Zimmer"
    SONGWRITER "Hans Zimmer"
    ISRC USWD11156891
    REM REPLAYGAIN_TRACK_GAIN -6.67 dB
    REM REPLAYGAIN_TRACK_PEAK 0.966125
    INDEX 00 04:15:36
FILE "03 Mutiny.wav" WAVE
    INDEX 01 00:00:00
  TRACK 04 AUDIO
    TITLE "The Pirate That Should Not Be"
    PERFORMER "Rodrigo Y Gabriela"
    SONGWRITER "Rodrigo Sanchez/Hans Zimmer/Gabriela Quintero"
    ISRC USWD11156884
    REM REPLAYGAIN_TRACK_GAIN -0.85 dB
    REM REPLAYGAIN_TRACK_PEAK 0.545929
    INDEX 00 02:47:02
FILE "04 The Pirate That Should Not Be.wav" WAVE
    INDEX 01 00:00:00
  TRACK 05 AUDIO
    TITLE "Mermaids"
    PERFORMER "Hans Zimmer"
    SONGWRITER "Hans Zimmer/Eric Whitacre"
    ISRC USWD11156889
    REM REPLAYGAIN_TRACK_GAIN -5.11 dB
    REM REPLAYGAIN_TRACK_PEAK 0.966125
    INDEX 00 03:53:47
FILE "05 Mermaids.wav" WAVE
    INDEX 01 00:00:00
  TRACK 06 AUDIO
    TITLE "South Of Heaven's Chanting Mermaids"
    PERFORMER "Rodrigo Y Gabriela"
    SONGWRITER "Gabriela Quintero/Rodrigo Sanchez/Hans Zimmer"
    ISRC USWD11156890
    REM REPLAYGAIN_TRACK_GAIN 2.34 dB
    REM REPLAYGAIN_TRACK_PEAK 0.543976
    INDEX 00 08:03:36
FILE "06 South Of Heaven's Chanting Mermaids.wav" WAVE
    INDEX 01 00:00:00
  TRACK 07 AUDIO
    TITLE "Palm Tree Escape (Featuring Rodrigo Y Gabriela)"
    PERFORMER "Hans Zimmer"
    SONGWRITER "Hans Zimmer"
    ISRC USWD11156886
    REM REPLAYGAIN_TRACK_GAIN -7.48 dB
    REM REPLAYGAIN_TRACK_PEAK 0.966125
    INDEX 00 05:46:57
FILE "07 Palm Tree Escape (Featuring Rodrigo Y Gabriela).wav" WAVE
    INDEX 01 00:00:00
  TRACK 08 AUDIO
    TITLE "Blackbeard"
    PERFORMER "Hans Zimmer"
    SONGWRITER "Hans Zimmer"
    ISRC USWD11156888
    REM REPLAYGAIN_TRACK_GAIN -6.50 dB
    REM REPLAYGAIN_TRACK_PEAK 0.992188
    INDEX 00 03:04:36
FILE "08 Blackbeard.wav" WAVE
    INDEX 01 00:00:00
  TRACK 09 AUDIO
    TITLE "Angry And Dead Again"
    PERFORMER "Rodrigo Y Gabriela"
    SONGWRITER "Rodrigo Sanchez/Gabriela Quintero/Hans Zimmer"
    ISRC USWD11156887
    REM REPLAYGAIN_TRACK_GAIN -0.93 dB
    REM REPLAYGAIN_TRACK_PEAK 0.648041
    INDEX 00 05:03:45
FILE "09 Angry And Dead Again.wav" WAVE
    INDEX 01 00:00:00
  TRACK 10 AUDIO
    TITLE "On Stranger Tides"
    PERFORMER "Hans Zimmer"
    SONGWRITER "Geoff Zanelli/Eric Whitacre/Hans Zimmer"
    ISRC USWD11156885
    REM REPLAYGAIN_TRACK_GAIN -6.88 dB
    REM REPLAYGAIN_TRACK_PEAK 0.973480
    INDEX 00 05:32:20
FILE "10 On Stranger Tides.wav" WAVE
    INDEX 01 00:00:00
  TRACK 11 AUDIO
    TITLE "End Credits"
    PERFORMER "Hans Zimmer"
    SONGWRITER "Hans Zimmer"
    ISRC USWD11156892
    REM REPLAYGAIN_TRACK_GAIN -7.15 dB
    REM REPLAYGAIN_TRACK_PEAK 0.967712
    INDEX 00 02:42:40
FILE "11 End Credits.wav" WAVE
    INDEX 01 00:00:00
  TRACK 12 AUDIO
    TITLE "Guilty Of Being Innocent Of Being Jack Sparrow (Remixed By DJ Earworm)"
    PERFORMER "Hans Zimmer"
    SONGWRITER "Hans Zimmer"
    ISRC USWD11156898
    REM REPLAYGAIN_TRACK_GAIN -2.07 dB
    REM REPLAYGAIN_TRACK_PEAK 0.911072
    INDEX 00 01:57:10
FILE "12 Guilty Of Being Innocent Of Being Jack Sparrow (Remixed By DJ Earworm).wav" WAVE
    INDEX 01 00:00:00
FILE "13 Angelica (Grant Us Peace Remix) (Remixed By KiпјљTheory).wav" WAVE
  TRACK 13 AUDIO
    TITLE "Angelica (Grant Us Peace Remix) (Remixed By Ki:Theory)"
    PERFORMER "Rodrigo Y Gabriela"
    SONGWRITER "Rodrigo Sanchez/Eduardo Cruz/Gabriela Quintero/Hans Zimmer"
    ISRC USWD11156896
    REM REPLAYGAIN_TRACK_GAIN -5.22 dB
    REM REPLAYGAIN_TRACK_PEAK 0.600281
    INDEX 01 00:00:00
FILE "14 The Pirate That Should Not Be (Remixed By Photek).wav" WAVE
  TRACK 14 AUDIO
    TITLE "The Pirate That Should Not Be (Remixed By Photek)"
    PERFORMER "Rodrigo Y Gabriela"
    SONGWRITER "Gabriela Quintero/Hans Zimmer/Rodrigo Sanchez"
    ISRC USWD11156893
    REM REPLAYGAIN_TRACK_GAIN -3.65 dB
    REM REPLAYGAIN_TRACK_PEAK 0.966095
    INDEX 01 00:00:00
FILE "15 Blackbeard (Remixed By Super Mash Bros & Thieves).wav" WAVE
  TRACK 15 AUDIO
    TITLE "Blackbeard (Remixed By Super Mash Bros & Thieves)"
    PERFORMER "Hans Zimmer"
    SONGWRITER "Hans Zimmer"
    ISRC USWD11156899
    REM REPLAYGAIN_TRACK_GAIN -2.60 dB
    REM REPLAYGAIN_TRACK_PEAK 0.767548
    INDEX 01 00:00:00
  TRACK 16 AUDIO
    TITLE "South Of Heaven's Chanting Mermaids (Remixed By Paper Diamond)"
    PERFORMER "Rodrigo Y Gabriela"
    SONGWRITER "Hans Zimmer/Rodrigo Sanchez/Gabriela Quintero"
    ISRC USWD11156900
    REM REPLAYGAIN_TRACK_GAIN -2.49 dB
    REM REPLAYGAIN_TRACK_PEAK 0.754395
    INDEX 00 05:24:46
FILE "16 South Of Heaven's Chanting Mermaids (Remixed By Paper Diamond).wav" WAVE
    INDEX 01 00:00:00
FILE "17 Palm Tree Escape (Remixed By Adam Freeland).wav" WAVE
  TRACK 17 AUDIO
    TITLE "Palm Tree Escape (Remixed By Adam Freeland)"
    PERFORMER "Rodrigo Y Gabriela"
    ISRC USWD11156895
    REM REPLAYGAIN_TRACK_GAIN -2.31 dB
    REM REPLAYGAIN_TRACK_PEAK 0.966125
    INDEX 01 00:00:00
  TRACK 18 AUDIO
    TITLE "Angry And Dead Again (Remixed By Static Revenger)"
    PERFORMER "Rodrigo Y Gabriela"
    SONGWRITER "Rodrigo Sanchez/Gabriela Quintero/Hans Zimmer"
    ISRC USWD11156894
    REM REPLAYGAIN_TRACK_GAIN -3.86 dB
    REM REPLAYGAIN_TRACK_PEAK 0.636658
    INDEX 00 05:27:01
FILE "18 Angry And Dead Again (Remixed By Static Revenger).wav" WAVE
    INDEX 01 00:00:00
info [Профиль]  [ЛС] 

Atashka56

Пол: Пол:Муж

Стаж: 8 лет 4 месяца

Сообщений: 7

СССР
Рейтинг

post 27-Июн-2016 03:29 (спустя 4 года 6 месяцев) [-]0[+]

[Цитировать] 

Встаньте на раздачу пожалуйста
info [Профиль]  [ЛС] 

Mix@n1993

Пол: Пол:Муж

Стаж: 10 лет

Сообщений: 3

Россия
Рейтинг

post 03-Фев-2020 10:16 (спустя 3 года 7 месяцев) [-]0[+]

[Цитировать] 

Встаньте на раздачу пожалуйста

_________________
какбЭ крабЭ
info [Профиль]  [ЛС] 
Показать сообщения:    
Ответить на тему

Текущее время: 29-Май 19:49

Часовой пояс: GMT + 4



Вы не можете начинать темы
Вы не можете отвечать на сообщения
Вы не можете редактировать свои сообщения
Вы не можете удалять свои сообщения
Вы не можете голосовать в опросах
Вы не можете прикреплять файлы к сообщениям
Вы не можете скачивать файлы