Ошибка

До окончания фрилича осталось:


Ван-Пис: Фильм восьмой / One Piece: The Desert Princess and The Pirates: Adventure in Alabasta [Movie][2007][приключения, комедия, фэнтези][BDRip][720p][Любительский (JAP+SUB)]

Ответить на тему
 
Автор Сообщение

Witcher

Пол: Пол:Муж

Стаж: 7 лет 8 месяцев

Сообщений: 6195

Рейтинг

post 14-Дек-2011 19:39 0[+]

[Цитировать] 

Ван-Пис: Фильм восьмой | Большой Куш | Одним куском
One Piece: The Desert Princess and The Pirates: Adventure in Alabasta | One Piece: Episode of Arabasta - Sabaku no Oujo to Kaizoku-tachi

pic="http://lostpic.net/images/bbd6dfb70e467db9b47231dd0a2b0d4a.jpg"
One Piece (яп. - ワンピース , русс. Ван-Пис, Одним Куском) - это известнейшая манга и не уступающее ей по популярности аниме. В основе сюжета лежит рассказ о пирате Монки Д. Луффи ("Резиновом" человеке, съевшем дьявольский фрукт), который отправился в плавание, чтобы стать Королем Пиратов и найти величайшее в мире сокровище - One Piece. Но этот путь не так легок. В дороге он встречает верных друзей, непримиримых врагов, и бесстрашно идет к новым, невероятным приключениям!

Год: 2007
Премьера: 03.03.2007
Страна:
Жанр: приключения, комедия, фэнтези
Тип: полнометражный фильм, 1:29:59
Озвучка: Любительская (одноголосая) [Cuba77]
Субтитры: Присутствуют (внутренние) -
Источник: Witcher, HDChina
Режиссёр: Имамура Такахиро
Снято по манге: Ван-Пис
Автор оригинала: Ода Эйитиро
Студия: Toei Animation

Описание:
  На этот раз Луффи и его команду ждут увлекательные приключения в опастных песках пустыни. Но нет ничего, что могло бы остановить отчаянных друзей.
Cубтитры:
  • One-Piece (.ass)
  • One-Piece - в редакции Witcher`a (.ass)

Качество: BDRip [kulanyee@HDChina] | Хардсаб: Нет | Формат: MKV
: H.264 | 1280x720 (16:9) | 23,976 fps | ~ 3500 Kbps
:
  • JP - AC3 | 6 ch | 48 KHz | ~ 640 Kbps
  • RU - DTS | 6 ch | 48 KHz | ~ 1510 kbps - [Cuba77] - отдельно

Уникальный идентификатор : 241290790823951321821530397676700076957 (0xB586EA7ABBE8860E9180C7F8DEBA8B9D)
Полное имя : F:\One Piece Movie 01\8. Ван-Пис - Фильм восьмой [One Piece - The Desert Princess and The Pirates - Adventure in Alabasta]\Ван-Пис - Фильм восьмой [One Piece - The Desert Princess and The Pirates - Adventure in Alabasta].mkv
Формат : Matroska
Версия формата : Version 2
Размер файла : 2,61 Гбайт
Продолжительность : 1 ч. 29 м.
Общий поток : 4146 Кбит/сек
Название фильма : Ван-Пис: Фильм восьмой | One Piece: The Desert Princess and The Pirates: Adventure in Alabasta - Witcher
Дата кодирования : UTC 2011-12-14 13:15:30
Программа кодирования : mkvmerge v5.0.1 ('Es ist Sommer') built on Oct 9 2011 11:55:43
Библиотека кодирования : libebml v1.2.2 + libmatroska v1.3.0
Attachment : Yes / Yes / Yes / Yes / Yes / Yes / Yes / Yes / Yes / Yes / Yes / Yes / Yes / Yes / Yes / Yes / Yes / Yes / Yes / Yes / Yes / Yes / Yes

Видео
Идентификатор : 1
Формат : AVC
Формат/Информация : Advanced Video Codec
Профиль формата : High@L4.1
Параметр CABAC формата : Да
Параметр ReFrames формата : 9 кадров
Идентификатор кодека : V_MPEG4/ISO/AVC
Продолжительность : 1 ч. 29 м.
Битрейт : 3500 Кбит/сек
Ширина : 1280 пикселей
Высота : 720 пикселей
Соотношение сторон : 16:9
Частота кадров : 23,976 кадра/сек
Цветовое пространство : YUV
Субдискретизация насыщенности : 4:2:0
Битовая глубина : 8 бит
Тип развёртки : Прогрессивная
Бит/(Пиксели*Кадры) : 0.158
Размер потока : 2,15 Гбайт (83%)
Заголовок : Ван-Пис: Фильм восьмой | One Piece: The Desert Princess and The Pirates: Adventure in Alabasta
Библиотека кодирования : x264 core 118 r2085 8a62835
Настройки программы : cabac=1 / ref=9 / deblock=1:-2:-2 / analyse=0x3:0x133 / me=umh / subme=10 / psy=1 / psy_rd=0.80:0.00 / mixed_ref=1 / me_range=48 / chroma_me=1 / trellis=2 / 8x8dct=1 / cqm=0 / deadzone=21,11 / fast_pskip=1 / chroma_qp_offset=-2 / threads=6 / sliced_threads=0 / nr=0 / decimate=0 / interlaced=0 / bluray_compat=0 / constrained_intra=0 / bframes=10 / b_pyramid=2 / b_adapt=2 / b_bias=0 / direct=3 / weightb=1 / open_gop=0 / weightp=2 / keyint=360 / keyint_min=3 / scenecut=40 / intra_refresh=0 / rc_lookahead=60 / rc=2pass / mbtree=1 / bitrate=3500 / ratetol=1.0 / qcomp=0.70 / qpmin=0 / qpmax=69 / qpstep=4 / cplxblur=20.0 / qblur=0.5 / vbv_maxrate=50000 / vbv_bufsize=40000 / nal_hrd=none / ip_ratio=1.40 / aq=2:1.30
Язык : Japanese

Аудио
Идентификатор : 2
Формат : AC-3
Формат/Информация : Audio Coding 3
Расширение режима : CM (complete main)
Идентификатор кодека : A_AC3
Продолжительность : 1 ч. 29 м.
Вид битрейта : Постоянный
Битрейт : 640 Кбит/сек
Каналы : 6 каналов
Расположение каналов : Front: L C R, Side: L R, LFE
Частота : 48,0 КГц
Битовая глубина : 16 бит
Метод сжатия : С потерями
Размер потока : 412 Мбайт (15%)
Язык : Japanese

Текст #1
Идентификатор : 3
Формат : ASS
Идентификатор кодека : S_TEXT/ASS
Идентификатор кодека/Информация : Advanced Sub Station Alpha
Метод сжатия : Без потерь
Заголовок : One-Piece
Язык : Russian

Текст #2
Идентификатор : 4
Формат : ASS
Идентификатор кодека : S_TEXT/ASS
Идентификатор кодека/Информация : Advanced Sub Station Alpha
Метод сжатия : Без потерь
Заголовок : One-Piece, Witcher
Язык : Russian

© Оформление by Witcher
info [Профиль]  [ЛС] 

Witcher

Пол: Пол:Муж

Стаж: 7 лет 8 месяцев

Сообщений: 6195

Рейтинг

post 14-Дек-2011 19:47 (спустя 8 минут) [-]0[+]

[Цитировать] 

http://tapochek.net/viewtopic.php?t=86085 - сравнение http://screenshotcomparison.com/comparison/98711

_________________
Темы не проверяю, для этого есть модераторы.
info [Профиль]  [ЛС] 
Показать сообщения:    
Ответить на тему

Текущее время: 10-Дек 22:37

Часовой пояс: GMT + 4



Вы не можете начинать темы
Вы не можете отвечать на сообщения
Вы не можете редактировать свои сообщения
Вы не можете удалять свои сообщения
Вы не можете голосовать в опросах
Вы не можете прикреплять файлы к сообщениям
Вы не можете скачивать файлы