Ошибка

Проигравший рыцарь 2 / Ying Han 2 (Динг Шенг / Ding Sheng) [2011 г., боевик, DVDRip]

Ответить на тему
 
Автор Сообщение

mazin750

Пол: Пол:Муж

Стаж: 6 лет 11 месяцев

Сообщений: 27

Россия
Рейтинг

post 08-Дек-2011 02:24 0[+]

[Цитировать] 

Проигравший рыцарь 2 / Ying Han 2

Год выпуска: 2011
Страна: Китай
Жанр: боевик
Продолжительность: 1:25:53.
Перевод: Любительский (одноголосый)
Язык субтитров: нет

Режиссер:
  • Динг Шенг / Ding Sheng


В ролях:
  • Ен Чун Чиао, Е Лю, Чжан Цзылинь


Описание: Бывший офицер военно-морского флота, перенесший травму головного мозга при исполнении служебных обязанностей, случайно оказывается в банке во время ограбления и мешает грабителям осуществить свой план...
| [
General
Complete name : C:\Новая папка\Ying Han 2.avi
Format : AVI
Format/Info : Audio Video Interleave
File size : 699 MiB
Duration : 1h 26mn
Overall bit rate : 1 137 Kbps
Writing library : VirtualDub build 32507/release
Video
ID : 0
Format : MPEG-4 Visual
Format profile : Advanced Simple@L5
Format settings, BVOP : 2
Format settings, QPel : No
Format settings, GMC : No warppoints
Format settings, Matrix : Default (H.263)
Codec ID : XVID
Codec ID/Hint : XviD
Duration : 1h 26mn
Bit rate : 999 Kbps
Width : 624 pixels
Height : 272 pixels
Display aspect ratio : 2.25:1
Frame rate : 25.000 fps
Color space : YUV
Chroma subsampling : 4:2:0
Bit depth : 8 bits
Scan type : Progressive
Compression mode : Lossy
Bits/(Pixel*Frame) : 0.236
Stream size : 615 MiB (88%)
Writing library : XviD 63
Audio
ID : 1
Format : MPEG Audio
Format version : Version 1
Format profile : Layer 3
Codec ID : 55
Codec ID/Hint : MP3
Duration : 1h 25mn
Bit rate mode : Constant
Bit rate : 128 Kbps
Channel(s) : 2 channels
Sampling rate : 48.0 KHz
Compression mode : Lossy
Stream size : 78.6 MiB (11%)
Alignment : Split accross interleaves
Interleave, duration : 40 ms (1.00 video frame)
Interleave, preload duration : 500 ms
Writing library : LAME3.98.4ЄЄЄЄЄЄЄЄЄЄ
Качество: DVDRip
Формат: AVI
Видео кодек: XviD
Аудио кодек: MP3
Видео: 624x272 (2.29:1), 25 fps, XviD build 63 ~999 kbps avg, 0.23 bit/pixel
Аудио: 48 kHz, MPEG Layer 3, 2 ch, ~128.00 kbps avg
info [Профиль]  [ЛС] 

post 09-Янв-2012 14:41 (спустя 1 месяц 1 день) [-]0[+]

Топик был перенесен из форума Rips в форум Азиатское кино | Rips

chingis
 
Показать сообщения:    
Ответить на тему

Текущее время: 25-Фев 19:58

Часовой пояс: GMT + 4



Вы не можете начинать темы
Вы не можете отвечать на сообщения
Вы не можете редактировать свои сообщения
Вы не можете удалять свои сообщения
Вы не можете голосовать в опросах
Вы не можете прикреплять файлы к сообщениям
Вы не можете скачивать файлы