Ошибка

Ван-Пис: Фильм седьмой / One Piece: Karakuri Castle's Mecha Giant Soldier [Movie][2006][приключения, комедия, фэнтези][BDRip][720p][Любительский (JAP+SUB)]

Ответить на тему
 
Автор Сообщение

Witcher

Пол: Пол:Муж

Стаж: 7 лет 8 месяцев

Сообщений: 6196

Рейтинг

post 04-Дек-2011 18:28 2[+]

[Цитировать] 

Ван-Пис: Фильм седьмой | Большой Куш | Одним куском
One Piece: Karakuri Castle's Mecha Giant Soldier | One Piece: Karakuri Shiro no Mecha Kyohei

pic="http://lostpic.net/images/5abf9b33bf321b40e206a29a7726f7ca.jpg"
One Piece (яп. - ワンピース , русс. Ван-Пис, Одним Куском) - это известнейшая манга и не уступающее ей по популярности аниме. В основе сюжета лежит рассказ о пирате Монки Д. Луффи ("Резиновом" человеке, съевшем дьявольский фрукт), который отправился в плавание, чтобы стать Королем Пиратов и найти величайшее в мире сокровище - One Piece. Но этот путь не так легок. В дороге он встречает верных друзей, непримиримых врагов, и бесстрашно идет к новым, невероятным приключениям!

Год: 2006
Премьера: 04.03.2006
Страна:
Жанр: приключения, комедия, фэнтези
Тип: полнометражный фильм, 1:34:45
Озвучка: Любительская (одноголосая) [Persona99]
Субтитры: Присутствуют (внутренние) -
Источник: Witcher, HDChina
Режиссёр: Уда Коносукэ
Снято по манге: Ван-Пис
Автор оригинала: Ода Эйитиро
Студия: Toei Animation

Описание:
  Команда Луффи случайно спасает странную старуху. За доставку домой та обещает им легендарное сокровище! И, несмотря на сомнения команды в его существовании, Луффи решает, что сокровище есть и они его непременно добудут...
Cубтитры:
  • Зонт, Рё, pavel_mps, NiXi - в редакции Witcher`a (.ass)

Качество: BDRip [kulanyee@HDChina] | Хардсаб: Нет | Формат: MKV
: H.264 | 1280x720 (16:9) | 23,976 fps | ~ 2800 Kbps
:
  • JP - AC3 | 6 ch | 48 KHz | ~ 640 Kbps
  • RU - MP3 | 2 ch | 48 KHz | ~ 160 kbps - [Persona99] - отдельно

Уникальный идентификатор : 250919755189812237721452734427545629733 (0xBCC56313784CA1BAB9925ECC6A367425)
Полное имя : F:\One Piece Movie 01\7. Ван-Пис - Фильм седьмой [One Piece - Karakuri Castle's Mecha Giant Soldier]\Ван-Пис - Фильм седьмой [One Piece - Karakuri Castle's Mecha Giant Soldier].mkv
Формат : Matroska
Версия формата : Version 2
Размер файла : 2,28 Гбайт
Продолжительность : 1 ч. 34 м.
Общий поток : 3443 Кбит/сек
Название фильма : Ван-Пис: Фильм седьмой | One Piece: Karakuri Castle's Mecha Giant Soldier - Witcher
Дата кодирования : UTC 2011-12-04 14:18:39
Программа кодирования : mkvmerge v5.0.1 ('Es ist Sommer') built on Oct 9 2011 11:55:43
Библиотека кодирования : libebml v1.2.2 + libmatroska v1.3.0
Attachment : Yes / Yes / Yes / Yes / Yes / Yes

Видео
Идентификатор : 1
Формат : AVC
Формат/Информация : Advanced Video Codec
Профиль формата : High@L4.1
Параметр CABAC формата : Да
Параметр ReFrames формата : 9 кадров
Идентификатор кодека : V_MPEG4/ISO/AVC
Продолжительность : 1 ч. 34 м.
Битрейт : 2800 Кбит/сек
Ширина : 1280 пикселей
Высота : 720 пикселей
Соотношение сторон : 16:9
Частота кадров : 23,976 кадра/сек
Цветовое пространство : YUV
Субдискретизация насыщенности : 4:2:0
Битовая глубина : 8 бит
Тип развёртки : Прогрессивная
Бит/(Пиксели*Кадры) : 0.127
Размер потока : 1,81 Гбайт (79%)
Заголовок : Ван-Пис: Фильм седьмой | One Piece: Karakuri Castle's Mecha Giant Soldier
Библиотека кодирования : x264 core 118 r2085 8a62835
Настройки программы : cabac=1 / ref=9 / deblock=1:-2:-2 / analyse=0x3:0x133 / me=umh / subme=10 / psy=1 / psy_rd=0.80:0.00 / mixed_ref=1 / me_range=48 / chroma_me=1 / trellis=2 / 8x8dct=1 / cqm=0 / deadzone=21,11 / fast_pskip=1 / chroma_qp_offset=-2 / threads=6 / sliced_threads=0 / nr=0 / decimate=0 / interlaced=0 / bluray_compat=0 / constrained_intra=0 / bframes=10 / b_pyramid=2 / b_adapt=2 / b_bias=0 / direct=3 / weightb=1 / open_gop=0 / weightp=2 / keyint=360 / keyint_min=3 / scenecut=40 / intra_refresh=0 / rc_lookahead=60 / rc=2pass / mbtree=1 / bitrate=2800 / ratetol=1.0 / qcomp=0.70 / qpmin=0 / qpmax=69 / qpstep=4 / cplxblur=20.0 / qblur=0.5 / vbv_maxrate=50000 / vbv_bufsize=40000 / nal_hrd=none / ip_ratio=1.40 / aq=2:1.30
Язык : Japanese

Аудио
Идентификатор : 2
Формат : AC-3
Формат/Информация : Audio Coding 3
Расширение режима : CM (complete main)
Идентификатор кодека : A_AC3
Продолжительность : 1 ч. 34 м.
Вид битрейта : Постоянный
Битрейт : 640 Кбит/сек
Каналы : 6 каналов
Расположение каналов : Front: L C R, Side: L R, LFE
Частота : 48,0 КГц
Битовая глубина : 16 бит
Метод сжатия : С потерями
Размер потока : 434 Мбайт (19%)
Язык : Japanese

Текст
Идентификатор : 3
Формат : ASS
Идентификатор кодека : S_TEXT/ASS
Идентификатор кодека/Информация : Advanced Sub Station Alpha
Метод сжатия : Без потерь
Заголовок : Зонт, Рё, pavel_mps, NiXi, Witcher
Язык : Russian

© Оформление by Witcher
info [Профиль]  [ЛС] 

Witcher

Пол: Пол:Муж

Стаж: 7 лет 8 месяцев

Сообщений: 6196

Рейтинг

post 04-Дек-2011 18:56 (спустя 27 минут) [-]0[+]

[Цитировать] 

anime_9

_________________
Темы не проверяю, для этого есть модераторы.
info [Профиль]  [ЛС] 

Cuzz

Пол: Пол:Муж

Стаж: 5 лет 5 месяцев

Сообщений: 30

Зимбабве
Рейтинг

post 03-Янв-2012 14:08 (спустя 29 дней) [-]0[+]

[Цитировать] 

А чей рип лучше - HDChina или Chubby-raws?
Не только этого мувика, а всех.
info [Профиль]  [ЛС] 

Witcher

Пол: Пол:Муж

Стаж: 7 лет 8 месяцев

Сообщений: 6196

Рейтинг

post 03-Янв-2012 14:08 (спустя 8 секунд) [-]0[+]

[Цитировать] 

Cuzz
По мне - от HDChina, поэтому его и выкладываю Улыбаюсь

_________________
Темы не проверяю, для этого есть модераторы.
info [Профиль]  [ЛС] 

Cuzz

Пол: Пол:Муж

Стаж: 5 лет 5 месяцев

Сообщений: 30

Зимбабве
Рейтинг

post 23-Авг-2012 18:44 (спустя 7 месяцев 20 дней) [-]0[+]

[Цитировать] 

А 1080 годных рипов нету?
info [Профиль]  [ЛС] 

Witcher

Пол: Пол:Муж

Стаж: 7 лет 8 месяцев

Сообщений: 6196

Рейтинг

post 23-Авг-2012 18:51 (спустя 7 минут) [-]0[+]

[Цитировать] 

Cuzz
Есть Улыбаюсь

_________________
Темы не проверяю, для этого есть модераторы.
info [Профиль]  [ЛС] 

Cuzz

Пол: Пол:Муж

Стаж: 5 лет 5 месяцев

Сообщений: 30

Зимбабве
Рейтинг

post 23-Авг-2012 19:38 (спустя 46 минут) [-]0[+]

[Цитировать] 

Witcher
Chubby-Raws?
info [Профиль]  [ЛС] 

Cuzz

Пол: Пол:Муж

Стаж: 5 лет 5 месяцев

Сообщений: 30

Зимбабве
Рейтинг

post 24-Авг-2012 21:49 (спустя 1 день 2 часа) [-]0[+]

[Цитировать] 

Witcher
И ещё... Где мне можно скачать рипы от HDChina в оригинале? Потому что с вшитыми сабами не подойдет...
info [Профиль]  [ЛС] 

Witcher

Пол: Пол:Муж

Стаж: 7 лет 8 месяцев

Сообщений: 6196

Рейтинг

post 24-Авг-2012 21:59 (спустя 9 минут) [-]0[+]

[Цитировать] 

Cuzz
Где качал - там уже нет. Сабы можно вытащить...

_________________
Темы не проверяю, для этого есть модераторы.
info [Профиль]  [ЛС] 

Cuzz

Пол: Пол:Муж

Стаж: 5 лет 5 месяцев

Сообщений: 30

Зимбабве
Рейтинг

post 25-Авг-2012 00:26 (спустя 2 часа 27 минут) [-]0[+]

[Цитировать] 

Witcher
Мне просто надо сабы подогнать под общий стиль. А вшитые в аегисабе не откроешь х)
info [Профиль]  [ЛС] 

Witcher

Пол: Пол:Муж

Стаж: 7 лет 8 месяцев

Сообщений: 6196

Рейтинг

post 25-Авг-2012 09:58 (спустя 9 часов) [-]0[+]

[Цитировать] 

Cuzz
Извлечь из контейнера и вперёд...

_________________
Темы не проверяю, для этого есть модераторы.
info [Профиль]  [ЛС] 

Cuzz

Пол: Пол:Муж

Стаж: 5 лет 5 месяцев

Сообщений: 30

Зимбабве
Рейтинг

post 25-Авг-2012 23:16 (спустя 13 часов) [-]0[+]

[Цитировать] 

Witcher


добавлено спустя 43 секунды:

Нет, а если серьезно, то на няхе нету сидов, при чем довольно давно, как я понял.
За раздачи спасибо, качаю все мувики. Повозиться, конечно, придется, ну да ладно.

добавлено спустя 7 минут 2 секунды:

И кстати, что там насчет 1080р? Можно в личку?
info [Профиль]  [ЛС] 
Показать сообщения:    
Ответить на тему

Текущее время: 08-Дек 10:02

Часовой пояс: GMT + 4



Вы не можете начинать темы
Вы не можете отвечать на сообщения
Вы не можете редактировать свои сообщения
Вы не можете удалять свои сообщения
Вы не можете голосовать в опросах
Вы не можете прикреплять файлы к сообщениям
Вы не можете скачивать файлы