Ошибка

Ван-Пис: Фильм шестой / One Piece: Baron Omatsuri and the Secret Island [Movie][2005][приключения, комедия, фэнтези][BDRip][720p][Любительский (JAP+SUB)]

Ответить на тему
 
Автор Сообщение

Witcher

Пол: Пол:Муж

Стаж: 7 лет 8 месяцев

Сообщений: 6195

Рейтинг

post 22-Ноя-2011 17:45 0[+]

[Цитировать] 

Ван-Пис: Фильм шестой | Большой Куш | Одним куском
One Piece: Baron Omatsuri and the Secret Island | One Piece: Omatsuri Danshaku to Himitsu no Shima

pic="http://lostpic.net/images/99d6d29be97e6d8ace9f9ff3a8d2c045.jpg"
One Piece (яп. - ワンピース , русс. Ван-Пис, Одним Куском) - это известнейшая манга и не уступающее ей по популярности аниме. В основе сюжета лежит рассказ о пирате Монки Д. Луффи ("Резиновом" человеке, съевшем дьявольский фрукт), который отправился в плавание, чтобы стать Королем Пиратов и найти величайшее в мире сокровище - One Piece. Но этот путь не так легок. В дороге он встречает верных друзей, непримиримых врагов, и бесстрашно идет к новым, невероятным приключениям!

Год: 2005
Премьера: 05.03.2005
Страна:
Жанр: приключения, комедия, фэнтези
Тип: полнометражный фильм, 1:31:25
Озвучка: Любительская (одноголосая) [Persona99]
Субтитры: Присутствуют (внутренние) -
Источник: Witcher, HDChina
Режиссёр: Хосода Мамору
Снято по манге: Ван-Пис
Автор оригинала: Ода Эйитиро
Студия: Toei Animation

Описание:
  «Если ты — самый пиратистый из самых пиратистых пиратов, то держи курс на остров Омацури, где тебя ожидает райский отдых на лучшем из курортов Гранд Лайн.» — так гласит послание, найденное командой Соломенной Шляпы в открытом океане. Конечно же, самый пиратистый пират по имени Луффи тотчас устремляется посетить остров карнавалов. Однако они находят весьма необычный прием. Вместо спа-салонов и неземных красоток их ожидает испытание ада! Команда верных друзей ещё не подозревает, какие суровые испытания предстоит им пройти. Это, наверное, самый серьёзный и самый страшный из всех фильмов One Piece. Основной вопрос, который задается герою: «Захочешь ли ты продолжать жить дальше, если все твои накама умрут?»
Cубтитры:
  • Living FLCL - в редакции Witcher`a (.ass)

Качество: BDRip [kulanyee@HDChina] | Хардсаб: Нет | Формат: MKV
: H.264 | 1280x720 (16:9) | 23,976 fps | ~ 3100 Kbps
:
  • JP - AC3 | 6 ch | 48 KHz | ~ 640 Kbps
  • RU - MP3 | 2 ch | 48 KHz | ~ 192 kbps - [Persona99] - отдельно

Уникальный идентификатор : 203198469513097734080468102026194315766 (0x98DE9A099811E71F85E06772D4F3E9F6)
Полное имя : F:\One Piece Movie 01\6. Ван-Пис - Фильм шестой [One Piece - Baron Omatsuri and the Secret Island].mkv\Ван-Пис - Фильм шестой [One Piece - Baron Omatsuri and the Secret Island].mkv
Формат : Matroska
Версия формата : Version 2
Размер файла : 2,39 Гбайт
Продолжительность : 1 ч. 31 м.
Общий поток : 3739 Кбит/сек
Название фильма : Ван-Пис: Фильм шестой | One Piece: Baron Omatsuri and the Secret Island - Witcher
Дата кодирования : UTC 2011-11-22 13:14:37
Программа кодирования : mkvmerge v5.0.1 ('Es ist Sommer') built on Oct 9 2011 11:55:43
Библиотека кодирования : libebml v1.2.2 + libmatroska v1.3.0
Attachment : Yes / Yes / Yes / Yes / Yes / Yes / Yes

Видео
Идентификатор : 1
Формат : AVC
Формат/Информация : Advanced Video Codec
Профиль формата : High@L4.1
Параметр CABAC формата : Да
Параметр ReFrames формата : 9 кадров
Идентификатор кодека : V_MPEG4/ISO/AVC
Продолжительность : 1 ч. 31 м.
Битрейт : 3100 Кбит/сек
Ширина : 1280 пикселей
Высота : 720 пикселей
Соотношение сторон : 16:9
Частота кадров : 23,976 кадра/сек
Цветовое пространство : YUV
Субдискретизация насыщенности : 4:2:0
Битовая глубина : 8 бит
Тип развёртки : Прогрессивная
Бит/(Пиксели*Кадры) : 0.140
Размер потока : 1,93 Гбайт (81%)
Заголовок : Ван-Пис: Фильм шестой | One Piece: Baron Omatsuri and the Secret Island
Библиотека кодирования : x264 core 118 r2085 8a62835
Настройки программы : cabac=1 / ref=9 / deblock=1:-2:-2 / analyse=0x3:0x133 / me=umh / subme=10 / psy=1 / psy_rd=0.80:0.00 / mixed_ref=1 / me_range=48 / chroma_me=1 / trellis=2 / 8x8dct=1 / cqm=0 / deadzone=21,11 / fast_pskip=1 / chroma_qp_offset=-2 / threads=6 / sliced_threads=0 / nr=0 / decimate=0 / interlaced=0 / bluray_compat=0 / constrained_intra=0 / bframes=10 / b_pyramid=2 / b_adapt=2 / b_bias=0 / direct=3 / weightb=1 / open_gop=0 / weightp=2 / keyint=360 / keyint_min=3 / scenecut=40 / intra_refresh=0 / rc_lookahead=60 / rc=2pass / mbtree=1 / bitrate=3100 / ratetol=1.0 / qcomp=0.70 / qpmin=0 / qpmax=69 / qpstep=4 / cplxblur=20.0 / qblur=0.5 / vbv_maxrate=50000 / vbv_bufsize=40000 / nal_hrd=none / ip_ratio=1.40 / aq=2:1.30
Язык : Japanese

Аудио
Идентификатор : 2
Формат : AC-3
Формат/Информация : Audio Coding 3
Расширение режима : CM (complete main)
Идентификатор кодека : A_AC3
Продолжительность : 1 ч. 31 м.
Вид битрейта : Постоянный
Битрейт : 640 Кбит/сек
Каналы : 6 каналов
Расположение каналов : Front: L C R, Side: L R, LFE
Частота : 48,0 КГц
Битовая глубина : 16 бит
Метод сжатия : С потерями
Размер потока : 419 Мбайт (17%)
Язык : Japanese

Текст
Идентификатор : 3
Формат : ASS
Идентификатор кодека : S_TEXT/ASS
Идентификатор кодека/Информация : Advanced Sub Station Alpha
Метод сжатия : Без потерь
Заголовок : Living FLCL, Witcher
Язык : Russian

© Оформление by Witcher
info [Профиль]  [ЛС] 

marko

Стаж: 6 лет 2 месяца

Сообщений: 550

Рейтинг

post 22-Ноя-2011 19:11 (спустя 1 час 26 минут) [-]0[+]

[Цитировать] 

крутейшая полнометражка все остальные забылись где то там. а эта живет в памяти по сих пор .
концовка просто вынос мозга . по хорошему жутка история .
противно веселый голос персоны не так вредит сериалу . но вот этой части вредит конкретно . лучше конечно с титрами .

_________________
info [Профиль]  [ЛС] 

Witcher

Пол: Пол:Муж

Стаж: 7 лет 8 месяцев

Сообщений: 6195

Рейтинг

post 22-Ноя-2011 19:22 (спустя 10 минут) [-]0[+]

[Цитировать] 

marko
Да, смотреть рекомендуется только с сабами.

_________________
Темы не проверяю, для этого есть модераторы.
info [Профиль]  [ЛС] 
Показать сообщения:    
Ответить на тему

Текущее время: 11-Дек 10:15

Часовой пояс: GMT + 4



Вы не можете начинать темы
Вы не можете отвечать на сообщения
Вы не можете редактировать свои сообщения
Вы не можете удалять свои сообщения
Вы не можете голосовать в опросах
Вы не можете прикреплять файлы к сообщениям
Вы не можете скачивать файлы