Ошибка

Член Школьного совета OVA / Seitokai Yakuindomo - Kaette Kita Seitokai Yakuindomo [OVA] [1-5 из 6] [2011] [комедия, школа, пародия] [DVDRip] [720p] [Любительский(JAP+SUB)]

Ответить на тему
 
Автор Сообщение

Алмаз

Пол: Пол:Муж

Стаж: 6 лет 4 месяца

Сообщений: 1836

Россия
Рейтинг

post 22-Ноя-2011 13:34 1[+]

[Цитировать] 


Год выпуска: 2011-2013
Страна: Япония
Жанр: комедия, школа, пародия
Продолжительность: 4 эп. по 25 мин.
Перевод:
  • русские субтитры от YakuSub Studio

Озвучка:
  • двухголосная (муж./жен.) от OSLIKt & Nika Lenina (AniDUB)
    [1-4]

Режиссер: Канадзава Хиромицу
Студия: GoHands
Описание:
Даже благополучную Японию не миновал демографический кризис! В итоге правительство приняло новый курс, и вот частная академия Осай, женская школа со старинными традициями, переходит на совместное обучение. В первый год эксперимента соотношение парней и девушек едва достигло 1:18, что в полной мере почувствовал Такатоси Цуда, соблазнившийся тем, что новая школа совсем рядом с домом. По закону жанра, свежеизбранный президент школьного совета Сина Амакаса как раз решила ввести в состав представителя местного гендерного меньшинства. Цуда попался под руку – так все и случилось.
Теперь главный герой трудится на благо академии вместе с тремя другими членами совета – прямодушной, но слегка закомплексованной Синой, опасной шутницей Арией и вспыльчивой гением-коротышкой Судзу. Поняв, что новичок – парень не злой и спокойный, коллеги перестали стесняться и дали ему узнать, «о чем говорят женщины», к тому же имеющие о мужском поле весьма своеобразные представления. Только твердый характер и опыт жизни с младшей сестренкой позволяют бедняге Такатоси сохранить душевное здоровье среди будней школьного совета, когда с прелестных губок иногда срывается такое, что хоть стой, хоть падай. А еще жаль, что интерес трех девушек к главному герою чисто академический!
© Hollow, World Art

Информационные ссылки: AniDB || World Art || MAL
Качество: DVDRip
Энкод: Yousei-raws
Тип видео: без хардсаба
Формат: mkv
Видео: x264 (1эп) // x264 10bit (2-5), 1280x720, ~3100 Kbps, 23.976 fps
Аудио JAP: AC3, 48000Hz, 16 bits, 448 Kbps, 2ch
Аудио RUS: AAC, 48000Hz, 6 bits, 192 Kbps, 2ch
01. Seitokai Yakuindomo Returns
02. Big-Time Brother / Jidoukai Yakuindomo
03. Wanko / The Situation at Tsuda`s House / If You Have Straight Hair, it Feels Good When It Grazes Your Nipples, Right?
04. Important Things Before Flowers / The Seven Mysteries of Ousai / Design
05. Maid Class and Unexpected Feelings / High School Girl Home Tutor: Amakusa Shino / The Future Hole

Код:

General
Unique ID                                : 180599857949094379101910893196192540901 (0x87DE4476CAC9AC4188C36F3A32B468E5)
Complete name                            : M:\Аниме\Seitokai Yakuindomo OVA [DVD] [720p]\[Yousei-raws] Seitokai Yakuindomo OVA 1 [DVDrip 1280x720 x264 AC-3].mkv
Format                                   : Matroska
Format version                           : Version 2
File size                                : 649 MiB
Duration                                 : 25mn 31s
Overall bit rate                         : 3 552 Kbps
Encoded date                             : UTC 2011-04-24 13:05:46
Writing application                      : mkvmerge v4.7.0 ('Just Like You Imagined') сборка от Apr 21 2011 01:13:14
Writing library                          : libebml v1.2.0 + libmatroska v1.1.0

Video
ID                                       : 1
Format                                   : AVC
Format/Info                              : Advanced Video Codec
Format profile                           : High@L4.1
Format settings, CABAC                   : Yes
Format settings, ReFrames                : 9 frames
Muxing mode                              : Header stripping
Codec ID                                 : V_MPEG4/ISO/AVC
Duration                                 : 25mn 31s
Bit rate                                 : 3 104 Kbps
Width                                    : 1 280 pixels
Height                                   : 720 pixels
Display aspect ratio                     : 16:9
Frame rate mode                          : Constant
Frame rate                               : 23.976 fps
Color space                              : YUV
Chroma subsampling                       : 4:2:0
Bit depth                                : 8 bits
Scan type                                : Progressive
Bits/(Pixel*Frame)                       : 0.140
Stream size                              : 554 MiB (85%)
Writing library                          : x264 core 115 r1936 7a9e08d
Encoding settings                        : cabac=1 / ref=9 / deblock=1:-1:-1 / analyse=0x3:0x133 / me=umh / subme=9 / psy=1 / psy_rd=0.90:0.00 / mixed_ref=1 / me_range=24 / chroma_me=1 / trellis=2 / 8x8dct=1 / cqm=0 / deadzone=21,11 / fast_pskip=1 / chroma_qp_offset=-2 / threads=12 / sliced_threads=0 / nr=0 / decimate=0 / interlaced=0 / bluray_compat=0 / constrained_intra=0 / bframes=8 / b_pyramid=2 / b_adapt=2 / b_bias=0 / direct=3 / weightb=1 / open_gop=0 / weightp=2 / keyint=250 / keyint_min=23 / scenecut=40 / intra_refresh=0 / rc=2pass / mbtree=0 / bitrate=3104 / ratetol=1.0 / qcomp=0.70 / qpmin=7 / qpmax=26 / qpstep=4 / cplxblur=20.0 / qblur=0.5 / ip_ratio=1.40 / pb_ratio=1.30 / aq=1:0.90
Language                                 : Japanese
Default                                  : Yes
Forced                                   : No

Audio
ID                                       : 2
Format                                   : AC-3
Format/Info                              : Audio Coding 3
Mode extension                           : CM (complete main)
Format settings, Endianness              : Big
Muxing mode                              : Header stripping
Codec ID                                 : A_AC3
Duration                                 : 25mn 31s
Bit rate mode                            : Constant
Bit rate                                 : 448 Kbps
Channel count                            : 2 channels
Channel positions                        : Front: L R
Sampling rate                            : 48.0 KHz
Bit depth                                : 16 bits
Compression mode                         : Lossy
Stream size                              : 81.8 MiB (13%)
Language                                 : Japanese
Default                                  : Yes
Forced                                   : No

Код:

General
Unique ID                                : 239005963378291188349319517147200045689 (0xB3CEDFC9FB2967A78F0F62BF0E554279)
Complete name                            : M:\Аниме\Seitokai Yakuindomo OVA [DVD] [720p]\[Yousei-raws] Seitokai Yakuindomo OVA 2 [DVDrip 1280x720 x264 AC-3].mkv
Format                                   : Matroska
Format version                           : Version 2
File size                                : 606 MiB
Duration                                 : 27mn 1s
Overall bit rate                         : 3 136 Kbps
Encoded date                             : UTC 2011-11-18 15:28:01
Writing application                      : mkvmerge v5.0.1 ('Es ist Sommer') built on Oct  9 2011 11:55:43
Writing library                          : libebml v1.2.2 + libmatroska v1.3.0

Video
ID                                       : 1
Format                                   : AVC
Format/Info                              : Advanced Video Codec
Format profile                           : High 10@L4.1
Format settings, CABAC                   : Yes
Format settings, ReFrames                : 9 frames
Muxing mode                              : Header stripping
Codec ID                                 : V_MPEG4/ISO/AVC
Duration                                 : 27mn 1s
Bit rate                                 : 2 687 Kbps
Width                                    : 1 280 pixels
Height                                   : 720 pixels
Display aspect ratio                     : 16:9
Frame rate mode                          : Constant
Frame rate                               : 23.976 fps
Color space                              : YUV
Chroma subsampling                       : 4:2:0
Bit depth                                : 10 bits
Scan type                                : Progressive
Bits/(Pixel*Frame)                       : 0.122
Stream size                              : 507 MiB (84%)
Writing library                          : x264 core 119 r2106 07efeb4
Encoding settings                        : cabac=1 / ref=9 / deblock=1:-1:-1 / analyse=0x3:0x133 / me=umh / subme=9 / psy=1 / psy_rd=0.90:0.00 / mixed_ref=1 / me_range=24 / chroma_me=1 / trellis=2 / 8x8dct=1 / cqm=0 / deadzone=21,11 / fast_pskip=1 / chroma_qp_offset=-2 / threads=12 / sliced_threads=0 / nr=0 / decimate=0 / interlaced=0 / bluray_compat=0 / constrained_intra=0 / bframes=8 / b_pyramid=2 / b_adapt=2 / b_bias=0 / direct=3 / weightb=1 / open_gop=0 / weightp=2 / keyint=250 / keyint_min=23 / scenecut=40 / intra_refresh=0 / rc=2pass / mbtree=0 / bitrate=2687 / ratetol=1.0 / qcomp=0.70 / qpmin=16 / qpmax=56 / qpstep=4 / cplxblur=20.0 / qblur=0.5 / ip_ratio=1.40 / pb_ratio=1.30 / aq=1:0.90
Language                                 : Japanese
Default                                  : Yes
Forced                                   : No

Audio
ID                                       : 2
Format                                   : AC-3
Format/Info                              : Audio Coding 3
Mode extension                           : CM (complete main)
Format settings, Endianness              : Big
Muxing mode                              : Header stripping
Codec ID                                 : A_AC3
Duration                                 : 27mn 1s
Bit rate mode                            : Constant
Bit rate                                 : 448 Kbps
Channel count                            : 2 channels
Channel positions                        : Front: L R
Sampling rate                            : 48.0 KHz
Bit depth                                : 16 bits
Compression mode                         : Lossy
Stream size                              : 86.6 MiB (14%)
Language                                 : Japanese
Default                                  : Yes
Forced                                   : No

Цитата:

Итак, чтобы распутать клубок нумерации этих овашек, я создал мануал по расшифровке серий и порядку их просмотра. Сначала идёт порядковый номер для просмотра, потом дата выхода, ссылка на анидб и ячейку, где их искать, после идёт название саба, соответсвующее овашке. Напоминаю, что для полноценного просмотра нужны шрифты, которые можно скачать отсюда http://yadi.sk/d/hz2TLF0t75CaQ

#14 Kaette Kita Seitokai Yakuindomo
15.04.2011 http://anidb.net/a8204 http://www.fansubs.ru/base.php?id=3390
[Yousei-raws] Seitokai Yakuindomo OVA 1 [DVDrip 1280x720 x264 AC-3]

#15 Hanpanai Aniki / Jidoukai Yakuindomo
17.11.2011 http://anidb.net/a8204 http://www.fansubs.ru/base.php?id=3390
[Yousei-raws] Seitokai Yakuindomo OVA 2 [DVDrip 1280x720 x264 AC-3]

#16 Feeling Like the Azure Sky While the President is Blue / High Risk Feels Good / Uniform Badge / Ousai - Eiryou Interschool Exchange!
25.04.2012 http://anidb.net/a8996 http://www.fansubs.ru/base.php?id=3837
[OWA Raws] Seitokai Yakuindomo - OVA (BD 1280x720 h264 Vorbis Chap)(Hi10p)

#17 Wanko / Tsudake no Jijou / Straight Da to Ke ga Chikubi ni Kosurete Kimochi Ii Desu yo ne
17.07.2012 http://anidb.net/a8204 http://www.fansubs.ru/base.php?id=3390
[Yousei-raws] Seitokai Yakuindomo OVA 3 [DVDrip 1280x720 x264 AC-3]

#18 Important Things Before Flowers / The Seven Mysteries of Ousai / Design
15.02.2013 http://anidb.net/a8204 http://www.fansubs.ru/base.php?id=3390
[Yousei-raws] Seitokai Yakuindomo OVA 4 [DVDrip 1280x720 x264 AC-3]

#19 Promises Won`t Do / The School at Night / Brother Love Culture Festival
08.05.2013 http://anidb.net/a8996 http://www.fansubs.ru/base.php?id=3837
[ota] Seitokai Yakuindomo OVA - 06v2 (BD 720p AAC) [90BCBCD6]

#20 Hagimura Suzu no 1-nichi / Norimono Dangi / Yakimoki Choco
10.07.2013 http://anidb.net/a8996 http://www.fansubs.ru/base.php?id=3837
[Flax] Seitokai Yakuindomo OVA - 07 (BD 720p AAC) [F725BB91]

#21 Volume 5
17.10.2013 http://anidb.net/a8204 http://www.fansubs.ru/base.php?id=3390
[NanoAlchemist] Seitokai Yakuindomo - OVA 8 [DVDrip 1280x720 x264 FLAC]

#22 Volume 6
ожидается 16.05.2014 http://anidb.net/a8204
info [Профиль]  [ЛС] 

Ritsu

Пол: Пол:Муж

Стаж: 5 лет 5 месяцев

Сообщений: 856

Австралия
Рейтинг

post 22-Ноя-2011 19:22 (спустя 5 часов) [-]0[+]

[Цитировать] 

Смотреть вообще стоит?)

_________________
Флудите вместе с Рицу и будет вам счастье! ^__^

"...Зажжем рок в этой дыре!.."
info [Профиль]  [ЛС] 

Алмаз

Пол: Пол:Муж

Стаж: 6 лет 4 месяца

Сообщений: 1836

Россия
Рейтинг

post 22-Ноя-2011 19:28 (спустя 6 минут) [-]0[+]

[Цитировать] 

Ritsu писал(а):

Смотреть вообще стоит?)
Вообще без вариантов, обязательно смотреть!
И сериал тоже!

_________________
Паранойя - чрезвычайно утешительное состояние ума. Если вам кажется, что против вас что-то замышляют - значит вы что-то да стоите! (с) Гильбран Трус (Митчелл Сэнди - Игра предателя)
info [Профиль]  [ЛС] 

Алмаз

Пол: Пол:Муж

Стаж: 6 лет 4 месяца

Сообщений: 1836

Россия
Рейтинг

post 15-Дек-2011 17:06 (спустя 22 дня) [-]0[+]

[Цитировать] 

02.

p.s. Перезалил, обновил набор шрифтов. 1я серия переименована как
[Yousei-raws] Seitokai Yakuindomo OVA 1 [DVDrip 1280x720 x264 AC-3]

_________________
Паранойя - чрезвычайно утешительное состояние ума. Если вам кажется, что против вас что-то замышляют - значит вы что-то да стоите! (с) Гильбран Трус (Митчелл Сэнди - Игра предателя)
info [Профиль]  [ЛС] 

Ritsu

Пол: Пол:Муж

Стаж: 5 лет 5 месяцев

Сообщений: 856

Австралия
Рейтинг

post 15-Дек-2011 17:29 (спустя 23 минуты) [-]0[+]

[Цитировать] 

подожду всех серий, а то так не интересно жеж Улыбаюсь

_________________
Флудите вместе с Рицу и будет вам счастье! ^__^

"...Зажжем рок в этой дыре!.."
info [Профиль]  [ЛС] 

AngryArtego

Пол: Пол:Муж

Стаж: 7 лет 1 месяц

Сообщений: 361

Предупреждений: 1

Россия
Рейтинг

post 15-Дек-2011 17:54 (спустя 25 минут) [-]0[+]

[Цитировать] 

кто сказал, что серий будет 4?

_________________
Windows 7 SP1 x86, Epox EP-5P945-J, Pentium IV 3 GHz, 2 GB DDR2, Foxconn GeForce 9600 GT 512 MB, 120 GB + 1 TB + 1 TB
XBox 360 PAL Jasper, LT+ 3.0, Dashboard 2.0.14719, 16 GB USB Flash + Lite-On iHAS124B (iXtreme Burner Max)
info [Профиль]  [ЛС] 

Алмаз

Пол: Пол:Муж

Стаж: 6 лет 4 месяца

Сообщений: 1836

Россия
Рейтинг

post 15-Дек-2011 18:24 (спустя 29 минут) [-]0[+]

[Цитировать] 

AngryArtego
World Art и aniDB. MAL спорит, говоря, что будет 3.

Ritsu писал(а):

подожду всех серий, а то так не интересно жеж Улыбаюсь
Посмотришь тогда в следующем году, вряд ли раньше.

Цитата:

Aired: Apr 15, 2011 to Jul 17, 2012

_________________
Паранойя - чрезвычайно утешительное состояние ума. Если вам кажется, что против вас что-то замышляют - значит вы что-то да стоите! (с) Гильбран Трус (Митчелл Сэнди - Игра предателя)
info [Профиль]  [ЛС] 

Алмаз

Пол: Пол:Муж

Стаж: 6 лет 4 месяца

Сообщений: 1836

Россия
Рейтинг

post 26-Май-2013 19:39 (спустя 1 год 5 месяцев) [-]0[+]

[Цитировать] 

Обновление:
Добавил 3 и 4 эпизоды
Убрал старую озвучку на 1 эпизод, теперь тут озвучка от OSLIKt & Nika Lenina.
Сменились названия файлов! Придётся заново перекачивать всю раздачу.

_________________
Паранойя - чрезвычайно утешительное состояние ума. Если вам кажется, что против вас что-то замышляют - значит вы что-то да стоите! (с) Гильбран Трус (Митчелл Сэнди - Игра предателя)
info [Профиль]  [ЛС] 

polzovatel1

Стаж: 3 года 11 месяцев

Сообщений: 118

Предупреждений: 1

Рейтинг

post 26-Май-2013 21:33 (спустя 1 час 54 минуты) [-]-1[+]

[Цитировать] 

По первому слову названия и картинке подумал что это аниме "xxx..."
info [Профиль]  [ЛС] 

Алмаз

Пол: Пол:Муж

Стаж: 6 лет 4 месяца

Сообщений: 1836

Россия
Рейтинг

post 26-Май-2013 21:39 (спустя 5 минут) [-]0[+]

[Цитировать] 

polzovatel1 писал(а):

По первому слову названия
=_\\

Мне страшно представить тогда, что вы подумаете о фросте, поглядев оформление его раздач.

_________________
Паранойя - чрезвычайно утешительное состояние ума. Если вам кажется, что против вас что-то замышляют - значит вы что-то да стоите! (с) Гильбран Трус (Митчелл Сэнди - Игра предателя)
info [Профиль]  [ЛС] 

Алмаз

Пол: Пол:Муж

Стаж: 6 лет 4 месяца

Сообщений: 1836

Россия
Рейтинг

post 17-Фев-2014 02:32 (спустя 8 месяцев 21 день) [-]0[+]

[Цитировать] 

Обновление по 5 + озвучка на 4 эпизод.

_________________
Паранойя - чрезвычайно утешительное состояние ума. Если вам кажется, что против вас что-то замышляют - значит вы что-то да стоите! (с) Гильбран Трус (Митчелл Сэнди - Игра предателя)
info [Профиль]  [ЛС] 
Показать сообщения:    
Ответить на тему

Текущее время: 04-Дек 03:59

Часовой пояс: GMT + 4



Вы не можете начинать темы
Вы не можете отвечать на сообщения
Вы не можете редактировать свои сообщения
Вы не можете удалять свои сообщения
Вы не можете голосовать в опросах
Вы не можете прикреплять файлы к сообщениям
Вы не можете скачивать файлы