Ошибка

Ван-Пис: Фильм пятый / One Piece: The Curse of the Sacred Sword [Movie + OVA][2004][приключения, комедия, фэнтези, сёнэн][BDRip][720p][Любительский (JAP+SUB)]

Ответить на тему
 
Автор Сообщение

Witcher

Пол: Пол:Муж

Стаж: 7 лет 11 месяцев

Сообщений: 6219

Рейтинг

post 12-Ноя-2011 18:22 0[+]

[Цитировать] 

Ван-Пис: Фильм пятый | Большой Куш | Одним куском
One Piece: The Curse of the Sacred Sword | ONE PIECE ワンピース 珍獣島のチョッパー王国

pic="http://lostpic.net/images/444815a863ee79a0392df962492d84e9.jpg"
One Piece (яп. - ワンピース , русс. Ван-Пис, Одним Куском) - это известнейшая манга и не уступающее ей по популярности аниме. В основе сюжета лежит рассказ о пирате Монки Д. Луффи ("Резиновом" человеке, съевшем дьявольский фрукт), который отправился в плавание, чтобы стать Королем Пиратов и найти величайшее в мире сокровище - One Piece. Но этот путь не так легок. В дороге он встречает верных друзей, непримиримых врагов, и бесстрашно идет к новым, невероятным приключениям!

Год: 2004
Премьера: 06.03.2004
Страна:
Жанр: приключения, комедия, фэнтези, сёнэн
Тип: полнометражный фильм, 1:34:54
Озвучка: Любительская (одноголосая) [Persona99]
Субтитры: Присутствуют (внутренние) -
Источник: Witcher, HDChina
Режиссёр: Такэноти Кадзухиса
Снято по манге: Ван-Пис
Автор оригинала: Ода Эйитиро
Студия: Toei Animation

Описание:
  Сокровище "Меч Семи Звёзд" - вовсе и не сокровище, а проклятый меч, способный раз в сто лет во время прихода красной луны погрузить мир в хаос. Только обряд, проведённый с помощью волшебных сапфиров способен предотвратить этот кошмар... Время пришло - сапфиры украдены, но на острове команда Луффи, и кому же как не им спасать этот мир?..
Cубтитры:
  • Zaimon - в редакции Witcher`a (.ass)

Качество: BDRip [kulanyee@HDChina] | Хардсаб: Нет | Формат: MKV
: H.264 | 1280x720 (16:9) | 23,976 fps | ~ 3000 Kbps
:
  • JP - AC3 | 6 ch | 48 KHz | ~ 640 Kbps
  • RU - MP3 | 2 ch | 48 KHz | ~ 192 kbps - [Persona99] - отдельно

Ван-Пис: Пиратские короли бейсбола
One Piece: Take Aim! The Pirate Baseball King


Год: 2004
Премьера: 06.03.2004
Страна:
Жанр: приключения, комедия
Тип: OVA (1 эп.), 5:32
Озвучка: Любительская (одноголосая) [Persona99]
Субтитры: Присутствуют (внутренние) -
Источник: Witcher, HDChina
Режиссёр: Кайдзава Юкио
Снято по манге: Ван-Пис
Автор оригинала: Ода Эйитиро
Студия: Toei Animation

Описание:
  Бонусный эпизод, вышедший совместно с пятым полнометражным фильмом One Piece, в котором команда Соломенной Шляпы принимает участие в самом необычном бейсбольном матче, который только можно представить! Каков же будет результат встречи?
Cубтитры:
  • fedor - в редакции Witcher`a (.ass)

Качество: BDRip [kulanyee@HDChina] | Хардсаб: Нет | Формат: MKV
: H.264 | 1280x720 (16:9) | 23,976 fps | ~ 4300 Kbps
:
  • JP - AC3 | 2 ch | 48 KHz | ~ 384 Kbps
  • RU - MP3 | 2 ch | 48 KHz | ~ 128 kbps - [Persona99]

Уникальный идентификатор : 199055332419190848596832711582108674362 (0x95C0A99B8A54D597AD7D18E700C0E93A)
Полное имя : F:\One Piece Movie 01\5. Ван-Пис - Фильм пятый [One Piece - The Curse of the Sacred Sword]\Ван-Пис - Пиратские короли бейсбола [One Piece - Take Aim! The Pirate Baseball King].mkv
Формат : Matroska
Версия формата : Version 2
Размер файла : 191 Мбайт
Продолжительность : 5 м. 32 с.
Общий поток : 4814 Кбит/сек
Название фильма : Ван-Пис: Пиратские короли бейсбола | One Piece: Take Aim! The Pirate Baseball King - Witcher
Дата кодирования : UTC 2011-11-08 07:27:25
Программа кодирования : mkvmerge v5.0.1 ('Es ist Sommer') built on Oct 9 2011 11:55:43
Библиотека кодирования : libebml v1.2.2 + libmatroska v1.3.0
Attachment : Yes / Yes / Yes / Yes / Yes

Видео
Идентификатор : 1
Формат : AVC
Формат/Информация : Advanced Video Codec
Профиль формата : High@L4.1
Параметр CABAC формата : Да
Параметр ReFrames формата : 9 кадров
Идентификатор кодека : V_MPEG4/ISO/AVC
Продолжительность : 5 м. 32 с.
Битрейт : 4300 Кбит/сек
Ширина : 1280 пикселей
Высота : 720 пикселей
Соотношение сторон : 16:9
Частота кадров : 23,976 кадра/сек
Цветовое пространство : YUV
Субдискретизация насыщенности : 4:2:0
Битовая глубина : 8 бит
Тип развёртки : Прогрессивная
Бит/(Пиксели*Кадры) : 0.195
Размер потока : 166 Мбайт (87%)
Заголовок : Ван-Пис: Пиратские короли бейсбола | One Piece: Take Aim! The Pirate Baseball King
Библиотека кодирования : x264 core 118 r2085 8a62835
Настройки программы : cabac=1 / ref=9 / deblock=1:-2:-2 / analyse=0x3:0x133 / me=umh / subme=10 / psy=1 / psy_rd=0.80:0.00 / mixed_ref=1 / me_range=48 / chroma_me=1 / trellis=2 / 8x8dct=1 / cqm=0 / deadzone=21,11 / fast_pskip=1 / chroma_qp_offset=-2 / threads=6 / sliced_threads=0 / nr=0 / decimate=0 / interlaced=0 / bluray_compat=0 / constrained_intra=0 / bframes=10 / b_pyramid=2 / b_adapt=2 / b_bias=0 / direct=3 / weightb=1 / open_gop=0 / weightp=2 / keyint=360 / keyint_min=3 / scenecut=40 / intra_refresh=0 / rc_lookahead=60 / rc=2pass / mbtree=1 / bitrate=4300 / ratetol=1.0 / qcomp=0.70 / qpmin=0 / qpmax=69 / qpstep=4 / cplxblur=20.0 / qblur=0.5 / vbv_maxrate=50000 / vbv_bufsize=40000 / nal_hrd=none / ip_ratio=1.40 / aq=2:1.30
Язык : Japanese

Аудио #1
Идентификатор : 2
Формат : AC-3
Формат/Информация : Audio Coding 3
Расширение режима : CM (complete main)
Идентификатор кодека : A_AC3
Продолжительность : 5 м. 32 с.
Вид битрейта : Постоянный
Битрейт : 384 Кбит/сек
Каналы : 2 канала
Расположение каналов : Front: L R
Частота : 48,0 КГц
Битовая глубина : 16 бит
Метод сжатия : С потерями
Размер потока : 15,2 Мбайт (8%)
Язык : Japanese

Аудио #2
Идентификатор : 3
Формат : MPEG Audio
Версия формата : Version 1
Профиль формата : Layer 3
Режим : Joint stereo
Расширение режима : MS Stereo
Идентификатор кодека : A_MPEG/L3
Идентификатор кодека/Подсказка : MP3
Продолжительность : 5 м. 32 с.
Вид битрейта : Постоянный
Битрейт : 128 Кбит/сек
Каналы : 2 канала
Частота : 48,0 КГц
Метод сжатия : С потерями
Размер потока : 5,07 Мбайт (3%)
Заголовок : Persona99
Язык : Russian

Текст
Идентификатор : 4
Формат : ASS
Идентификатор кодека : S_TEXT/ASS
Идентификатор кодека/Информация : Advanced Sub Station Alpha
Метод сжатия : Без потерь
Заголовок : fedor, Witcher
Язык : Russian

Уникальный идентификатор : 183814412163807202916693066197068438916 (0x8A495E3927C4BE4A9385D8169D285D84)
Полное имя : F:\One Piece Movie 01\5. Ван-Пис - Фильм пятый [One Piece - The Curse of the Sacred Sword]\Ван-Пис - Фильм пятый [One Piece - The Curse of the Sacred Sword].mkv
Формат : Matroska
Версия формата : Version 2
Размер файла : 2,42 Гбайт
Продолжительность : 1 ч. 34 м.
Общий поток : 3643 Кбит/сек
Название фильма : Ван-Пис: Фильм пятый | One Piece: The Curse of the Sacred Sword - Witcher
Дата кодирования : UTC 2011-11-09 21:50:50
Программа кодирования : mkvmerge v5.0.1 ('Es ist Sommer') built on Oct 9 2011 11:55:43
Библиотека кодирования : libebml v1.2.2 + libmatroska v1.3.0
Attachment : Yes / Yes / Yes / Yes / Yes / Yes / Yes / Yes / Yes / Yes / Yes / Yes / Yes / Yes / Yes / Yes / Yes / Yes / Yes / Yes / Yes

Видео
Идентификатор : 1
Формат : AVC
Формат/Информация : Advanced Video Codec
Профиль формата : High@L4.1
Параметр CABAC формата : Да
Параметр ReFrames формата : 9 кадров
Идентификатор кодека : V_MPEG4/ISO/AVC
Продолжительность : 1 ч. 34 м.
Битрейт : 3000 Кбит/сек
Ширина : 1280 пикселей
Высота : 720 пикселей
Соотношение сторон : 16:9
Частота кадров : 23,976 кадра/сек
Цветовое пространство : YUV
Субдискретизация насыщенности : 4:2:0
Битовая глубина : 8 бит
Тип развёртки : Прогрессивная
Бит/(Пиксели*Кадры) : 0.136
Размер потока : 1,94 Гбайт (80%)
Заголовок : Ван-Пис: Фильм пятый | One Piece: The Curse of the Sacred Sword
Библиотека кодирования : x264 core 118 r2085 8a62835
Настройки программы : cabac=1 / ref=9 / deblock=1:-2:-2 / analyse=0x3:0x133 / me=umh / subme=10 / psy=1 / psy_rd=0.80:0.00 / mixed_ref=1 / me_range=48 / chroma_me=1 / trellis=2 / 8x8dct=1 / cqm=0 / deadzone=21,11 / fast_pskip=1 / chroma_qp_offset=-2 / threads=6 / sliced_threads=0 / nr=0 / decimate=0 / interlaced=0 / bluray_compat=0 / constrained_intra=0 / bframes=10 / b_pyramid=2 / b_adapt=2 / b_bias=0 / direct=3 / weightb=1 / open_gop=0 / weightp=2 / keyint=360 / keyint_min=3 / scenecut=40 / intra_refresh=0 / rc_lookahead=60 / rc=2pass / mbtree=1 / bitrate=3000 / ratetol=1.0 / qcomp=0.70 / qpmin=0 / qpmax=69 / qpstep=4 / cplxblur=20.0 / qblur=0.5 / vbv_maxrate=50000 / vbv_bufsize=40000 / nal_hrd=none / ip_ratio=1.40 / aq=2:1.30
Язык : Japanese

Аудио
Идентификатор : 2
Формат : AC-3
Формат/Информация : Audio Coding 3
Расширение режима : CM (complete main)
Идентификатор кодека : A_AC3
Продолжительность : 1 ч. 34 м.
Вид битрейта : Постоянный
Битрейт : 640 Кбит/сек
Каналы : 6 каналов
Расположение каналов : Front: L C R, Side: L R, LFE
Частота : 48,0 КГц
Битовая глубина : 16 бит
Метод сжатия : С потерями
Размер потока : 434 Мбайт (18%)
Язык : Japanese

Текст
Идентификатор : 3
Формат : ASS
Идентификатор кодека : S_TEXT/ASS
Идентификатор кодека/Информация : Advanced Sub Station Alpha
Метод сжатия : Без потерь
Заголовок : Zaimon, Witcher
Язык : Russian

© Оформление by Witcher
info [Профиль]  [ЛС] 

Fable1547

Пол: Пол:Муж

Стаж: 7 лет 6 месяцев

Сообщений: 2417

Россия
Рейтинг

post 12-Ноя-2011 20:49 (спустя 2 часа 26 минут) [-]0[+]

[Цитировать] 

Благодарю)
Да, не слышал о полнометражке чудотворная сакура Ксэки но сакура
В конец каких то серий о ней говорилось но на национальном её чёто не нашол...

_________________
Биг сэнькс Кнут Гаммусон за спасение от ужасной трагедии путём одарения винтом!!!
info [Профиль]  [ЛС] 
Показать сообщения:    
Ответить на тему

Текущее время: 25-Мар 06:05

Часовой пояс: GMT + 4



Вы не можете начинать темы
Вы не можете отвечать на сообщения
Вы не можете редактировать свои сообщения
Вы не можете удалять свои сообщения
Вы не можете голосовать в опросах
Вы не можете прикреплять файлы к сообщениям
Вы не можете скачивать файлы