Ошибка

Ван-Пис: Фильм четвёртый / One Piece: Dead End [Movie][2003][приключения, комедия, фэнтези, сёнэн][BDRip][720p][Любительский (JAP+SUB)]

Ответить на тему
 
Автор Сообщение

Witcher

Пол: Пол:Муж

Стаж: 7 лет 8 месяцев

Сообщений: 6196

Рейтинг

post 08-Ноя-2011 19:21 1[+]

[Цитировать] 

Ван-Пис: Фильм четвёртый | Большой Куш | Одним куском
One Piece: Dead End | One Piece: Dead End no Bouken

pic="http://lostpic.net/images/a3de533ff2d3d4a5b668947d84f492ae.jpg"
One Piece (яп. - ワンピース , русс. Ван-Пис, Одним Куском) - это известнейшая манга и не уступающее ей по популярности аниме. В основе сюжета лежит рассказ о пирате Монки Д. Луффи ("Резиновом" человеке, съевшем дьявольский фрукт), который отправился в плавание, чтобы стать Королем Пиратов и найти величайшее в мире сокровище - One Piece. Но этот путь не так легок. В дороге он встречает верных друзей, непримиримых врагов, и бесстрашно идет к новым, невероятным приключениям!

Год: 2003
Премьера: 01.03.2003
Страна:
Жанр: приключения, комедия, фэнтези, сёнэн
Тип: короткометражный фильм, 1:35:00
Озвучка: Любительская (одноголосая) [Persona99]
Субтитры: Присутствуют (внутренние) -
Источник: Witcher, HDChina
Режиссёр: Уда Коносукэ
Снято по манге: Ван-Пис
Автор оригинала: Ода Эйитиро
Студия: Toei Animation

Описание:
  Прибыв на очередной остров, команда Луффи, желая заработать побыстрее и побольше, принимает участие в незаконной пиратской регате. Единственное правило - победить любой ценой, уничтожение конкурентов - приветствуется. Но на деле всё оказывается ещё хуже...

  Действие фильма происходит после событий 130-го эпизода оигинального сериала.

Cубтитры:
  • pandora28 - в редакции Witcher`a (.ass)

Качество: BDRip [kulanyee@HDChina] | Хардсаб: Нет | Формат: MKV
: H.264 | 1280x708 (16:9) | 23,976 fps | ~ 3800 Kbps
:
  • JP - AC3 | 6 ch | 48 KHz | ~ 640 Kbps
  • RU - MP3 | 2 ch | 48 KHz | ~ 160 kbps - [Persona99] - отдельно

Уникальный идентификатор : 184054443576306848477007340960977183309 (0x8A7798AF834C2B299DAAD9CE34AEE24D)
Полное имя : F:\One Piece Movie 01\4. Ван-Пис - Фильм четвёртый [One Piece - Dead End]\Ван-Пис - Фильм четвёртый [One Piece - Dead End].mkv
Формат : Matroska
Версия формата : Version 2
Размер файла : 2,95 Гбайт
Продолжительность : 1 ч. 35 м.
Общий поток : 4442 Кбит/сек
Название фильма : Ван-Пис: Фильм четвёртый | One Piece: Dead End - Witcher
Дата кодирования : UTC 2011-11-08 05:14:05
Программа кодирования : mkvmerge v5.0.1 ('Es ist Sommer') built on Oct 9 2011 11:55:43
Библиотека кодирования : libebml v1.2.2 + libmatroska v1.3.0
Attachment : Yes / Yes / Yes / Yes

Видео
Идентификатор : 1
Формат : AVC
Формат/Информация : Advanced Video Codec
Профиль формата : High@L4.1
Параметр CABAC формата : Да
Параметр ReFrames формата : 9 кадров
Идентификатор кодека : V_MPEG4/ISO/AVC
Продолжительность : 1 ч. 35 м.
Битрейт : 3800 Кбит/сек
Ширина : 1280 пикселей
Высота : 708 пикселей
Соотношение сторон : 16:9
Частота кадров : 23,976 кадра/сек
Цветовое пространство : YUV
Субдискретизация насыщенности : 4:2:0
Битовая глубина : 8 бит
Тип развёртки : Прогрессивная
Бит/(Пиксели*Кадры) : 0.175
Размер потока : 2,46 Гбайт (84%)
Заголовок : Ван-Пис: Фильм четвёртый | One Piece: Dead End
Библиотека кодирования : x264 core 118 r2085 8a62835
Настройки программы : cabac=1 / ref=9 / deblock=1:-2:-2 / analyse=0x3:0x133 / me=umh / subme=10 / psy=1 / psy_rd=0.80:0.00 / mixed_ref=1 / me_range=48 / chroma_me=1 / trellis=2 / 8x8dct=1 / cqm=0 / deadzone=21,11 / fast_pskip=1 / chroma_qp_offset=-2 / threads=6 / sliced_threads=0 / nr=0 / decimate=0 / interlaced=0 / bluray_compat=0 / constrained_intra=0 / bframes=8 / b_pyramid=2 / b_adapt=2 / b_bias=0 / direct=3 / weightb=1 / open_gop=0 / weightp=2 / keyint=360 / keyint_min=3 / scenecut=40 / intra_refresh=0 / rc_lookahead=60 / rc=2pass / mbtree=1 / bitrate=3800 / ratetol=1.0 / qcomp=0.70 / qpmin=0 / qpmax=69 / qpstep=4 / cplxblur=20.0 / qblur=0.5 / vbv_maxrate=50000 / vbv_bufsize=40000 / nal_hrd=none / ip_ratio=1.40 / aq=2:1.00
Язык : Japanese

Аудио
Идентификатор : 2
Формат : AC-3
Формат/Информация : Audio Coding 3
Расширение режима : CM (complete main)
Идентификатор кодека : A_AC3
Продолжительность : 1 ч. 35 м.
Вид битрейта : Постоянный
Битрейт : 640 Кбит/сек
Каналы : 6 каналов
Расположение каналов : Front: L C R, Side: L R, LFE
Частота : 48,0 КГц
Битовая глубина : 16 бит
Метод сжатия : С потерями
Размер потока : 435 Мбайт (14%)
Язык : Japanese

Текст
Идентификатор : 3
Формат : ASS
Идентификатор кодека : S_TEXT/ASS
Идентификатор кодека/Информация : Advanced Sub Station Alpha
Метод сжатия : Без потерь
Заголовок : pandora28, Witcher
Язык : Russian

© Оформление by Witcher
info [Профиль]  [ЛС] 
Показать сообщения:    
Ответить на тему

Текущее время: 09-Дек 17:35

Часовой пояс: GMT + 4



Вы не можете начинать темы
Вы не можете отвечать на сообщения
Вы не можете редактировать свои сообщения
Вы не можете удалять свои сообщения
Вы не можете голосовать в опросах
Вы не можете прикреплять файлы к сообщениям
Вы не можете скачивать файлы