Ошибка

Ариэтти из страны лилипутов / The Borrower Arrietty [Movie][2011][приключения, сказка][BDRip][720p][Дублированный(JAP+SUB)]

Ответить на тему
 
Автор Сообщение

Witcher

Пол: Пол:Муж

Стаж: 7 лет 8 месяцев

Сообщений: 6196

Рейтинг

post 29-Окт-2011 19:51 1[+]

[Цитировать] 

pic="http://lostpic.net/images/6633a9fa3d1b504f6c34c74113cf1b29.jpg"
Ариэтти из страны лилипутов
The Borrower Arrietty | Karigurashi no Arrietty

Год: 2011
Премьера: 17.07.2010
Страна:
Жанр: приключения, сказка
Тип: полнометражный фильм, 1:34:08
Озвучка:
  • Любительская (двухголосая) [Trina_d & sad_kit]
  • Профессиональная (двухголосая) [BBC Saint-Petersburg]
  • Профессиональная (полное дублирование) [Велес]
Субтитры: Присутствуют (внутренние) -
Источник: Witcher, HDClub
Режиссёр: Ёнэбаяси Хиромаса
Автор оригинала: Мэри Нортон
Студия: Studio Ghibli
|
Описание:
  История маленьких людей, которые живут рядом с нами, одалживая вещи по чуть-чуть. Их существование хранится в секрете. Но юная Ариэти нарушает запрет. Ее обнаруживает 12 летний Шо, и они становятся лучшими друзьями.
Cубтитры:
  • Велес (.srt)
  • Advantage (.ass)
  • TF-AniGroup (.ass)
  • Gabriel Hounds (.ass)
  • Dreamers Team (.ass)

Качество: BDRip [THORAnime] | Хардсаб: Нет | Формат: MKV
: H.264 | 1280x692 (1.78:1) | 23,976 fps | ~ 3116 Kbps
:
  • JP - DTS | 6 ch | 48 KHz | 1510 Kbps
  • RU - AAC | 2 ch | 48 KHz | ~ 192 kbps - [Trina_d & sad_kit] - отдельно
  • RU - DTS | 6 ch | 48 KHz | 1510 kbps - [BBC Saint-Petersburg] - отдельно
  • RU - DTS | 6 ch | 48 KHz | 1510 kbps - [Велес]

Уникальный идентификатор : 243898079524903465346661647378090313167 (0xB77D0FBCBB1CB49DB8944F6E0E6C45CF)
Полное имя : F:\- Video -\- Anime -\Ариэти из страны лилипутов [The Borrower Arrietty]\Ариэти из страны лилипутов [The Borrower Arrietty].mkv
Формат : Matroska
Версия формата : Version 2
Размер файла : 4,10 Гбайт
Продолжительность : 1 ч. 34 м.
Общий поток : 6233 Кбит/сек
Название фильма : Ариэти из страны лилипутов | The Borrower Arrietty - Witcher
Дата кодирования : UTC 2011-10-29 15:20:51
Программа кодирования : mkvmerge v5.0.1 ('Es ist Sommer') built on Oct 9 2011 11:55:43
Библиотека кодирования : libebml v1.2.2 + libmatroska v1.3.0
Attachment : Yes / Yes / Yes / Yes / Yes / Yes / Yes / Yes

Видео
Идентификатор : 1
Формат : AVC
Формат/Информация : Advanced Video Codec
Профиль формата : High@L4.1
Параметр CABAC формата : Да
Параметр ReFrames формата : 8 кадров
Идентификатор кодека : V_MPEG4/ISO/AVC
Продолжительность : 1 ч. 34 м.
Битрейт : 3090 Кбит/сек
Ширина : 1280 пикселей
Высота : 692 пикселя
Соотношение сторон : 1,850
Частота кадров : 23,976 кадра/сек
Цветовое пространство : YUV
Субдискретизация насыщенности : 4:2:0
Битовая глубина : 8 бит
Тип развёртки : Прогрессивная
Бит/(Пиксели*Кадры) : 0.145
Размер потока : 2,03 Гбайт (50%)
Заголовок : Ариэти из страны лилипутов | The Borrower Arrietty
Библиотека кодирования : x264 core 115 r2008 4c552d8
Настройки программы : cabac=1 / ref=9 / deblock=1:-3:-2 / analyse=0x3:0x133 / me=umh / subme=10 / psy=1 / psy_rd=0.52:0.20 / mixed_ref=1 / me_range=24 / chroma_me=1 / trellis=2 / 8x8dct=1 / cqm=0 / deadzone=21,11 / fast_pskip=0 / chroma_qp_offset=-3 / threads=6 / sliced_threads=0 / nr=0 / decimate=0 / interlaced=0 / bluray_compat=0 / constrained_intra=0 / bframes=7 / b_pyramid=1 / b_adapt=2 / b_bias=0 / direct=3 / weightb=1 / open_gop=0 / weightp=2 / keyint=240 / keyint_min=24 / scenecut=40 / intra_refresh=0 / rc_lookahead=200 / rc=crf / mbtree=1 / crf=16.5 / qcomp=0.72 / qpmin=0 / qpmax=69 / qpstep=4 / ip_ratio=1.40 / aq=1:1.40
Язык : Japanese
Основные цвета : BT.709-5, BT.1361, IEC 61966-2-4, SMPTE RP177
Характеристики трансфера : BT.709-5, BT.1361
Коэффициенты матрицы : BT.709-5, BT.1361, IEC 61966-2-4 709, SMPTE RP177

Аудио #1
Идентификатор : 2
Формат : DTS
Формат/Информация : Digital Theater Systems
Идентификатор кодека : A_DTS
Продолжительность : 1 ч. 34 м.
Вид битрейта : Постоянный
Битрейт : 1510 Кбит/сек
Каналы : 6 каналов
Расположение каналов : Front: L C R, Side: L R, LFE
Частота : 48,0 КГц
Битовая глубина : 24 бит
Метод сжатия : С потерями
Задержка видео : 25 мс.
Размер потока : 1017 Мбайт (24%)
Язык : Japanese

Аудио #2
Идентификатор : 3
Формат : DTS
Формат/Информация : Digital Theater Systems
Идентификатор кодека : A_DTS
Продолжительность : 1 ч. 34 м.
Вид битрейта : Постоянный
Битрейт : 1510 Кбит/сек
Каналы : 6 каналов
Расположение каналов : Front: L C R, Side: L R, LFE
Частота : 48,0 КГц
Битовая глубина : 24 бит
Метод сжатия : С потерями
Размер потока : 1017 Мбайт (24%)
Заголовок : Велес
Язык : Russian

Текст #1
Идентификатор : 4
Формат : ASS
Идентификатор кодека : S_TEXT/ASS
Идентификатор кодека/Информация : Advanced Sub Station Alpha
Метод сжатия : Без потерь
Язык : English

Текст #2
Идентификатор : 5
Формат : UTF-8
Идентификатор кодека : S_TEXT/UTF8
Идентификатор кодека/Информация : UTF-8 Plain Text
Заголовок : Велес
Язык : Russian

Текст #3
Идентификатор : 6
Формат : ASS
Идентификатор кодека : S_TEXT/ASS
Идентификатор кодека/Информация : Advanced Sub Station Alpha
Метод сжатия : Без потерь
Заголовок : Advantage
Язык : Russian

Текст #4
Идентификатор : 7
Формат : ASS
Идентификатор кодека : S_TEXT/ASS
Идентификатор кодека/Информация : Advanced Sub Station Alpha
Метод сжатия : Без потерь
Заголовок : TF-AniGroup
Язык : Russian

Текст #5
Идентификатор : 8
Формат : ASS
Идентификатор кодека : S_TEXT/ASS
Идентификатор кодека/Информация : Advanced Sub Station Alpha
Метод сжатия : Без потерь
Заголовок : Gabriel Hounds
Язык : Russian

Текст #6
Идентификатор : 9
Формат : ASS
Идентификатор кодека : S_TEXT/ASS
Идентификатор кодека/Информация : Advanced Sub Station Alpha
Метод сжатия : Без потерь
Заголовок : Dreamers Team
Язык : Russian

Меню
00:00:00.000 : en:Chapter 1
00:09:24.981 : en:Chapter 2
00:17:45.481 : en:Chapter 3
00:25:06.880 : en:Chapter 4
00:34:15.095 : en:Chapter 5
00:41:19.852 : en:Chapter 6
00:46:31.622 : en:Chapter 7
00:52:47.456 : en:Chapter 8
01:02:35.377 : en:Chapter 9
01:08:48.249 : en:Chapter 10
01:17:15.005 : en:Chapter 11
01:24:14.132 : en:Chapter 12
01:34:06.641 : en:Chapter 13

© Оформление by Witcher
info [Профиль]  [ЛС] 

Witcher

Пол: Пол:Муж

Стаж: 7 лет 8 месяцев

Сообщений: 6196

Рейтинг

post 29-Окт-2011 19:51 (спустя 40 секунд) [-]2[+]

[Цитировать] 

anime_9
Сербина добавлять не стал, не перевариваю его.

_________________
Темы не проверяю, для этого есть модераторы.
info [Профиль]  [ЛС] 

Dart128

Пол: Пол:Муж

Стаж: 7 лет 8 месяцев

Сообщений: 2117

Рейтинг

post 29-Окт-2011 20:50 (спустя 59 минут) [-]1[+]

[Цитировать] 

Класс, обязательно посмотрю, т.к. в кинотеатр сходить не получилось.

_________________
Перед тем как что-то сделать, подумайте, а не противоречит ли это правилам!
info [Профиль]  [ЛС] 

DimanLo

Пол: Пол:Муж

Стаж: 6 лет 10 месяцев

Сообщений: 125

Испания
Рейтинг

post 30-Окт-2011 05:46 (спустя 8 часов) [-]-1[+]

[Цитировать] 

Интересно саундтрек делался совместно с Joe Hisaishi?

_________________
info [Профиль]  [ЛС] 

Кнут Гамуссон

Пол: Пол:Муж

Стаж: 7 лет 4 месяца

Сообщений: 1255

Предупреждений: 1

СССР
Рейтинг

post 31-Окт-2011 21:21 (спустя 1 день 15 часов) [-]1[+]

[Цитировать] 

Просмотрели всей семьей. Впечатления двойственные. С одной стороны отличный звук, интересная завязка. С другой стороны недосказанность истории - дочка все время спрашивала: "и что дальше?"
Создалось впечатление, что Мастер устал от сказок. Волшебство уплыло в чайнике по водостоку... Что очень печально.
info [Профиль]  [ЛС] 

Witcher

Пол: Пол:Муж

Стаж: 7 лет 8 месяцев

Сообщений: 6196

Рейтинг

post 31-Окт-2011 21:29 (спустя 8 минут) [-]2[+]

[Цитировать] 

Кнут Гамуссон писал(а):

Просмотрели всей семьей. Впечатления двойственные. С одной стороны отличный звук, интересная завязка. С другой стороны недосказанность истории - дочка все время спрашивала: "и что дальше?"
Создалось впечатление, что Мастер устал от сказок. Волшебство уплыло в чайнике по водостоку... Что очень печально.
Это точно, в конце сам себя поймал на мысли: "И это всё что ли ?" Думал кончится как-то по иному.

_________________
Темы не проверяю, для этого есть модераторы.
info [Профиль]  [ЛС] 

Andras

Пол: Пол:Муж

Стаж: 6 лет 1 месяц

Сообщений: 460

Украина
Рейтинг

post 17-Ноя-2011 12:16 (спустя 16 дней) [-]0[+]

[Цитировать] 

Спасибо всем рекомендую приятного просмотра!

_________________
info [Профиль]  [ЛС] 
Показать сообщения:    
Ответить на тему

Текущее время: 03-Дек 15:44

Часовой пояс: GMT + 4



Вы не можете начинать темы
Вы не можете отвечать на сообщения
Вы не можете редактировать свои сообщения
Вы не можете удалять свои сообщения
Вы не можете голосовать в опросах
Вы не можете прикреплять файлы к сообщениям
Вы не можете скачивать файлы