Ошибка

До окончания фрилича осталось:


Жена в осаде / Ran->Sem: Hakudaku Delmo Tsuma no Miira Tori / Mummy caught his wife Ran → Sem ~ ~ milky Delmo [ep.1-2 of 2] [2011] [Group, Straight, Oral, rape, virgin] [DVDRip] [Отсуствует(JAP+SUB)] [cen]

Ответить на тему
 
Автор Сообщение

Terrorist495

Пол: Пол:Муж

Стаж: 7 лет 3 месяца

Сообщений: 65

Россия
Рейтинг

post 24-Окт-2011 14:33 0[+]

[Цитировать] 

Ran→Sem~白濁デルモ妻のミイラ捕り~ 一ノ瀬莉子 自己解放編
Mummy caught his wife Ran → Sem ~ ~ milky Delmo
Ran->Sem: Hakudaku Delmo Tsuma no Miira Tori
/ Жена в осаде


Год производства: 2011 г. (27-05-2011, 24-06-2011)
Жанр: Group, Straight, Oral, rape, virgin
Серии: ep. 1-2 of 2
Продолжительность: 30min
Цензура: Есть во всех файлах

Язык: Японский
Озвучка: Оригинальная
Язык: Английский
Субтитры: Встроенные отключаемые и Внешние ASS|SSA [SubDESU-H]
Студия: Guilty, Suzuki Mirano

Описание: История секс-клуба

Качество видео: DVDRip
Формат видео: MKV
Видео кодек: h264
Аудио кодек: Vorbis, AAC
Видео Ep.1: MPEG4 Video (H264) 704x396 23.98fps 1528Kbps
Видео Ep.2: MPEG4 Video (H264) 704x396 975 Kbps
Аудио ep.1: Vorbis 48000Hz stereo 192Kbps
Аудио ep.2: AAC 48000Hz stereo 158 Kbps


Видео
Идентификатор : 1
Формат : AVC
Формат/Информация : Advanced Video Codec
Профиль формата : High@L4.1
Параметр CABAC формата : Да
Параметр ReFrames формата : 16 кадров
Идентификатор кодека : V_MPEG4/ISO/AVC
Продолжительность : 29 м.
Битрейт : 1528 Кбит/сек
Ширина : 704 пикселя
Высота : 396 пикселей
Соотношение сторон : 16:9
Частота кадров : 23,976 кадра/сек
Цветовое пространство : YUV
Субдискретизация насыщенности : 4:2:0
Битовая глубина : 8 бит
Тип развёртки : Прогрессивная
Бит/(Пиксели*Кадры) : 0.229
Размер потока : 326 Мбайт (87%)
Заголовок : Ran-Sem 01
Библиотека кодирования : x264 core 114 r1924 08d04a4
Настройки программы : >_< / AcDie
Язык : Japanese

Аудио
Идентификатор : 2
Формат : Vorbis
Параметр Floor формата : 1
Идентификатор кодека : A_VORBIS
Продолжительность : 29 м.
Вид битрейта : Переменный
Битрейт : 192 Кбит/сек
Каналы : 2 канала
Частота : 48,0 КГц
Метод сжатия : С потерями
Размер потока : 40,9 Мбайт (11%)
Заголовок : Original
Библиотека кодирования : libVorbis (Schaufenugget) (20101101 (Schaufenugget))
Язык : Japanese
Видео
Идентификатор : 1
Формат : AVC
Формат/Информация : Advanced Video Codec
Профиль формата : High@L3.0
Параметр CABAC формата : Да
Параметр ReFrames формата : 6 кадров
Идентификатор кодека : V_MPEG4/ISO/AVC
Продолжительность : 29 м.
Ширина : 704 пикселя
Высота : 396 пикселей
Соотношение сторон : 16:9
Частота кадров : 23,976 кадра/сек
Частота кадров в оригинале : 29,970 кадров/сек
Цветовое пространство : YUV
Субдискретизация насыщенности : 4:2:0
Битовая глубина : 8 бит
Тип развёртки : Прогрессивная
Основные цвета : BT.601-6 525, BT.1358 525, BT.1700 NTSC, SMPTE 170M
Характеристики трансфера : BT.709-5, BT.1361
Коэффициенты матрицы : BT.601-6 525, BT.1358 525, BT.1700 NTSC, SMPTE 170M

Аудио
Идентификатор : 2
Формат : AAC
Формат/Информация : Advanced Audio Codec
Профиль формата : LC
Идентификатор кодека : A_AAC
Продолжительность : 29 м.
Каналы : 2 канала
Расположение каналов : Front: L R
Частота : 48,0 КГц
Метод сжатия : С потерями
Язык : Japanese
Приятного просмотра с английскими субтитрами
info [Профиль]  [ЛС] 
Показать сообщения:    
Ответить на тему

Текущее время: 10-Дек 09:08

Часовой пояс: GMT + 4



Вы не можете начинать темы
Вы не можете отвечать на сообщения
Вы не можете редактировать свои сообщения
Вы не можете удалять свои сообщения
Вы не можете голосовать в опросах
Вы не можете прикреплять файлы к сообщениям
Вы не можете скачивать файлы