Ошибка

Кунг-фу Панда 2 / Kung Fu Panda 2 (Дженнифер Ю) [2011 г., мультфильм, боевик, комедия, приключения, семейный, Blu-ray Rip]

Ответить на тему
 
Автор Сообщение

4liver

Пол: Пол:Муж

Стаж: 7 лет 5 месяцев

Сообщений: 1778

Рейтинг

post 18-Окт-2011 02:18 4[+]

[Цитировать] 


Год выпуска: 2011
Страна: США / DreamWorks Animation
Жанр: мультфильм, боевик, комедия, приключения, семейный
Продолжительность: 01:30:24
Перевод: Профессиональный (полное дублирование) [Лицензия]
Язык субтитров: Русские, Английские - [Внешние]
Режиссер:
  • Дженнифер Ю

Роли дублировали:
  • Михаил Галустян, Ольга Зубкова, Дмитрий Поляновский, Диомид Виноградов, Пётр Иващенко

Описание: Панда По, величайший в мире фанат кунг-фу, продолжает свое путешествие, как и гласит древнее пророчество, осваивая искусство кунг-фу

Качество: Blu-ray Rip
Формат: AVI
Видео кодек: XviD
Аудио кодек: AC3
Видео: 1280x544, ~2997 kbps, 23.976 fps
Аудио: Русский AC3 5.1, 48 KHz, 448 kbps / Английский AC3 5.1, 48 KHz, 448 kbps
General
Complete name : E:\Kung Fu Panda 2\Kung.Fu.Panda.2.2011.720p.BRRip.XviD.AC3.avi
Format : AVI
Format/Info : Audio Video Interleave
Format profile : OpenDML
Format settings : rec
File size : 2.46 GiB
Duration : 1h 30mn
Overall bit rate : 3 901 Kbps
Writing application : AVI-Mux GUI 1.17.8.3, Feb 16 201019:42:50

Video
ID : 0
Format : MPEG-4 Visual
Format profile : Advanced Simple@L5
Format settings, BVOP : 1
Format settings, QPel : No
Format settings, GMC : No warppoints
Format settings, Matrix : Custom
Muxing mode : Packed bitstream
Codec ID : XVID
Codec ID/Hint : XviD
Duration : 1h 30mn
Bit rate : 2 997 Kbps
Width : 1 280 pixels
Height : 544 pixels
Display aspect ratio : 2.35:1
Frame rate : 23.976 fps
Color space : YUV
Chroma subsampling : 4:2:0
Bit depth : 8 bits
Scan type : Progressive
Compression mode : Lossy
Bits/(Pixel*Frame) : 0.180
Stream size : 1.89 GiB (77%)
Writing library : XviD 1.2.1 (UTC 2008-12-04)

Audio #1
ID : 1
Format : AC-3
Format/Info : Audio Coding 3
Mode extension : CM (complete main)
Codec ID : 2000
Duration : 1h 30mn
Bit rate mode : Constant
Bit rate : 448 Kbps
Channel(s) : 6 channels
Channel positions : Front: L C R, Side: L R, LFE
Sampling rate : 48.0 KHz
Bit depth : 16 bits
Compression mode : Lossy
Stream size : 290 MiB (11%)
Alignment : Aligned on interleaves
Interleave, duration : 64 ms (1.53 video frames)
Interleave, preload duration : 192 ms
Title : RUS.DD.448kbps

Audio #2
ID : 2
Format : AC-3
Format/Info : Audio Coding 3
Mode extension : CM (complete main)
Codec ID : 2000
Duration : 1h 30mn
Bit rate mode : Constant
Bit rate : 448 Kbps
Channel(s) : 6 channels
Channel positions : Front: L C R, Side: L R, LFE
Sampling rate : 48.0 KHz
Bit depth : 16 bits
Compression mode : Lossy
Stream size : 290 MiB (11%)
Alignment : Aligned on interleaves
Interleave, duration : 64 ms (1.53 video frames)
Interleave, preload duration : 192 ms
Title : ENG.DD.448kbps
info [Профиль]  [ЛС] 

Backwords

Стаж: 7 лет 7 месяцев

Сообщений: 3

Рейтинг

post 18-Окт-2011 10:55 (спустя 8 часов) [-]1[+]

[Цитировать] 

наконецто лицензия ^_^
info [Профиль]  [ЛС] 

Progum

Пол: Пол:Муж

Стаж: 6 лет 8 месяцев

Сообщений: 389

Предупреждений: 1

СССР
Рейтинг

post 18-Окт-2011 11:45 (спустя 50 минут) [-]0[+]

[Цитировать] 

спасибо, ждал именно такой репак.
info [Профиль]  [ЛС] 

xpystuk

Пол: Пол:Муж

Стаж: 7 лет 3 месяца

Сообщений: 383

Россия
Рейтинг

post 18-Окт-2011 14:15 (спустя 2 часа 29 минут) [-]-7[+]

[Цитировать] 

Progum писал(а):

спасибо, ждал именно такой репак.
*facepalm...
info [Профиль]  [ЛС] 

post 14-Ноя-2011 13:57 (спустя 26 дней) [-]0[+]

Топик был перенесен из форума Rips в форум Зарубежное кино | Rips

chingis
 

post 19-Июн-2012 11:24 (спустя 8 месяцев) [-]0[+]

Топик был перенесен из форума Зарубежное кино | Rips в форум Зарубежные полнометражные мультфильмы

Panky
 
Показать сообщения:    
Ответить на тему

Текущее время: 09-Дек 00:13

Часовой пояс: GMT + 4



Вы не можете начинать темы
Вы не можете отвечать на сообщения
Вы не можете редактировать свои сообщения
Вы не можете удалять свои сообщения
Вы не можете голосовать в опросах
Вы не можете прикреплять файлы к сообщениям
Вы не можете скачивать файлы