Ошибка

Кунг-фу Панда 2 / Kung Fu Panda 2 (Дженнифер Ю) [2011 г., мультфильм, боевик, комедия, приключения, семейный, BDRip 1080p]

Ответить на тему
 
Автор Сообщение

4liver

Пол: Пол:Муж

Стаж: 7 лет 5 месяцев

Сообщений: 1778

Рейтинг

post 18-Окт-2011 01:47 5[+]

[Цитировать] 


Кунг-фу Панда 2 / Kung Fu Panda 2

Год выпуска: 2011
Страна: США / DreamWorks Animation
Жанр: мультфильм, боевик, комедия, приключения, семейный
Продолжительность: 01:30:24
Перевод: Профессиональный (полное дублирование) [Лицензия]
Режиссер:
  • Дженнифер Ю

Роли дублировали:
  • Михаил Галустян, Ольга Зубкова, Дмитрий Поляновский, Диомид Виноградов, Пётр Иващенко

Описание: Панда По, величайший в мире фанат кунг-фу, продолжает свое путешествие, как и гласит древнее пророчество, осваивая искусство кунг-фу


Качество: BDRip 1080p
Формат: MKV
Видео кодек: H.264
Аудио кодек: AC3, DTS
Видео: NTSC 23.976, 1920x816, 8 135 Kbps
Аудио:
1) Russian: 48 kHz, AC3, 3/2 (L,C,R,l,r) + LFE ch, ~448.00 kbps avg
2) English: 48 kHz, DTS, 3/3 (L,C,R,l,r) + LFE ch, ~1536.00 kbps
General
Unique ID : 175045295159752612171270481779516334575 (0x83B07F5FE911B2328C64EE46A09561EF)
Complete name : E:\Kung.Fu.Panda.2.2011.1080p.BluRay.Rus.Eng.mkv
Format : Matroska
Format version : Version 2
File size : 6.37 GiB
Duration : 1h 30mn
Overall bit rate : 10.1 Mbps
Movie name : Кунг-фу Панда 2 / Kung Fu Panda 2 (2011) .....:::ELEKTRI4KA:::.....
Encoded date : UTC 2011-10-17 20:47:20
Writing application : mkvmerge v5.0.1 ('Es ist Sommer') built on Oct 9 2011 11:55:43
Writing library : libebml v1.2.2 + libmatroska v1.3.0

Video
ID : 1
Format : AVC
Format/Info : Advanced Video Codec
Format profile : High@L4.1
Format settings, CABAC : Yes
Format settings, ReFrames : 5 frames
Codec ID : V_MPEG4/ISO/AVC
Duration : 1h 30mn
Bit rate : 8 135 Kbps
Width : 1 920 pixels
Height : 816 pixels
Display aspect ratio : 2.35:1
Frame rate : 23.976 fps
Color space : YUV
Chroma subsampling : 4:2:0
Bit depth : 8 bits
Scan type : Progressive
Bits/(Pixel*Frame) : 0.217
Stream size : 5.01 GiB (79%)
Title : Kung.Fu.Panda.2.2011.1080p.Bluray.x264.DTS-HDChina
Writing library : x264 core 115 r1995 c1e60b9
Encoding settings : cabac=1 / ref=5 / deblock=1:-1:-1 / analyse=0x3:0x133 / me=umh / subme=10 / psy=1 / psy_rd=0.70:0.10 / mixed_ref=1 / me_range=64 / chroma_me=1 / trellis=2 / 8x8dct=1 / cqm=0 / deadzone=21,11 / fast_pskip=0 / chroma_qp_offset=-3 / threads=12 / sliced_threads=0 / nr=0 / decimate=0 / interlaced=0 / bluray_compat=0 / constrained_intra=0 / bframes=9 / b_pyramid=2 / b_adapt=2 / b_bias=0 / direct=3 / weightb=1 / open_gop=0 / weightp=2 / keyint=240 / keyint_min=2 / scenecut=40 / intra_refresh=0 / rc=2pass / mbtree=0 / bitrate=8135 / ratetol=1.0 / qcomp=0.70 / qpmin=0 / qpmax=69 / qpstep=4 / cplxblur=20.0 / qblur=0.5 / ip_ratio=1.35 / pb_ratio=1.30 / aq=2:1.00
Language : English

Audio #1
ID : 2
Format : AC-3
Format/Info : Audio Coding 3
Mode extension : CM (complete main)
Codec ID : A_AC3
Duration : 1h 30mn
Bit rate mode : Constant
Bit rate : 448 Kbps
Channel(s) : 6 channels
Channel positions : Front: L C R, Side: L R, LFE
Sampling rate : 48.0 KHz
Bit depth : 16 bits
Compression mode : Lossy
Stream size : 290 MiB (4%)
Title : AC3 5.1 @ 448 kb/s [Russian DUB, R5]
Language : Russian

Audio #2
ID : 3
Format : DTS
Format/Info : Digital Theater Systems
Codec ID : A_DTS
Duration : 1h 30mn
Bit rate mode : Constant
Bit rate : 1 510 Kbps
Channel(s) : 6 channels
Channel positions : Front: L C R, Side: L R, LFE
Sampling rate : 48.0 KHz
Bit depth : 24 bits
Compression mode : Lossy
Stream size : 976 MiB (15%)
Title : DTS 5.1 @ 1510 kb/s [English]
Language : English

Text #1
ID : 4
Format : UTF-8
Codec ID : S_TEXT/UTF8
Codec ID/Info : UTF-8 Plain Text
Title : Russian [voronine]
Language : Russian

Text #2
ID : 5
Format : UTF-8
Codec ID : S_TEXT/UTF8
Codec ID/Info : UTF-8 Plain Text
Title : English [voronine]
Language : English
info [Профиль]  [ЛС] 

Rufio

Пол: Пол:Муж

Стаж: 6 лет 11 месяцев

Сообщений: 94

Россия
Рейтинг

post 18-Окт-2011 22:35 (спустя 20 часов) [-]0[+]

[Цитировать] 

Дождался всё-таки дубляжа, хотя соблазн посмотреть был велик. Спасибо.
info [Профиль]  [ЛС] 

kenn11

Пол: Пол:Муж

Стаж: 5 лет 2 месяца

Сообщений: 6

Предупреждений: 1

Украина
Рейтинг

post 22-Окт-2011 02:33 (спустя 3 дня) [-]0[+]

[Цитировать] 

Большое спасибо, очень ждал
info [Профиль]  [ЛС] 

Исмаил Гейдаров

Пол: Пол:Муж

Стаж: 6 лет 8 месяцев

Сообщений: 135

Азербайджан
Рейтинг

post 13-Дек-2011 18:06 (спустя 1 месяц 22 дня) [-]0[+]

[Цитировать] 

озвучка и картинка хорошая?действительно ли озвучка лицушная?

_________________
ASUS N61VN
Playstation 4
PS VITA
info [Профиль]  [ЛС] 

CooL

Пол: Пол:Муж

Стаж: 6 лет 9 месяцев

Сообщений: 1235

СССР
Рейтинг

post 13-Дек-2011 20:02 (спустя 1 час 56 минут) [-]0[+]

[Цитировать] 

Исмаил Гейдаров писал(а):

озвучка и картинка хорошая?действительно ли озвучка лицушная?
Да нет, что Вы, просто пошутили. kolob_107
info [Профиль]  [ЛС] 
Показать сообщения:    
Ответить на тему

Текущее время: 09-Дек 11:47

Часовой пояс: GMT + 4



Вы не можете начинать темы
Вы не можете отвечать на сообщения
Вы не можете редактировать свои сообщения
Вы не можете удалять свои сообщения
Вы не можете голосовать в опросах
Вы не можете прикреплять файлы к сообщениям
Вы не можете скачивать файлы