Ошибка

Тачки 2 / Cars 2 (Джон Лассетер, Брэд Льюис) [2011 г., мультфильм, комедия, приключения, семейный, Blu-ray Rip]

Ответить на тему
 
Автор Сообщение

4liver

Пол: Пол:Муж

Стаж: 7 лет 5 месяцев

Сообщений: 1778

Рейтинг

post 16-Окт-2011 00:39 0[+]

[Цитировать] 


Год выпуска: 2011
Страна: США
Жанр: Мультфильм, комедия, приключения, семейный
Продолжительность: 01:47:01
Перевод: Профессиональный (полное дублирование) [Лицензия]
Язык субтитров: Русские - [Внешние]
Режиссер:
  • Джон Лассетер, Брэд Льюис

В ролях:
  • Оуэн Уилсон (Lightning McQueen, озвучка,), Ларри Кейбл Гай (Mater, озвучка), Майкл Кейн (Finn McMissile, озвучка), Эмили Мортимер (Holley Shiftwell, озвучка), Эдди Иззард (Sir Miles Axlerod, озвучка), Джон Туртурро (Francesco Bernoulli, озвучка), Брент Мусбургер (Brent Mustangburger, озвучка), Джо Мантенья (Grem, озвучка), Томас Кречманн (Professor Z, озвучка), Питер Джекобсон (Acer, озвучка), Бонни Хант (Sally, озвучка), Даррел Уалтрип (Darrell Cartrip, озвучка)

Описание:Молния МакКуин и его друг Мэтр отправляются в международное путешествие - когда МакКуин получает шанс участвовать в соревнованиях для самых быстрых машин в мире, Мировом Гран-При. Этапы этих престижных гонок заведут друзей в Токио, на набережные Парижа, на побережье Италии, и на улицы туманного Лондона.

Качество: Blu-ray Rip
Формат: AVI
Видео кодек: XviD
Аудио кодек: AC3
Видео: 1280x528, ~3072 kbps, 23.976 fps
Аудио: Русский AC3 5.1, 48 KHz, 448 kbps / Английский AC3 5.1, 48 KHz, 448 kbps
General
Complete name : E:\Cars 2\Cars 2.avi
Format : AVI
Format/Info : Audio Video Interleave
Format profile : OpenDML
Format settings : rec
File size : 2.97 GiB
Duration : 1h 47mn
Overall bit rate : 3 976 Kbps
Writing application : AVI-Mux GUI 1.17.8.3, Feb 16 201019:42:50

Video
ID : 0
Format : MPEG-4 Visual
Format profile : Advanced Simple@L5
Format settings, BVOP : 1
Format settings, QPel : No
Format settings, GMC : No warppoints
Format settings, Matrix : Custom
Muxing mode : Packed bitstream
Codec ID : XVID
Codec ID/Hint : XviD
Duration : 1h 47mn
Bit rate : 3 072 Kbps
Width : 1 280 pixels
Height : 528 pixels
Display aspect ratio : 2.40:1
Frame rate : 23.976 fps
Color space : YUV
Chroma subsampling : 4:2:0
Bit depth : 8 bits
Scan type : Progressive
Compression mode : Lossy
Bits/(Pixel*Frame) : 0.190
Stream size : 2.30 GiB (77%)
Writing library : XviD 1.2.1 (UTC 2008-12-04)

Audio #1
ID : 1
Format : AC-3
Format/Info : Audio Coding 3
Mode extension : CM (complete main)
Codec ID : 2000
Duration : 1h 47mn
Bit rate mode : Constant
Bit rate : 448 Kbps
Channel(s) : 6 channels
Channel positions : Front: L C R, Side: L R, LFE
Sampling rate : 48.0 KHz
Bit depth : 16 bits
Compression mode : Lossy
Stream size : 343 MiB (11%)
Alignment : Aligned on interleaves
Interleave, duration : 64 ms (1.53 video frames)
Interleave, preload duration : 192 ms
Title : RUS.DD.448kbps

Audio #2
ID : 2
Format : AC-3
Format/Info : Audio Coding 3
Mode extension : CM (complete main)
Codec ID : 2000
Duration : 1h 47mn
Bit rate mode : Constant
Bit rate : 448 Kbps
Channel(s) : 6 channels
Channel positions : Front: L C R, Side: L R, LFE
Sampling rate : 48.0 KHz
Bit depth : 16 bits
Compression mode : Lossy
Stream size : 343 MiB (11%)
Alignment : Aligned on interleaves
Interleave, duration : 64 ms (1.53 video frames)
Interleave, preload duration : 192 ms
Title : ENG.DD.448kbps
info [Профиль]  [ЛС] 

Jumper55

Пол: Пол:Муж

Стаж: 5 лет 4 месяца

Сообщений: 4

Украина
Рейтинг

post 16-Окт-2011 09:22 (спустя 8 часов) [-]-2[+]

[Цитировать] 

как сделать чтобы звук появился
info [Профиль]  [ЛС] 

Coolface

Стаж: 6 лет 8 месяцев

Сообщений: 155

Предупреждений: 4

Рейтинг

post 16-Окт-2011 09:33 (спустя 11 минут) [-]14[+]

[Цитировать] 

Jumper55 писал(а):

как сделать чтобы звук появился
похлопай в ладоши, или создай любую ситуацию в которой вибрирует воздух, например двигай предметы, или дуй в бутылку

_________________
Установил spider91 Предупреждение Тема предупреждения troll detected Срок истечения ∞ Дата установки 2012-09-16 19:53.

Тип предупреждения Режим Только чтение Оскорбление релизера, провокация. 2012-10-05 15:05
info [Профиль]  [ЛС] 

Jumper55

Пол: Пол:Муж

Стаж: 5 лет 4 месяца

Сообщений: 4

Украина
Рейтинг

post 16-Окт-2011 09:54 (спустя 20 минут) [-]0[+]

[Цитировать] 

Полный ******
info [Профиль]  [ЛС] 

zone90

Пол: Пол:Муж

Стаж: 7 лет 3 месяца

Сообщений: 21

СССР
Рейтинг

post 16-Окт-2011 09:59 (спустя 5 минут) [-]-1[+]

[Цитировать] 

спасибо большое за раздачу, жаль только скорость низкая
info [Профиль]  [ЛС] 

Vaness1911

Пол: Пол:Муж

Стаж: 6 лет 2 месяца

Сообщений: 7

Украина
Рейтинг

post 18-Окт-2011 19:55 (спустя 2 дня 9 часов) [-]0[+]

[Цитировать] 

Coolface писал(а):

Jumper55 писал(а):

как сделать чтобы звук появился
похлопай в ладоши, или создай любую ситуацию в которой вибрирует воздух, например двигай предметы, или дуй в бутылку
спасибо, поржал) kolob_111
info [Профиль]  [ЛС] 

krabe

Пол: Пол:Муж

Стаж: 5 лет 1 месяц

Сообщений: 6

Россия
Рейтинг

post 19-Окт-2011 01:32 (спустя 5 часов) [-]2[+]

[Цитировать] 

kolob_129 kolob_129 kolob_129 kolob_129 kolob_129 kolob_129 kolob_129
info [Профиль]  [ЛС] 

'dN

Пол: Пол:Муж

Стаж: 7 лет 1 месяц

Сообщений: 73

Украина
Рейтинг

post 19-Окт-2011 11:42 (спустя 10 часов) [-]0[+]

[Цитировать] 

А будет такой же рип Зелёного фонаря когда появится лицензия? =)
info [Профиль]  [ЛС] 

post 14-Ноя-2011 13:57 (спустя 26 дней) [-]0[+]

Топик был перенесен из форума Rips в форум Зарубежное кино | Rips

chingis
 

post 19-Июн-2012 11:24 (спустя 7 месяцев 30 дней) [-]0[+]

Топик был перенесен из форума Зарубежное кино | Rips в форум Зарубежные полнометражные мультфильмы

Panky
 
Показать сообщения:    
Ответить на тему

Текущее время: 05-Дек 20:41

Часовой пояс: GMT + 4



Вы не можете начинать темы
Вы не можете отвечать на сообщения
Вы не можете редактировать свои сообщения
Вы не можете удалять свои сообщения
Вы не можете голосовать в опросах
Вы не можете прикреплять файлы к сообщениям
Вы не можете скачивать файлы