Ошибка

(Rap, Hip-Hop) N1NT3NDO (Баста / Ноггано / Нинтендо) - 2011, APE (image+.cue), lossless

Ответить на тему
 
Автор Сообщение

Raa

Пол: Пол:Муж

Стаж: 8 лет 8 месяцев

Сообщений: 1099

Рейтинг

post 15-Окт-2011 17:54 3[+]

[Цитировать] 

N1NT3NDO

pic="http://i29.fastpic.ru/big/2011/1015/67/dfaaefee9104effad80f40b16375d267.jpg"

Жанр: Rap, Hip-Hop
Год издания диска: 2011
Страна-производитель диска: Россия
Страна: Россия
Издатель (лейбл): Газгольдер Рекорд
Номер по каталогу: CDG 011/2011
Тип релиза: image+.cue
Аудио кодек: APE
Битрейт аудио: lossless
Продолжительность: 00:50:43
Источник: Kopcap4uk
Трэклист:
01. Интро
02. И тебя уже.net (feat. )
03. Отмели (feat. Крёстная Семья)
04. Буду погибать мАло. дым (feat. )
05. Пуля на вылет (feat. )
06. Гив ми мани
07. Олина попа
08. Не хуй делать (feat. )
09. Буду на чеку
10. Ламбада
11. ЧП (feat. )
12. Ран Вася ран (feat. )
13. Шутники
14. Криминал (feat. )
15. Инь Янь
Exact Audio Copy V0.99 prebeta 5 from 4. May 2009 

Отчёт EAC об извлечении, выполненном 15. октября 2011, 17:19

N1NT3NDO / N1NT3NDO

Дисковод: Optiarc DVD RW AD-7260S Adapter: 2 ID: 0

Режим чтения : Достоверность
Использование точного потока : Да
Отключение кэша аудио : Да
Использование указателей C2 : Нет

Коррекция смещения при чтении : 48
Способность читать области Lead-in и Lead-out : Нет
Заполнение пропущенных сэмплов тишиной : Да
Удаление блоков с тишиной в начале и конце : Нет
При вычислениях CRC использовались нулевые сэмплы : Да
Интерфейс : Встроенный Win32-интерфейс для Win NT/2000

Выходной формат : Внутренние WAV-операции
Формат сэмплов : 44.100 Гц; 16 бит; стерео

TOC извлечённого CD

Трек | Старт | Длительность | Начальный сектор | Конечный сектор
---------------------------------------------------------------------
1 | 0:00.00 | 2:06.40 | 0 | 9489
2 | 2:06.40 | 4:39.13 | 9490 | 30427
3 | 6:45.53 | 5:21.62 | 30428 | 54564
4 | 12:07.40 | 3:50.18 | 54565 | 71832
5 | 15:57.58 | 3:35.07 | 71833 | 87964
6 | 19:32.65 | 3:19.28 | 87965 | 102917
7 | 22:52.18 | 4:07.10 | 102918 | 121452
8 | 26:59.28 | 3:40.39 | 121453 | 137991
9 | 30:39.67 | 3:05.26 | 137992 | 151892
10 | 33:45.18 | 3:25.69 | 151893 | 167336
11 | 37:11.12 | 4:04.22 | 167337 | 185658
12 | 41:15.34 | 3:18.05 | 185659 | 200513
13 | 44:33.39 | 3:27.07 | 200514 | 216045
14 | 48:00.46 | 3:53.38 | 216046 | 233558
15 | 51:54.09 | 4:50.40 | 233559 | 255348

Характеристики диапазона извлечения и сообщения об ошибках

Выбранный диапазон

Имя файла Z:\Lossless музыка\N1NT3NDO - N1NT3NDO (2011)\N1NT3NDO - N1NT3NDO.wav

Пиковый уровень 100.0 %
Качество диапазона 99.9 %
CRC теста 2E19DBB4
CRC копии 2E19DBB4
Копирование... OK

Ошибок не произошло

AccurateRip: сводка

Трек 1 нет в базе данных
Трек 2 нет в базе данных
Трек 3 нет в базе данных
Трек 4 нет в базе данных
Трек 5 нет в базе данных
Трек 6 нет в базе данных
Трек 7 нет в базе данных
Трек 8 нет в базе данных
Трек 9 нет в базе данных
Трек 10 нет в базе данных
Трек 11 нет в базе данных
Трек 12 нет в базе данных
Трек 13 нет в базе данных
Трек 14 нет в базе данных
Трек 15 нет в базе данных

Ни одного трека нет в базе AccurateRip

Конец отчёта
REM GENRE Rap 
REM DATE 2011
REM DISCID D10D4C0F
REM COMMENT "Rip by kopcap4uk"
PERFORMER "N1NT3NDO"
TITLE "N1NT3NDO"
FILE "N1NT3NDO - N1NT3NDO.ape" WAVE
TRACK 01 AUDIO
TITLE "Интро"
PERFORMER "N1NT3NDO feat. QП"
INDEX 01 00:00:00
TRACK 02 AUDIO
TITLE "И тебя уже.net"
PERFORMER "N1NT3NDO"
INDEX 01 02:06:40
TRACK 03 AUDIO
TITLE "Отмели"
PERFORMER "N1NT3NDO feat. Крёстная Семья"
INDEX 01 06:45:53
TRACK 04 AUDIO
TITLE "Буду погибать мало.дым"
PERFORMER "N1NT3NDO feat. QП"
INDEX 01 12:07:40
TRACK 05 AUDIO
TITLE "Пуля на вылет"
PERFORMER "N1NT3NDO feat. QП"
INDEX 01 15:57:58
TRACK 06 AUDIO
TITLE "Гив ми мани"
PERFORMER "N1NT3NDO"
INDEX 01 19:32:65
TRACK 07 AUDIO
TITLE "Олина попа"
PERFORMER "N1NT3NDO"
INDEX 01 22:52:18
TRACK 08 AUDIO
TITLE "Не хуй делать"
PERFORMER "N1NT3NDO feat. QП"
INDEX 01 26:59:28
TRACK 09 AUDIO
TITLE "Будь на чеку"
PERFORMER "N1NT3NDO"
INDEX 01 30:39:67
TRACK 10 AUDIO
TITLE "Ламбада"
PERFORMER "N1NT3NDO"
INDEX 01 33:45:18
TRACK 11 AUDIO
TITLE "ЧП"
PERFORMER "N1NT3NDO feat. QП"
INDEX 01 37:11:12
TRACK 12 AUDIO
TITLE "Ран Вася ран"
PERFORMER "N1NT3NDO feat. QП"
INDEX 01 41:15:34
TRACK 13 AUDIO
TITLE "Шутники"
PERFORMER "N1NT3NDO"
INDEX 01 44:33:39
TRACK 14 AUDIO
TITLE "Криминал"
PERFORMER "N1NT3NDO feat. QП"
INDEX 01 48:00:46
TRACK 15 AUDIO
TITLE "Инь Янь"
PERFORMER "N1NT3NDO"
INDEX 01 51:54:09



Школота минусуем Подмигиваю
info [Профиль]  [ЛС] 

Metalist2

Пол: Пол:Муж

Стаж: 9 лет 1 месяц

Сообщений: 15

Украина
Рейтинг

post 15-Окт-2011 18:58 (спустя 1 час 4 минуты) [-]3[+]

[Цитировать] 

Трэки бомба, но его новое название не очень((

_________________
info [Профиль]  [ЛС] 

hitorix

Пол: Пол:Муж

Стаж: 8 лет 8 месяцев

Сообщений: 586

Рейтинг

post 15-Окт-2011 19:11 (спустя 13 минут) [-]-1[+]

[Цитировать] 

название хорошее,
а вот треки полное дерьмо
info [Профиль]  [ЛС] 

Artemvin

Пол: Пол:Муж

Стаж: 8 лет 8 месяцев

Сообщений: 47

Украина
Рейтинг

post 15-Окт-2011 22:07 (спустя 2 часа 55 минут) [-]1[+]

[Цитировать] 

пазитивный альбом!) оссобенно треки "Олина попа" и "ЧП"=)
info [Профиль]  [ЛС] 

antontorr

Стаж: 7 лет 1 месяц

Сообщений: 31

Рейтинг

post 15-Окт-2011 23:14 (спустя 1 час 7 минут) [-]3[+]

[Цитировать] 

как его открыть?

_________________
info [Профиль]  [ЛС] 

Raa

Пол: Пол:Муж

Стаж: 8 лет 8 месяцев

Сообщений: 1099

Рейтинг

post 16-Окт-2011 02:53 (спустя 3 часа) [-]0[+]

[Цитировать] 

antontorr
AIMP2
info [Профиль]  [ЛС] 

antontorr

Стаж: 7 лет 1 месяц

Сообщений: 31

Рейтинг

post 16-Окт-2011 15:13 (спустя 12 часов) [-]3[+]

[Цитировать] 

Спасибо, бодрые треки!

_________________
info [Профиль]  [ЛС] 

TirelEngel

Пол: Пол:Муж

Стаж: 9 лет 2 месяца

Сообщений: 1985

Предупреждений: 5

Россия
Рейтинг

post 25-Ноя-2011 23:20 (спустя 1 месяц 9 дней) [-]0[+]

[Цитировать] 

А почему Нинтендо 0_о?
Я люблю Нинтендо, но не люблю всякие басты, акы, и ноганы... мне не качать?
На R4Gold пойдёт?)

_________________
info [Профиль]  [ЛС] 

Alchex

Пол: Пол:Муж

Стаж: 7 лет 2 месяца

Сообщений: 38

Украина
Рейтинг

post 26-Ноя-2011 00:44 (спустя 1 час 23 минуты) [-]1[+]

[Цитировать] 

Всего 3-4 трека хорошие, остальные не особо качают. Баста хоть и попса почти - но очень классная. А тут мат на мате) Хотя, это уже дело вкуса Улыбаюсь

По теме: спасибо за альбом!
info [Профиль]  [ЛС] 

NoFear

Пол: Пол:Муж

Стаж: 9 лет 4 месяца

Сообщений: 15

Рейтинг

post 26-Ноя-2011 01:12 (спустя 27 минут) [-]-1[+]

[Цитировать] 

Баста здесь?
info [Профиль]  [ЛС] 

MCJEER

Стаж: 8 лет 8 месяцев

Сообщений: 12

Рейтинг

post 04-Дек-2011 21:37 (спустя 8 дней) [-]0[+]

[Цитировать] 

Блин посаны а не подскажите где дискографию ТДК скачать?
info [Профиль]  [ЛС] 

lain

Пол: Пол:Муж

Стаж: 8 лет 1 месяц

Сообщений: 33

Белоруссия
Рейтинг

post 14-Дек-2013 01:00 (спустя 2 года) [-]0[+]

[Цитировать] 

а вернитесь кто нибудь пожалуйста на раздачу. дайте скачать.
спасибо!

_________________
о запрещённый рай...
info [Профиль]  [ЛС] 
Показать сообщения:    
Ответить на тему

Текущее время: 20-Ноя 01:01

Часовой пояс: GMT + 4



Вы не можете начинать темы
Вы не можете отвечать на сообщения
Вы не можете редактировать свои сообщения
Вы не можете удалять свои сообщения
Вы не можете голосовать в опросах
Вы не можете прикреплять файлы к сообщениям
Вы не можете скачивать файлы