Ошибка

До окончания фрилича осталось:


Мэрдок Скрэмбл / Mardock Scramble [Movie][1-3 из 3][2010-2012][киберпанк, приключения, мистика][BDRip][720p][Любительский (JAP+SUB)]

Ответить на тему
 
Автор Сообщение

Sunny17

Пол: Пол:Жен

Стаж: 7 лет 3 месяца

Сообщений: 733

Россия
Рейтинг

post 26-Сен-2011 23:25 3[+]

[Цитировать] 

Мэрдок Скрэмбл | Mardock Scramble | マルドゥック・スクランブル


Премьера: 08.10.2010 [1] | 03.09.2011 [2] | 29.09.2012 [3]
Страна:
Жанр: киберпанк, приключения, мистика
Тип: полнометражный фильм
Продолжительность: 3 фильма по ~ 65 минут

Режиссер: Кудо Сусуму / Kudo Susumu / 工藤進
Автор оригинала: Убуката То / Ubukata Tow / 冲方丁
Студия:


Озвучка:
  • Любительская (двухголосая) Трина Дубовицкая & Sad_Kit (Anything Group)| 1-3 |ext |
  • Любительская (многоголосая) AnimeSpace (Anything Group)| 2 |ext |
  • Любительская (двухголосая) Eladiel & Jam (AniMedia) | 1 | ext |
  • Любительская (одноголосая) JeFerSon (OpenDUB) | 1 | ext |
Субтитры:
  • русские (внешние, ass) Yakusub Studio | 1-3 |
  • русские (внешние, ass) Carrier88 & Adel | 1 |
  • русские (внешние, ass) Dreamers Team | 1-3 |
  • русские (внешние, ass) Nesitach & Stan WarHammer | 1-2 |
  • английские (встроенные, ass) THORA | 1-3 |

Описание: «Почему я?..» Последнее о чём подумала Рун Балот, молодая проститутка… Её человеческая жизнь оборвалась. Рабыня опасного картёжника Шела, потерявшая свою жизнь от его же руки… На этом бы история и закончилась, если бы не одно но… Она стала киборгом. Получив силу, она преследует Шела и его помощника, Бойледа. Впереди – нелёгкий путь полный опасностей, предательства и обмана…
© mewand

Качество: BDRip, 720p [THORA]
Хардсаб: Отсутствует
Формат: Matroska
Видео: AVC, 1280х720 (16:9), 23.976 fps, ~9000 kbps
Аудио:
  • - AAC, 48,0 KHz, 2 channels (Front: L R), ~ 192 kbps | Трина Дубовицкая & Sad_Kit |
  • - AC-3, 48,0 KHz, 2 channels (Front: L R), 448 kbps | JeFerSon |
  • - AC-3, 48,0 KHz, 6 channels (Front: L C R, Side: L R, LFE), 448 kbps | Eladiel & Jam |
  • - AC-3, 48,0 KHz, 6 channels (Front: L C R, Side: L R, LFE), 384 kbps | AnimeSpace Team |
  • - FLAC, 48,0 KHz, 6 channels (Front: L C R, Side: L R, LFE), ~ 1450 kbps

Format : Matroska
Format version : Version 1
File size : 222 MiB
Duration : 1h 9mn
Overall bit rate mode : Constant
Overall bit rate : 449 Kbps
Encoded date : UTC 2011-09-01 18:03:46
Writing application : mkvmerge v2.3.0 ('Freak U') built on Sep 8 2008 18:32:16
Writing library : libebml v0.7.7 + libmatroska v0.8.1
Attachment : Yes

Audio
ID : 1
Format : AC-3
Format/Info : Audio Coding 3
Mode extension : CM (complete main)
Format settings, Endianness : Big
Codec ID : A_AC3
Duration : 1h 9mn
Bit rate mode : Constant
Bit rate : 448 Kbps
Channel(s) : 2 channels
Channel positions : Front: L R
Sampling rate : 48.0 KHz
Bit depth : 16 bits
Compression mode : Lossy
Stream size : 222 MiB (100%)
Title : JeFerSon
Language : Russian
Default : Yes
Forced : No

Menu
00:00:00.054 : ja:00:00:00.054

Format : AC-3
Format/Info : Audio Coding 3
File size : 222 MiB
Duration : 1h 9mn
Overall bit rate mode : Constant
Overall bit rate : 448 Kbps

Audio
Format : AC-3
Format/Info : Audio Coding 3
Mode extension : CM (complete main)
Format settings, Endianness : Big
Duration : 1h 9mn
Bit rate mode : Constant
Bit rate : 448 Kbps
Channel(s) : 6 channels
Channel positions : Front: L C R, Side: L R, LFE
Sampling rate : 48.0 KHz
Bit depth : 16 bits
Compression mode : Lossy
Stream size : 222 MiB (100%)

Format : Matroska
Format version : Version 2
File size : 95.5 MiB
Duration : 1h 9mn
Overall bit rate : 193 Kbps
Track name : Mardock Scramble [Movie 1]
Encoded date : UTC 2011-09-26 17:41:05
Writing application : mkvmerge v4.9.1 ('Ich will') сборка от Jul 11 2011 23:53:15
Writing library : libebml v1.2.1 + libmatroska v1.1.1

Audio
ID : 1
Format : AAC
Format/Info : Advanced Audio Codec
Format profile : LC
Codec ID : A_AAC
Duration : 1h 9mn
Channel(s) : 2 channels
Channel positions : Front: L R
Sampling rate : 48.0 KHz
Compression mode : Lossy
Title : Trina_D & Sad_Kit
Language : Russian
Default : Yes
Forced : No

RUS Sound [Anything Group]\Mardock_Scramble_The_Second_Combustion_(2011)_[720p,BluRay,flac,x264]_-_THORA.mka
Format : Matroska
Format version : Version 2
File size : 88.4 MiB
Duration : 1h 4mn
Overall bit rate : 193 Kbps
Track name : Mardock Scramble: The Second Combustion (2011)
Encoded date : UTC 2012-08-09 09:56:18
Writing application : mkvmerge v5.2.0 ('I can't explain') built on Dec 18 2011 18:12:03
Writing library : libebml v1.2.3 + libmatroska v1.3.0

Audio
ID : 1
Format : AAC
Format/Info : Advanced Audio Codec
Format profile : LC
Codec ID : A_AAC
Duration : 1h 4mn
Channel(s) : 2 channels
Channel positions : Front: L R
Sampling rate : 48.0 KHz
Compression mode : Lossy
Title : Трина Дубовицкая & Sad_Kit [Anything Group]
Language : Russian
Default : Yes
Forced : No

Mardock_Scramble_The_First_Compression_(2010)_[720p,BluRay,flac,x264]_-_THORA.mkv
Format : Matroska
Format version : Version 2
File size : 4.37 GiB
Duration : 1h 9mn
Overall bit rate mode : Variable
Overall bit rate : 9 040 Kbps
Movie name : Mardock Scramble: The First Compression (2010)
Encoded date : UTC 2011-12-06 20:00:37
Writing application : mkvmerge v4.9.1 ('Ich will') built on Jul 11 2011 23:53:15
Writing library : libebml v1.2.1 + libmatroska v1.1.1
Attachment : Yes

Video
ID : 1
Format : AVC
Format/Info : Advanced Video Codec
Format profile : High@L4.1
Format settings, CABAC : Yes
Format settings, ReFrames : 6 frames
Muxing mode : Header stripping
Codec ID : V_MPEG4/ISO/AVC
Duration : 1h 9mn
Width : 1 280 pixels
Height : 720 pixels
Display aspect ratio : 16:9
Frame rate : 23.976 fps
Color space : YUV
Chroma subsampling : 4:2:0
Bit depth : 8 bits
Scan type : Progressive
Language : Japanese
Default : Yes
Forced : No

Audio
ID : 2
Format : FLAC
Format/Info : Free Lossless Audio Codec
Codec ID : A_FLAC
Duration : 1h 9mn
Bit rate mode : Variable
Channel(s) : 6 channels
Sampling rate : 48.0 KHz
Bit depth : 16 bits
Writing library : libFLAC 1.2.1 (UTC 2007-09-17)
Language : Japanese
Default : Yes
Forced : No

Text
ID : 3
Format : ASS
Codec ID : S_TEXT/ASS
Codec ID/Info : Advanced Sub Station Alpha
Compression mode : Lossless
Language : English
Default : Yes
Forced : No

Mardock Scramble [BD 720p]\Mardock Scramble Nenshou [BD 720p]\RUS Sound [AnimeSpace]\Mardock_Scramble_The_Second_Combustion_(2011)_[720p,BluRay,flac,x264]_-_THORA.mka
Format : Matroska
Format version : Version 2
File size : 177 MiB
Duration : 1h 4mn
Overall bit rate mode : Constant
Overall bit rate : 385 Kbps
Track name : Mardock Scramble: The Second Combustion (2011)
Encoded date : UTC 2012-08-18 17:23:54
Writing application : mkvmerge v5.2.0 ('I can't explain') built on Dec 18 2011 18:12:03
Writing library : libebml v1.2.3 + libmatroska v1.3.0
Attachment : Yes

Audio
ID : 1
Format : AC-3
Format/Info : Audio Coding 3
Mode extension : CM (complete main)
Format settings, Endianness : Big
Codec ID : A_AC3
Duration : 1h 4mn
Bit rate mode : Constant
Bit rate : 384 Kbps
Channel(s) : 6 channels
Channel positions : Front: L C R, Side: L R, LFE
Sampling rate : 48.0 KHz
Bit depth : 16 bits
Compression mode : Lossy
Stream size : 176 MiB (100%)
Title : Rus (AnimeSpace Team)
Language : Russian
Default : Yes
Forced : Yes

Mardock_Scramble_The_Second_Combustion_(2011)_[720p,BluRay,flac,x264]_-_THORA.mkv
Format : Matroska
Format version : Version 2
File size : 4.37 GiB
Duration : 1h 4mn
Overall bit rate mode : Variable
Overall bit rate : 9 752 Kbps
Movie name : Mardock Scramble: The Second Combustion (2011)
Encoded date : UTC 2012-08-02 07:16:08
Writing application : mkvmerge v4.9.1 ('Ich will') built on Jul 11 2011 23:53:15
Writing library : libebml v1.2.1 + libmatroska v1.1.1
Attachment : Yes

Video
ID : 1
Format : AVC
Format/Info : Advanced Video Codec
Format profile : High@L4.1
Format settings, CABAC : Yes
Format settings, ReFrames : 6 frames
Muxing mode : Header stripping
Codec ID : V_MPEG4/ISO/AVC
Duration : 1h 4mn
Width : 1 280 pixels
Height : 720 pixels
Display aspect ratio : 16:9
Frame rate : 23.976 fps
Color space : YUV
Chroma subsampling : 4:2:0
Bit depth : 8 bits
Scan type : Progressive
Writing library : x264 core
Language : Japanese
Default : Yes
Forced : No

Audio
ID : 2
Format : FLAC
Format/Info : Free Lossless Audio Codec
Codec ID : A_FLAC
Duration : 1h 4mn
Bit rate mode : Variable
Channel(s) : 6 channels
Sampling rate : 48.0 KHz
Bit depth : 16 bits
Writing library : libFLAC 1.2.1 (UTC 2007-09-17)
Language : Japanese
Default : Yes
Forced : No

Text
ID : 3
Format : ASS
Codec ID : S_TEXT/ASS
Codec ID/Info : Advanced Sub Station Alpha
Compression mode : Lossless
Language : English
Default : Yes
Forced : No

Mardock Scramble [BD 720p]\Mardock Scramble Haiki [BD 720p]\RUS Sound [Anything-group]\Mardock_Scramble_The_Third_Exhaust_(2012)_[720p,BluRay,flac,x264]_-_THORA.mka
Format : Matroska
Format version : Version 4 / Version 2
File size : 95.2 MiB
Duration : 1h 8mn
Overall bit rate : 193 Kbps
Track name : Mardock Scramble: The Third Exhaust (2012)
Encoded date : UTC 2013-11-06 11:21:38
Writing application : mkvmerge v6.5.0 ('Isn't she lovely') built on Oct 20 2013 12:50:05
Writing library : libebml v1.3.0 + libmatroska v1.4.1
Attachment : Yes

Audio
ID : 1
Format : AAC
Format/Info : Advanced Audio Codec
Format profile : LC
Codec ID : A_AAC
Duration : 1h 8mn
Channel(s) : 2 channels
Channel positions : Front: L R
Sampling rate : 48.0 KHz
Compression mode : Lossy
Title : Sad_Kit & Trina_D
Language : Russian
Default : Yes
Forced : No

Mardock Scramble [BD 720p]\Mardock Scramble Haiki [BD 720p]\Mardock_Scramble_The_Third_Exhaust_(2012)_[720p,BluRay,flac,x264]_-_THORA.mkv
Format : Matroska
Format version : Version 2
File size : 4.36 GiB
Duration : 1h 8mn
Overall bit rate mode : Variable
Overall bit rate : 9 069 Kbps
Movie name : Mardock Scramble: The Third Exhaust (2012)
Encoded date : UTC 2013-10-04 08:01:23
Writing application : mkvmerge v4.9.1 ('Ich will') built on Jul 11 2011 23:53:15
Writing library : libebml v1.2.1 + libmatroska v1.1.1
Attachment : Yes

Video
ID : 1
Format : AVC
Format/Info : Advanced Video Codec
Format profile : High@L4.1
Format settings, CABAC : Yes
Format settings, ReFrames : 6 frames
Muxing mode : Header stripping
Codec ID : V_MPEG4/ISO/AVC
Duration : 1h 8mn
Width : 1 280 pixels
Height : 720 pixels
Display aspect ratio : 16:9
Frame rate mode : Constant
Frame rate : 23.976 fps
Color space : YUV
Chroma subsampling : 4:2:0
Bit depth : 8 bits
Scan type : Progressive
Writing library : x264 core
Language : Japanese
Default : Yes
Forced : No

Audio
ID : 2
Format : FLAC
Format/Info : Free Lossless Audio Codec
Codec ID : A_FLAC
Duration : 1h 8mn
Bit rate mode : Variable
Channel(s) : 6 channels
Sampling rate : 48.0 KHz
Bit depth : 16 bits
Writing library : libFLAC 1.2.1 (UTC 2007-09-17)
Language : Japanese
Default : Yes
Forced : No

Text
ID : 3
Format : ASS
Codec ID : S_TEXT/ASS
Codec ID/Info : Advanced Sub Station Alpha
Compression mode : Lossless
Language : English
Default : Yes
Forced : No
info [Профиль]  [ЛС] 

post 27-Сен-2011 01:02 (спустя 1 час 36 минут) [-]0[+]

Топик был перенесен из форума Оформление раздач (Аниме) в форум HD Rips

Sunny17
 

Mr Spock

Пол: Пол:Муж

Стаж: 5 лет 5 месяцев

Сообщений: 144

Антарктида
Рейтинг

post 27-Сен-2011 10:38 (спустя 11 часов) [-]0[+]

[Цитировать] 

Gits с блэкджэком и шлюхой? И как оно?

_________________
info [Профиль]  [ЛС] 

loatan

Стаж: 6 лет 2 месяца

Сообщений: 54

Предупреждений: 2

Рейтинг

post 27-Сен-2011 13:13 (спустя 2 часа 34 минуты) [-]-14[+]

[Цитировать] 

Вырвиглазно
info [Профиль]  [ЛС] 

I7POCTOTAK

Пол: Пол:Муж

Стаж: 6 лет 9 месяцев

Сообщений: 196

Эстония
Рейтинг

post 28-Сен-2011 23:32 (спустя 1 день 10 часов) [-]0[+]

[Цитировать] 

Классное аниме.... жду 2-ую серию, зараза на САМОМ интересном месте закончилось.

Аниме в некоторых местах доводило до слёз (в плане трогательности).
info [Профиль]  [ЛС] 

Sunny17

Пол: Пол:Жен

Стаж: 7 лет 3 месяца

Сообщений: 733

Россия
Рейтинг

post 16-Авг-2012 17:25 (спустя 10 месяцев 17 дней) [-]1[+]

[Цитировать] 

Обновление:
  • Добавлен второй фильм + замена видео [1] на THORA
  • Озвучка:
    • Трина Дубовицкая & Sad_Kit [2]
  • Субтитры:
    • Nesitach & Stan WarHammer [1-2]

_________________
info [Профиль]  [ЛС] 

Big23

Стаж: 6 лет 5 месяцев

Сообщений: 993

Зимбабве
Рейтинг

post 16-Авг-2012 23:14 (спустя 5 часов) [-]0[+]

[Цитировать] 

Ну наконеец-то уже!
(чуть меньше напряжения и непонятная мне "романтика казино" + поиск смысла в "правилах игры", но наконец-то показали ЧЕМ закончилась стычка с читерским козлом, и на том спасибище! Улыбаюсь )

_________________
везде требуются космонавты
info [Профиль]  [ЛС] 

Yuga

Пол: Пол:Муж

Стаж: 4 года 10 месяцев

Сообщений: 27

Россия
Рейтинг

post 17-Авг-2012 08:20 (спустя 9 часов) [-]0[+]

[Цитировать] 

Интересно, качаю. (:
info [Профиль]  [ЛС] 

r154

Пол: Пол:Муж

Стаж: 4 года 11 месяцев

Сообщений: 43

Рейтинг

post 17-Авг-2012 10:55 (спустя 2 часа 34 минуты) [-]0[+]

[Цитировать] 

Mr Spock писал(а):

И как оно?
Стала пусириоткой

_________________
n/a
info [Профиль]  [ЛС] 

Kirill

Пол: Пол:Муж

Стаж: 6 лет 2 месяца

Сообщений: 197

Россия
Рейтинг

post 21-Авг-2012 18:11 (спустя 4 дня) [-]0[+]

[Цитировать] 

Жду 3-ю серию, чтобы устроить себе "аниме-запой"))))
info [Профиль]  [ЛС] 

Hellioner

Стаж: 4 года 4 месяца

Сообщений: 21

Германия
Рейтинг

post 31-Окт-2012 20:25 (спустя 2 месяца 10 дней) [-]0[+]

[Цитировать] 

А 3 серия когда появится?
info [Профиль]  [ЛС] 

Кнут Гамуссон

Пол: Пол:Муж

Стаж: 7 лет 4 месяца

Сообщений: 1255

Предупреждений: 1

СССР
Рейтинг

post 01-Ноя-2012 13:14 (спустя 16 часов) [-]-1[+]

[Цитировать] 

Сдается мне такое уже было раньше и ни разу не вставило.
info [Профиль]  [ЛС] 

Sunny17

Пол: Пол:Жен

Стаж: 7 лет 3 месяца

Сообщений: 733

Россия
Рейтинг

post 06-Ноя-2013 16:11 (спустя 1 год) [-]0[+]

[Цитировать] 

Обновление:
  • Добавлен третий фильм
  • Озвучка:
    • Трина Дубовицкая & Sad_Kit [3]
    • AnimeSpace [2]
  • Субтитры:
    • Yakusub Studio [2-3]
    • Dreamers Team & Timecraft [2-3]

_________________
info [Профиль]  [ЛС] 

naispy2

Стаж: 6 лет 9 месяцев

Сообщений: 269

Рейтинг

post 06-Ноя-2013 19:24 (спустя 3 часа) [-]-4[+]

[Цитировать] 

скучно, сумбурно, неинтересно. Редкие всплески бессмысленного насилия ничего не несут, единственное за что можно похвалить это анимация.
info [Профиль]  [ЛС] 

Jamato

Пол: Пол:Муж

Стаж: 6 лет 9 месяцев

Сообщений: 770

Украина
Рейтинг

post 07-Ноя-2013 03:31 (спустя 8 часов) [-]0[+]

[Цитировать] 

А как по мне - было СОЧНО. Многие штуковины из сай-фая увидел, которые раньше не экранизировались нормально. Первый мувик совершенно очаровал. Остальные на уровне.

_________________
Экономлю энергию и деньги на С.С.С.Р.
Сигаретах.Спиртном.Сексе.Радости...(с)闇倭
info [Профиль]  [ЛС] 

Ryline

Пол: Пол:Муж

Стаж: 6 лет 4 месяца

Сообщений: 523

Рейтинг

post 07-Ноя-2013 18:59 (спустя 15 часов) [-]0[+]

[Цитировать] 

Как же я скучал по киберпанку. Большие сиьски - это, конечно же, хорошо, но хочется чего-нибудь поинтересней.

_________________
@rfxjust | Everything is going to be alright.
info [Профиль]  [ЛС] 
Показать сообщения:    
Ответить на тему

Текущее время: 10-Дек 20:44

Часовой пояс: GMT + 4



Вы не можете начинать темы
Вы не можете отвечать на сообщения
Вы не можете редактировать свои сообщения
Вы не можете удалять свои сообщения
Вы не можете голосовать в опросах
Вы не можете прикреплять файлы к сообщениям
Вы не можете скачивать файлы